Subcategories

VA - Esquire's All-American Hot Jazz Sessions (1988)

Posted By: Designol
VA - Esquire's All-American Hot Jazz Sessions (1988)

VA - Esquire's All-American Hot Jazz Sessions (1988)
EAC | FLAC | Tracks (Cue&Log) ~ 234 Mb | Mp3 (CBR320) ~ 166 Mb | Scans included
Classic Jazz, Swing | Label: Bluebird/RCA/BMG | # 6757-2-RB | Time: 01:07:07

This exciting CD has 20 diverse performances that were originally produced by Leonard Feather for the Victor label during 1946-47. The first eight selections feature various versions of Esquire's All-American Award Winners and have some unique combinations of musicians. "Long Long Journey" was the first record to match together Duke Ellington (who verbally introduces the song) and Louis Armstrong, and on "Snafu" Armstrong takes a surprisingly modern solo that hints at bebop. Trumpeter Charlie Shavers creates a remarkable improvisation on "The One That Got Away," ltoist Johnny Hodges plays beautifully on "Gone with the Wind" and other key players include tenor saxophonist Don Byas, trumpeter Buck Clayton, trombonist J.J. Johnson and tenor saxophonist Coleman Hawkins. In addition, there are selections featuring trombonist Jack Teagarden ("Blues After Hours"), the 52nd Street All-Stars (with Shavers, Hawkins and tenorman Allan Eager), the tenor of Lucky Thompson (his rendition of "Just One More Chance" is a classic), trumpeter Neal Hefti (on the humorous and memorable "From Dixieland to Bop"), altoist Benny Carter, singer Mildred Bailey ("I Don't Wanna Miss Mississippi") and solo piano records by Art Tatum and Erroll Garner. The mid-to-late '40s were a particularly rich period for jazz and this highly recommended CD is filled with gems.

Review by Scott Yanow, Allmusic.com

VA - Esquire's All-American Hot Jazz Sessions (1988)


Tracklist:

01. Long Long Journey (4:33)
02. Snafu (4:14)
03. The One That Got Away (4:27)
04. Gone with the Wind (4:39)
05. Indiana Winter (2:29)
06. Indian Summer (3:12)
07. Blow Me Down (2:55)
08. Buckin' the Blues (3:00)
09. Blues After Hours (3:19)
10. Low Flame (3:10)
11. Allen's Alley (3:05)
12. Just One More Chance (3:13)
13. From Dixieland to Be-Bop (3:05)
14. Boulevard Bounce (3:17)
15. Boppin' the Blues (3:01)
16. Ain't Misbehavin' (2:40)
17. Cherokee (3:01)
18. Erroll's Bounce (2:58)
19. Erroll's Blues (3:25)
20. I Don't Wanna Miss Mississippi (3:22)


Exact Audio Copy V1.0 beta 3 from 29. August 2011

EAC extraction logfile from 6. May 2012, 16:46

Various / Esquire's All-American Hot Jazz Sessions

Used drive : PLEXTOR DVDR PX-810UF Adapter: 5 ID: 0

Read mode : Secure
Utilize accurate stream : Yes
Defeat audio cache : Yes
Make use of C2 pointers : No

Read offset correction : 667
Overread into Lead-In and Lead-Out : No
Fill up missing offset samples with silence : Yes
Delete leading and trailing silent blocks : No
Null samples used in CRC calculations : Yes
Used interface : Native Win32 interface for Win NT & 2000
Gap handling : Appended to previous track

Used output format : User Defined Encoder
Selected bitrate : 128 kBit/s
Quality : High
Add ID3 tag : No
Command line compressor : C:\Program Files\Exact Audio Copy\Flac\flac.exe
Additional command line options : -8 -V -T "ARTIST=%artist%" -T "TITLE=%title%" -T "ALBUM=%albumtitle%" -T "DATE=%year%" -T "TRACKNUMBER=%tracknr%" -T "TOTALTRACKS=%numtracks%" -T "GENRE=%genre%" -T "ALBUMARTIST=%albumartist%" -T "ALBUM ARTIST=%albumartist%" -T "COMMENT=EAC Secure Mode, Test & Copy, AccurateRip, FLAC -8" %source%


TOC of the extracted CD

Track | Start | Length | Start sector | End sector
––––––––––––––––––––––––––––-
1 | 0:00.00 | 4:33.13 | 0 | 20487
2 | 4:33.13 | 4:14.22 | 20488 | 39559
3 | 8:47.35 | 4:26.50 | 39560 | 59559
4 | 13:14.10 | 4:39.20 | 59560 | 80504
5 | 17:53.30 | 2:29.03 | 80505 | 91682
6 | 20:22.33 | 3:12.15 | 91683 | 106097
7 | 23:34.48 | 2:55.12 | 106098 | 119234
8 | 26:29.60 | 3:00.10 | 119235 | 132744
9 | 29:29.70 | 3:19.15 | 132745 | 147684
10 | 32:49.10 | 3:10.18 | 147685 | 161952
11 | 35:59.28 | 3:04.65 | 161953 | 175817
12 | 39:04.18 | 3:12.67 | 175818 | 190284
13 | 42:17.10 | 3:04.65 | 190285 | 204149
14 | 45:22.00 | 3:17.23 | 204150 | 218947
15 | 48:39.23 | 3:01.07 | 218948 | 232529
16 | 51:40.30 | 2:39.63 | 232530 | 244517
17 | 54:20.18 | 3:01.35 | 244518 | 258127
18 | 57:21.53 | 2:58.00 | 258128 | 271477
19 | 60:19.53 | 3:25.15 | 271478 | 286867
20 | 63:44.68 | 3:22.20 | 286868 | 302037


Track 1

Filename F:\EAC WAV\01 - Feather, Leonard - Long long journey.wav

Pre-gap length 0:00:02.00

Peak level 76.3 %
Extraction speed 4.5 X
Track quality 100.0 %
Test CRC F327C3E6
Copy CRC F327C3E6
Accurately ripped (confidence 2) [4BE7AE6D] (AR v1)
Copy OK

Track 2

Filename F:\EAC WAV\02 - Feather, Leonard - Snafu.wav

Pre-gap length 0:00:00.20

Peak level 74.6 %
Extraction speed 4.1 X
Track quality 99.9 %
Test CRC 8C9323DC
Copy CRC 8C9323DC
Accurately ripped (confidence 2) [177B09B4] (AR v1)
Copy OK

Track 3

Filename F:\EAC WAV\03 - Feather, Leonard - The one that got away.wav

Pre-gap length 0:00:00.60

Peak level 73.5 %
Extraction speed 5.5 X
Track quality 100.0 %
Test CRC 471E6411
Copy CRC 471E6411
Accurately ripped (confidence 2) [C0636EC1] (AR v1)
Copy OK

Track 4

Filename F:\EAC WAV\04 - Wrubel, Magdison - Gone with the wind.wav

Pre-gap length 0:00:00.55

Peak level 72.6 %
Extraction speed 5.9 X
Track quality 100.0 %
Test CRC B319B82A
Copy CRC B319B82A
Accurately ripped (confidence 2) [A8FA2FE7] (AR v1)
Copy OK

Track 5

Filename F:\EAC WAV\05 - Feather, Leonard - Indiana winter.wav

Pre-gap length 0:00:00.70

Peak level 78.5 %
Extraction speed 4.1 X
Track quality 99.9 %
Test CRC 3E47D116
Copy CRC 3E47D116
Accurately ripped (confidence 2) [D24EC966] (AR v1)
Copy OK

Track 6

Filename F:\EAC WAV\06 - Dubin, Herbert - Indian summer.wav

Pre-gap length 0:00:00.45

Peak level 71.2 %
Extraction speed 4.7 X
Track quality 99.9 %
Test CRC 76400B37
Copy CRC 76400B37
Accurately ripped (confidence 2) [84FF3F2F] (AR v1)
Copy OK

Track 7

Filename F:\EAC WAV\07 - Moore Jr., Billy - Blow me down.wav

Pre-gap length 0:00:00.40

Peak level 74.7 %
Extraction speed 5.9 X
Track quality 100.0 %
Test CRC D0700DC8
Copy CRC D0700DC8
Accurately ripped (confidence 2) [F3B625F7] (AR v1)
Copy OK

Track 8

Filename F:\EAC WAV\08 - Feather, Leonard - Buckin' the blues.wav

Pre-gap length 0:00:01.32

Peak level 60.9 %
Extraction speed 6.1 X
Track quality 100.0 %
Test CRC 99FB53F7
Copy CRC 99FB53F7
Accurately ripped (confidence 2) [6BB4EA07] (AR v1)
Copy OK

Track 9

Filename F:\EAC WAV\09 - Teagarden, Jack - Blues after hours.wav

Pre-gap length 0:00:00.57

Peak level 66.3 %
Extraction speed 5.3 X
Track quality 99.9 %
Test CRC D31B2D02
Copy CRC D31B2D02
Accurately ripped (confidence 2) [54A9CF0F] (AR v1)
Copy OK

Track 10

Filename F:\EAC WAV\10 - Feather, Leonard - Low flame.wav

Pre-gap length 0:00:00.10

Peak level 77.4 %
Extraction speed 5.3 X
Track quality 99.9 %
Test CRC C0A16D65
Copy CRC C0A16D65
Accurately ripped (confidence 2) [D088DC73] (AR v1)
Copy OK

Track 11

Filename F:\EAC WAV\11 - Best, Denzil - Allen's alley.wav

Pre-gap length 0:00:00.28

Peak level 72.1 %
Extraction speed 6.8 X
Track quality 100.0 %
Test CRC ACDF15A9
Copy CRC ACDF15A9
Accurately ripped (confidence 2) [40F1D59E] (AR v1)
Copy OK

Track 12

Filename F:\EAC WAV\12 - Johnson, Coslow - Just one more chance.wav

Peak level 56.8 %
Extraction speed 5.7 X
Track quality 99.9 %
Test CRC F19B0033
Copy CRC F19B0033
Accurately ripped (confidence 2) [81260E21] (AR v1)
Copy OK

Track 13

Filename F:\EAC WAV\13 - Feather, Leonard - From Dixieland to Be-Bop.wav

Pre-gap length 0:00:02.10

Peak level 69.2 %
Extraction speed 7.1 X
Track quality 100.0 %
Test CRC 063829CC
Copy CRC 063829CC
Accurately ripped (confidence 2) [766BDB3F] (AR v1)
Copy OK

Track 14

Filename F:\EAC WAV\14 - Carter, Benny - Boulevard bounce.wav

Pre-gap length 0:00:02.02

Peak level 73.1 %
Extraction speed 7.6 X
Track quality 100.0 %
Test CRC CD4A405D
Copy CRC CD4A405D
Accurately ripped (confidence 2) [4CBB8D98] (AR v1)
Copy OK

Track 15

Filename F:\EAC WAV\15 - Feather, Leonard - Boppin' the Blues.wav

Pre-gap length 0:00:01.13

Peak level 82.1 %
Extraction speed 7.6 X
Track quality 100.0 %
Test CRC C2ADE3AC
Copy CRC C2ADE3AC
Accurately ripped (confidence 2) [B6A13C27] (AR v1)
Copy OK

Track 16

Filename F:\EAC WAV\16 - Razaf, Waller - Ain't misbehavin'.wav

Pre-gap length 0:00:02.32

Peak level 54.1 %
Extraction speed 7.6 X
Track quality 100.0 %
Test CRC EF5849AC
Copy CRC EF5849AC
Accurately ripped (confidence 2) [B48BA4D2] (AR v1)
Copy OK

Track 17

Filename F:\EAC WAV\17 - Noble, Ray - Cherokee.wav

Pre-gap length 0:00:00.30

Peak level 91.3 %
Extraction speed 7.6 X
Track quality 100.0 %
Test CRC 399AA8F6
Copy CRC 399AA8F6
Accurately ripped (confidence 2) [6097484A] (AR v1)
Copy OK

Track 18

Filename F:\EAC WAV\18 - Garner, Erroll - Erroll's bounce.wav

Pre-gap length 0:00:00.45

Peak level 73.7 %
Extraction speed 8.1 X
Track quality 100.0 %
Test CRC 8CB191BC
Copy CRC 8CB191BC
Accurately ripped (confidence 2) [3D52A1B9] (AR v1)
Copy OK

Track 19

Filename F:\EAC WAV\19 - Garner, Erroll - Erroll's Blues.wav

Pre-gap length 0:00:00.68

Peak level 79.9 %
Extraction speed 6.6 X
Track quality 99.9 %
Test CRC 205E5B00
Copy CRC 205E5B00
Accurately ripped (confidence 2) [E658C944] (AR v1)
Copy OK

Track 20

Filename F:\EAC WAV\20 - Ellis, Seeger - I don't wanna miss Mississippi.wav

Pre-gap length 0:00:00.28

Peak level 80.5 %
Extraction speed 8.5 X
Track quality 100.0 %
Test CRC 01F5C5D7
Copy CRC 01F5C5D7
Accurately ripped (confidence 2) [C4273FDE] (AR v1)
Copy OK


All tracks accurately ripped

No errors occurred

End of status report

==== Log checksum 429D4BF98706DFF569AE2D0A05B0D14129C70EDC8994BC8CA3BFC0EAE550358D ====

foobar2000 1.2 / Dynamic Range Meter 1.1.1
log date: 2015-10-07 00:05:31

––––––––––––––––––––––––––––––––––––––––
Analyzed: Various / Esquire's All-American Hot Jazz Sessions
––––––––––––––––––––––––––––––––––––––––

DR Peak RMS Duration Track
––––––––––––––––––––––––––––––––––––––––
DR12 -2.34 dB -17.52 dB 4:33 01-Long Long Journey
DR13 -2.54 dB -17.01 dB 4:14 02-Snafu
DR13 -2.67 dB -18.71 dB 4:27 03-The One That Got Away
DR12 -2.77 dB -18.69 dB 4:39 04-Gone with the Wind
DR13 -2.10 dB -16.40 dB 2:29 05-Indiana Winter
DR12 -2.94 dB -17.40 dB 3:12 06-Indian Summer
DR12 -2.53 dB -16.50 dB 2:55 07-Blow Me Down
DR10 -4.29 dB -16.99 dB 3:00 08-Buckin' the Blues
DR11 -3.56 dB -17.53 dB 3:19 09-Blues After Hours
DR11 -2.22 dB -17.11 dB 3:10 10-Low Flame
DR12 -2.83 dB -16.59 dB 3:05 11-Allen's Alley
DR11 -4.91 dB -17.53 dB 3:13 12-Just One More Chance
DR11 -3.19 dB -15.70 dB 3:05 13-From Dixieland to Be-Bop
DR11 -2.72 dB -15.76 dB 3:17 14-Boulevard Bounce
DR12 -1.71 dB -15.14 dB 3:01 15-Boppin' the Blues
DR12 -5.33 dB -20.00 dB 2:40 16-Ain't Misbehavin'
DR11 -0.79 dB -15.15 dB 3:01 17-Cherokee
DR12 -2.65 dB -16.76 dB 2:58 18-Erroll's Bounce
DR11 -1.94 dB -15.41 dB 3:25 19-Erroll's Blues
DR11 -1.88 dB -18.12 dB 3:22 20-I Don't Wanna Miss Mississippi
––––––––––––––––––––––––––––––––––––––––

Number of tracks: 20
Official DR value: DR12

Samplerate: 44100 Hz
Channels: 2
Bits per sample: 16
Bitrate: 398 kbps
Codec: FLAC
================================================================================

VA - Esquire's All-American Hot Jazz Sessions (1988)

All thanks to original releaser - Zoeb

More interesting music in My Blog