Subcategories

VA - From Latin... To Jazz Dance, Volume 1-5 (2003) 5 CD [Re-Up]

Posted By: Designol
VA - From Latin... To Jazz Dance, Volume 1-5 (2003) 5 CD [Re-Up]

VA - From Latin… To Jazz Dance, Volume 1-5 (2003) 5 CD
EAC | FLAC | Image (Cue&Log) ~ 1.7 Gb | Mp3 (CBR320) ~ 717 Mb | Scans included
Genre: Latin Jazz, Samba Jazz, Bossa Nova | Time: 04:47:09

This is series of seriously intoxicating Latin and American Bossa-Samba-Jazz sounds! It all began in the '50s when composer Antonio Carlos Jobim, inspired by West Coast Jazz, helped to form a new music that blended together gentle Brazilian Samba rhythms and melodies with cool-toned improvising. These compilations contain the results of Jobim's influential musical experiment, as they feature a myriad of artists serving up a cocktail blend of rare original Brazilian and American Bossa Nova and Jazz from the 60's. Each volume comes complete with a different sexy vixen on each of the covers…and we do mean SEXY! Includes 80 tracks featuring classic performances by Les McCann, Mongo Santamaria, Cal Tjader, The Champs, Lalo Schifrin, Nina Simone, Stan Getz, Art Blakey, Mel Torme, Peggy Lee, Dizzy Gillespie, Herbie Man, Kenny Burrell, Mose Allison, Candido, Xavier Cugat & His Orhcestra, Sergio Mendes & Brasil 66 and many more.



VA - From Latin... To Jazz Dance, Volume 1-5 (2003) 5 CD [Re-Up]

VA - From Latin… To Jazz Dance, Volume 1 (2003)
EAC | FLAC | Image (Cue&Log) ~ 354 Mb | Mp3 (CBR320) ~ 144 Mb
Label: Rare Groove | # RG2012cd | Time: 00:57:04 | Scans included


Tracklist:

01. Mongo Santamaria - Sweet 'tater pie (02:41)
02. Les McCann - Boo-go-loo (02:46)
03. Dave Pike - Mathar (03:42)
04. The Champs - Caramba (02:15)
05. Hendricks Lambert & Bavan - Watermelon Man (live) (05:15)
06. Cal Tjader - Samba do suenho (05:48)
07. Miltin Banana Trio - Primitivo (02:40)
08. The Hi-Lo's - The Duck (02:09)
09. Alan Lorber Orchestra - Mas que nada (02:24)
10. Candido ft. Al Cohn - Mambo Inn (04:57)
11. Willie Bobo - Bobo! Do that thing (02:19)
12. Juan Amalbert's Latin Jazz Quintet - Summertime (06:41)
13. Ahmad Jamal - Bogota (04:01)
14. Sonny Stitt - Little red suede shoes (04:03)
15. Earl Grant - Fever (03:11)
16. The Mariachi Brass ft. Chet Baker - Tequila (02:06)


Exact Audio Copy V1.0 beta 3 from 29. August 2011

Отчёт EAC об извлечении, выполненном 19. мая 2013, 1:40

Various / From Latin to Jazz Dance Volume 1

Дисковод: PIONEER DVD-RW DVR-219L Adapter: 0 ID: 0

Режим чтения : Достоверность
Использование точного потока : Да
Отключение кэша аудио : Да
Использование указателей C2 : Нет

Коррекция смещения при чтении : 6
Способность читать области Lead-in и Lead-out : Нет
Заполнение пропущенных сэмплов тишиной : Да
Удаление блоков с тишиной в начале и конце : Нет
При вычислениях CRC использовались нулевые сэмплы : Да
Интерфейс : Встроенный Win32-интерфейс для Win NT/2000

Выходной формат : Пользовательский кодировщик
Выбранный битрейт : 640 kBit/s
Качество : Высокий
Добавление ID3-тега : Нет
Утилита сжатия : C:\Program Files (x86)\Exact Audio Copy\Flac\flac.exe
Дополнительные параметры : -V -8 -T "Date=%year%" -T "Genre=%genre%" %source%


TOC извлечённого CD

Трек | Старт | Длительность | Начальный сектор | Конечный сектор
––––––––––––––––––––––––––––––––––-
1 | 0:00.00 | 2:41.07 | 0 | 12081
2 | 2:41.07 | 2:46.30 | 12082 | 24561
3 | 5:27.37 | 3:42.23 | 24562 | 41234
4 | 9:09.60 | 2:15.00 | 41235 | 51359
5 | 11:24.60 | 5:15.74 | 51360 | 75058
6 | 16:40.59 | 5:48.15 | 75059 | 101173
7 | 22:28.74 | 2:40.13 | 101174 | 113186
8 | 25:09.12 | 2:09.64 | 113187 | 122925
9 | 27:19.01 | 2:24.04 | 122926 | 133729
10 | 29:43.05 | 4:57.74 | 133730 | 156078
11 | 34:41.04 | 2:19.37 | 156079 | 166540
12 | 37:00.41 | 6:41.24 | 166541 | 196639
13 | 43:41.65 | 4:01.10 | 196640 | 214724
14 | 47:43.00 | 4:03.20 | 214725 | 232969
15 | 51:46.20 | 3:11.39 | 232970 | 247333
16 | 54:57.59 | 2:06.29 | 247334 | 256812


Характеристики диапазона извлечения и сообщения об ошибках

Выбранный диапазон

Имя файла E:\dvda\Various - From Latin to Jazz Dance Volume 1.wav

Пиковый уровень 100.0 %
Скорость извлечения 1.7 X
Качество диапазона 100.0 %
CRC теста ED3B2AA4
CRC копии ED3B2AA4
Копирование… OK

Ошибок не произошло


AccurateRip: сводка

Трек 1 точность не определена (достоверность 2) [9BE534D2], AccurateRip вернул [9B195D60] (AR v2)
Трек 2 точность не определена (достоверность 2) [150287EE], AccurateRip вернул [9F3C4FCB] (AR v2)
Трек 3 точность не определена (достоверность 2) [C9532A6F], AccurateRip вернул [7B23958E] (AR v2)
Трек 4 точность не определена (достоверность 3) [2B472777], AccurateRip вернул [993D8068] (AR v2)
Трек 5 точность не определена (достоверность 2) [49B0821D], AccurateRip вернул [12A56630] (AR v2)
Трек 6 точность не определена (достоверность 2) [EE0270D1], AccurateRip вернул [46D3BA52] (AR v2)
Трек 7 точность не определена (достоверность 2) [BE577DFA], AccurateRip вернул [B1A32881] (AR v2)
Трек 8 точность не определена (достоверность 2) [8F108AEF], AccurateRip вернул [02979463] (AR v2)
Трек 9 точность не определена (достоверность 2) [BD4203AE], AccurateRip вернул [B7997E81] (AR v2)
Трек 10 точность не определена (достоверность 2) [3AB973F6], AccurateRip вернул [F56F41FD] (AR v2)
Трек 11 точность не определена (достоверность 2) [B2359FD2], AccurateRip вернул [EFA01682] (AR v2)
Трек 12 точность не определена (достоверность 2) [5AA706E3], AccurateRip вернул [B3FCF198] (AR v2)
Трек 13 точность не определена (достоверность 2) [39372369], AccurateRip вернул [A807AF6D] (AR v2)
Трек 14 точность не определена (достоверность 2) [DA83C032], AccurateRip вернул [314667F2] (AR v2)
Трек 15 точность не определена (достоверность 2) [D8105FB4], AccurateRip вернул [B4741482] (AR v2)
Трек 16 точность не определена (достоверность 2) [5223F9FE], AccurateRip вернул [9A5FA1A0] (AR v2)

Ни один трек не прошёл проверки на точность
В вашей базе может быть иной вариант штамповки диска

Конец отчёта

==== Контрольная сумма отчёта FDAC12410B200631FA979D207C23718A19CB5C3B4F8C7B89A168A69AD5BF295A ====

foobar2000 1.2 / Dynamic Range Meter 1.1.1
log date: 2015-02-27 00:20:28

––––––––––––––––––––––––––––––––––––––––
Analyzed: Various / From Latin to Jazz Dance Volume 1
––––––––––––––––––––––––––––––––––––––––

DR Peak RMS Duration Track
––––––––––––––––––––––––––––––––––––––––
DR11 0.00 dB -12.60 dB 2:41 01-Mongo Santamaria/Sweet 'tater pie
DR9 0.00 dB -11.54 dB 2:46 02-Les McCann/Boo-go-loo
DR9 0.00 dB -11.20 dB 3:42 03-Dave Pike/Mathar
DR10 -0.84 dB -12.43 dB 2:15 04-The Champs/Caramba
DR11 0.00 dB -13.43 dB 5:16 05-Lambert, Hendricks & Bavan/Watermelon Man (live)
DR9 0.00 dB -11.06 dB 5:48 06-Cal Tjader/Samba do suenho
DR9 0.00 dB -10.65 dB 2:40 07-Miltin Banana Trio/Primitivo
DR9 0.00 dB -10.47 dB 2:10 08-The Hi-Lo's/The Duck
DR11 0.00 dB -13.57 dB 2:24 09-Alan Lorber Orchestra/Mas que nada
DR10 0.00 dB -12.69 dB 4:58 10-Candido ft. Al Cohn/Mambo Inn
DR10 0.00 dB -11.52 dB 2:19 11-Willie Bobo/Bobo! Do that thing
DR10 0.00 dB -13.32 dB 6:41 12-Juan Amalbert's Latin Jazz Quintet/Summertime
DR11 0.00 dB -13.32 dB 4:01 13-Ahmad Jamal/Bogota
DR11 0.00 dB -12.41 dB 4:03 14-Sonny Stitt/Little red suede shoes
DR11 0.00 dB -12.53 dB 3:12 15-Earl Grant/Fever
DR10 -0.66 dB -12.63 dB 2:06 16-The Mariachi Brass ft. Chet Baker/Tequila
––––––––––––––––––––––––––––––––––––––––

Number of tracks: 16
Official DR value: DR10

Samplerate: 44100 Hz
Channels: 2
Bits per sample: 16
Bitrate: 815 kbps
Codec: FLAC
================================================================================




VA - From Latin... To Jazz Dance, Volume 1-5 (2003) 5 CD [Re-Up]

VA - From Latin… To Jazz Dance, Volume 2 (2003)
EAC | FLAC | Image (Cue&Log) ~ 310 Mb | Mp3 (CBR320) ~ 116 Mb
Label: Rare Groove | # RG2013cd | Time: 00:46:23 | Scans included


Tracklist:

01. Lalo Schifrin - The Cat (02:41)
02. Eldee Young - Mr. Kicks (02:40)
03. Nina Simone - See Line Woman (02:35)
04. Sergio Mendes - Boranda (02:40)
05. Art Blakey - No Hay Woman (04:34)
06. Xavier Cugat - Soul Sauce (02:23)
07. Mongo Santamaria - Funny Money (02:14)
08. Stan Kenton - The Peanut Vendor (02:43)
09. Mel Torme - Conin' Home (02:35)
10. Stan Getz - Maracatu (04:59)
11. Gene Krupa - Perdido (02:28)
12. The Ramsey - The IN crowd (03:16)
13. Andy.. - Sister Sadie (02:30)
14. Willie Bobo - Guajira (02:50)
15. Buddy Greco - Fever (02:28)
16. Dom um romao - Birimbau (02:40)


Exact Audio Copy V1.0 beta 3 from 29. August 2011

Отчёт EAC об извлечении, выполненном 4. июня 2013, 17:11

VA / From Latin To Jazz Dance Vol2 (RG2013CD)

Дисковод: PIONEER DVD-RW DVR-219L Adapter: 0 ID: 0

Режим чтения : Достоверность
Использование точного потока : Да
Отключение кэша аудио : Да
Использование указателей C2 : Нет

Коррекция смещения при чтении : 6
Способность читать области Lead-in и Lead-out : Нет
Заполнение пропущенных сэмплов тишиной : Да
Удаление блоков с тишиной в начале и конце : Нет
При вычислениях CRC использовались нулевые сэмплы : Да
Интерфейс : Встроенный Win32-интерфейс для Win NT/2000

Выходной формат : Пользовательский кодировщик
Выбранный битрейт : 640 kBit/s
Качество : Высокий
Добавление ID3-тега : Нет
Утилита сжатия : C:\Program Files (x86)\Exact Audio Copy\Flac\flac.exe
Дополнительные параметры : -V -8 -T "Date=%year%" -T "Genre=%genre%" %source%


TOC извлечённого CD

Трек | Старт | Длительность | Начальный сектор | Конечный сектор
––––––––––––––––––––––––––––––––––-
1 | 0:00.00 | 2:41.08 | 0 | 12082
2 | 2:41.08 | 2:40.34 | 12083 | 24116
3 | 5:21.42 | 2:35.11 | 24117 | 35752
4 | 7:56.53 | 2:40.66 | 35753 | 47818
5 | 10:37.44 | 4:34.35 | 47819 | 68403
6 | 15:12.04 | 2:23.42 | 68404 | 79170
7 | 17:35.46 | 2:14.31 | 79171 | 89251
8 | 19:50.02 | 2:43.61 | 89252 | 101537
9 | 22:33.63 | 2:35.71 | 101538 | 113233
10 | 25:09.59 | 4:59.05 | 113234 | 135663
11 | 30:08.64 | 2:28.34 | 135664 | 146797
12 | 32:37.23 | 3:16.48 | 146798 | 161545
13 | 35:53.71 | 2:30.48 | 161546 | 172843
14 | 38:24.44 | 2:50.19 | 172844 | 185612
15 | 41:14.63 | 2:28.12 | 185613 | 196724
16 | 43:43.00 | 2:40.08 | 196725 | 208732


Характеристики диапазона извлечения и сообщения об ошибках

Выбранный диапазон

Имя файла E:\dvda\VA - From Latin To Jazz Dance Vol2 (RG2013CD).wav

Пиковый уровень 100.0 %
Скорость извлечения 1.6 X
Качество диапазона 100.0 %
CRC теста B34CA03A
CRC копии B34CA03A
Копирование… OK

Ошибок не произошло


AccurateRip: сводка

Трек 1 точность не определена (достоверность 2) [2D89B9AC], AccurateRip вернул [4E5F3041] (AR v2)
Трек 2 точность не определена (достоверность 2) [42B9785E], AccurateRip вернул [25B15972] (AR v2)
Трек 3 точность не определена (достоверность 2) [A9520983], AccurateRip вернул [A8AE2013] (AR v2)
Трек 4 точность не определена (достоверность 2) [2E018BE5], AccurateRip вернул [C20828AD] (AR v2)
Трек 5 точность не определена (достоверность 2) [71ADA888], AccurateRip вернул [57BBD88F] (AR v2)
Трек 6 точность не определена (достоверность 2) [897CC2A1], AccurateRip вернул [9BE731A3] (AR v2)
Трек 7 точность не определена (достоверность 2) [7CCF7F31], AccurateRip вернул [0D06466B] (AR v2)
Трек 8 точность не определена (достоверность 2) [AEC8FEE8], AccurateRip вернул [C289DFE9] (AR v2)
Трек 9 точность не определена (достоверность 2) [D9F96F41], AccurateRip вернул [A35012AD] (AR v2)
Трек 10 точность не определена (достоверность 2) [020C11B4], AccurateRip вернул [0EE55C51] (AR v2)
Трек 11 точность не определена (достоверность 2) [640CE43A], AccurateRip вернул [292BA59E] (AR v2)
Трек 12 точность не определена (достоверность 2) [9FFD8059], AccurateRip вернул [C78BBF9B] (AR v2)
Трек 13 точность не определена (достоверность 2) [FCBE9C25], AccurateRip вернул [3AA895D2] (AR v2)
Трек 14 точность не определена (достоверность 2) [E5BAC378], AccurateRip вернул [6D711C45] (AR v2)
Трек 15 точность не определена (достоверность 2) [15ABFFA3], AccurateRip вернул [DFF87382] (AR v2)
Трек 16 точность не определена (достоверность 2) [85B7782E], AccurateRip вернул [F0F888B8] (AR v2)

Ни один трек не прошёл проверки на точность
В вашей базе может быть иной вариант штамповки диска

Конец отчёта

==== Контрольная сумма отчёта 62A743D3A00A7EA91F7D3D18793BCE696A00D58C1C0FB3E367C6F9D55EA37D28 ====

foobar2000 1.2 / Dynamic Range Meter 1.1.1
log date: 2015-02-27 00:20:42

––––––––––––––––––––––––––––––––––––––––
Analyzed: Unknown / From Latin To Jazz Dance Vol2 (RG2013CD)
––––––––––––––––––––––––––––––––––––––––

DR Peak RMS Duration Track
––––––––––––––––––––––––––––––––––––––––
DR9 0.00 dB -10.71 dB 2:41 01-Lalo Schifrin - The Cat
DR10 0.00 dB -14.02 dB 2:40 02-Eldee Young - Mr. Kicks
DR10 0.00 dB -11.78 dB 2:35 03-Nina Simone - See Line Woman
DR7 0.00 dB -9.53 dB 2:41 04-Sergio Mendes - Boranda
DR8 0.00 dB -10.10 dB 4:34 05-Art Blakey - No Hay Woman
DR9 0.00 dB -9.76 dB 2:24 06-Xavier Cugat - Soul Sauce
DR9 0.00 dB -10.48 dB 2:14 07-Mongo Santamaria - Funny Money
DR8 0.00 dB -9.46 dB 2:44 08-Stan Kenton - The Peanut Vendor
DR8 0.00 dB -9.11 dB 2:36 09-Mel Torme - Conin' Home
DR9 -1.07 dB -12.10 dB 4:59 10-Stan Getz - Maracatu
DR12 0.00 dB -13.54 dB 2:28 11-Gene Krupa - Perdido
DR10 0.00 dB -11.92 dB 3:17 12-The Ramsey - The IN crowd
DR10 0.00 dB -11.38 dB 2:31 13-Andy.. - Sister Sadie
DR11 0.00 dB -13.04 dB 2:50 14-Willie Bobo - Guajira
DR11 0.00 dB -13.35 dB 2:28 15-Buddy Greco - Fever
DR9 0.00 dB -12.22 dB 2:40 16-Dom um romao - Birimbau
––––––––––––––––––––––––––––––––––––––––

Number of tracks: 16
Official DR value: DR9

Samplerate: 44100 Hz
Channels: 2
Bits per sample: 16
Bitrate: 861 kbps
Codec: FLAC
================================================================================




VA - From Latin... To Jazz Dance, Volume 1-5 (2003) 5 CD [Re-Up]

VA - From Latin… To Jazz Dance, Volume 3 (2003)
EAC | FLAC | Image (Cue&Log) ~ 349 Mb | Mp3 (CBR320) ~ 146 Mb
Label: Rare Groove | # RG2014cd | Time: 00:58:45 | Scans included


Tracklist:

01. Herbie Man - Deve Ser Amor (04:17)
02. Bill Doggett - Hold It (02:29)
03. The Champs - Sombrero (02:06)
04. Tennesse Ernie Ford - Sixteen Tons (02:36)
05. Kenny Burrell Trio - Well You Needn't (live) (04:24)
06. Brother Jack McDuff - Screamin (07:15)
07. Illinois Jacquet - Like Young (03:59)
08. Peggy Lee - Fever (03:20)
09. Roland Kirk - Fallout (02:58)
10. Sonny Stitt & Jack McDuff - Soul Shack (07:12)
11. Boots Brown & His Blockbusters - Cerveza (02:06)
12. Les Double Six - A Night In Tunisia (02:58)
13. Jimmy Smith - What'd I Say (02:51)
14. Os Brasileiros - Maracangalha (02:13)
15. Dave Cortez - Shake (02:43)
16. The Art Blakey Percussion Ensemble - The Sacrifice (05:08)


Exact Audio Copy V1.0 beta 3 from 29. August 2011

Отчёт EAC об извлечении, выполненном 4. июня 2013, 20:08

VA / From Latin To Jazz Dance Vol3 (RG2014CD)

Дисковод: PIONEER DVD-RW DVR-219L Adapter: 0 ID: 0

Режим чтения : Достоверность
Использование точного потока : Да
Отключение кэша аудио : Да
Использование указателей C2 : Нет

Коррекция смещения при чтении : 6
Способность читать области Lead-in и Lead-out : Нет
Заполнение пропущенных сэмплов тишиной : Да
Удаление блоков с тишиной в начале и конце : Нет
При вычислениях CRC использовались нулевые сэмплы : Да
Интерфейс : Встроенный Win32-интерфейс для Win NT/2000

Выходной формат : Пользовательский кодировщик
Выбранный битрейт : 640 kBit/s
Качество : Высокий
Добавление ID3-тега : Нет
Утилита сжатия : C:\Program Files (x86)\Exact Audio Copy\Flac\flac.exe
Дополнительные параметры : -V -8 -T "Date=%year%" -T "Genre=%genre%" %source%


TOC извлечённого CD

Трек | Старт | Длительность | Начальный сектор | Конечный сектор
––––––––––––––––––––––––––––––––––-
1 | 0:00.00 | 4:17.57 | 0 | 19331
2 | 4:17.57 | 2:29.71 | 19332 | 30577
3 | 6:47.53 | 2:06.11 | 30578 | 40038
4 | 8:53.64 | 2:36.73 | 40039 | 51811
5 | 11:30.62 | 4:24.49 | 51812 | 71660
6 | 15:55.36 | 7:15.32 | 71661 | 104317
7 | 23:10.68 | 3:59.69 | 104318 | 122311
8 | 27:10.62 | 3:20.18 | 122312 | 137329
9 | 30:31.05 | 2:58.47 | 137330 | 150726
10 | 33:29.52 | 7:12.68 | 150727 | 183194
11 | 40:42.45 | 2:06.20 | 183195 | 192664
12 | 42:48.65 | 2:58.35 | 192665 | 206049
13 | 45:47.25 | 2:51.73 | 206050 | 218947
14 | 48:39.23 | 2:13.58 | 218948 | 228980
15 | 50:53.06 | 2:43.28 | 228981 | 241233
16 | 53:36.34 | 5:08.61 | 241234 | 264394


Характеристики диапазона извлечения и сообщения об ошибках

Выбранный диапазон

Имя файла E:\dvda\VA - From Latin To Jazz Dance Vol3 (RG2014CD).wav

Пиковый уровень 100.0 %
Скорость извлечения 1.7 X
Качество диапазона 100.0 %
CRC теста DA3EBEA9
CRC копии DA3EBEA9
Копирование… OK

Ошибок не произошло


AccurateRip: сводка

Трек 1 точность не определена (достоверность 5) [6C9D3B71], AccurateRip вернул [48B5A039] (AR v2)
Трек 2 точность не определена (достоверность 5) [EAFE7E76], AccurateRip вернул [486FE962] (AR v2)
Трек 3 точность не определена (достоверность 4) [2FD47704], AccurateRip вернул [36528531] (AR v2)
Трек 4 точность не определена (достоверность 5) [1A92AF4E], AccurateRip вернул [83388AE9] (AR v2)
Трек 5 точность не определена (достоверность 4) [5887A2FB], AccurateRip вернул [68A624AD] (AR v2)
Трек 6 точность не определена (достоверность 5) [58ED83FB], AccurateRip вернул [5DC6AE85] (AR v2)
Трек 7 точность не определена (достоверность 4) [C8DFB602], AccurateRip вернул [C5E42C56] (AR v2)
Трек 8 точность не определена (достоверность 4) [DE581EB4], AccurateRip вернул [8C108BF0] (AR v2)
Трек 9 точность не определена (достоверность 4) [2D31DE63], AccurateRip вернул [90DA58E4] (AR v2)
Трек 10 точность не определена (достоверность 5) [EA94C237], AccurateRip вернул [776D1FDD] (AR v2)
Трек 11 точность не определена (достоверность 5) [55E19163], AccurateRip вернул [B9DAEDDB] (AR v2)
Трек 12 точность не определена (достоверность 4) [8099FBF2], AccurateRip вернул [792301AF] (AR v2)
Трек 13 точность не определена (достоверность 5) [17996E48], AccurateRip вернул [89155B37] (AR v2)
Трек 14 точность не определена (достоверность 5) [D20A4C9E], AccurateRip вернул [D6629286] (AR v2)
Трек 15 точность не определена (достоверность 5) [1EA2C007], AccurateRip вернул [B6FB18EB] (AR v2)
Трек 16 точность не определена (достоверность 5) [3AA9CD20], AccurateRip вернул [4F9964FE] (AR v2)

Ни один трек не прошёл проверки на точность
В вашей базе может быть иной вариант штамповки диска

Конец отчёта

==== Контрольная сумма отчёта 9A843235E34F5586935D5A997E10A3B3B3E1D35AD35230CA72CCC71B5C0985E6 ====

foobar2000 1.2 / Dynamic Range Meter 1.1.1
log date: 2015-02-27 00:20:59

––––––––––––––––––––––––––––––––––––––––
Analyzed: Unknown / From Latin To Jazz Dance Vol3 (RG2014CD)
––––––––––––––––––––––––––––––––––––––––

DR Peak RMS Duration Track
––––––––––––––––––––––––––––––––––––––––
DR7 0.00 dB -8.56 dB 4:18 01-Herbie Man - Deve ser amor
DR8 0.00 dB -9.13 dB 2:30 02-Bill Doggett - Hold it
DR8 -1.10 dB -10.75 dB 2:06 03-The Champs - Sombrero
DR11 -1.10 dB -14.87 dB 2:37 04-Tennesse Ernie Ford - Sixteen tons
DR8 -1.09 dB -11.36 dB 4:25 05-Kenny Burrell Trio - Well you needn't
DR9 -1.01 dB -12.32 dB 7:15 06-Brother Jack McDuff - Screamin
DR10 -1.07 dB -13.10 dB 4:00 07-Illinois Jacquet - Like young
DR10 -1.06 dB -12.66 dB 3:20 08-Peggy Lee - Fever
DR11 0.00 dB -12.62 dB 2:59 09-Roland Kirk - Fallout
DR7 -1.08 dB -10.14 dB 7:13 10-Sonny Stitt & Jack McDuff - Soul Shack
DR7 0.00 dB -8.23 dB 2:06 11-Boots Brown & His Blockbusters - Cerveza
DR9 0.00 dB -11.35 dB 2:58 12-Les Double Six - A night in Tunisia
DR7 0.00 dB -8.78 dB 2:52 13-Jimmy Smith - What'd I Say
DR10 0.00 dB -10.69 dB 2:14 14-Os Brasileiros - Maracangalha
DR5 0.00 dB -7.24 dB 2:43 15-Dave Cortez - Shake
DR7 0.00 dB -9.84 dB 5:09 16-The art Blakey.. - The Sacrifice
––––––––––––––––––––––––––––––––––––––––

Number of tracks: 16
Official DR value: DR8

Samplerate: 44100 Hz
Channels: 2
Bits per sample: 16
Bitrate: 770 kbps
Codec: FLAC
================================================================================




VA - From Latin... To Jazz Dance, Volume 1-5 (2003) 5 CD [Re-Up]

VA - From Latin… To Jazz Dance, Volume 4 (2003)
EAC | FLAC | Image (Cue&Log) ~ 364 Mb | Mp3 (CBR320) ~ 156 Mb
Label: Rare Groove | # RG2015cd | Time: 01:03:28 | Scans included


Tracklist:

01. Dizzy Gillespie - Manteca (06:20)
02. Kenny Burrell - Fever (05:32)
03. Mark Murphy - Milestones (02:28)
04. Lalo Schifrin - Just One Of Those Things (03:21)
05. Johnny Hodges - Thinghs Ain't (04:17)
06. Sophia Loren - Goodness Gracious Me! (02:59)
07. Dr. No 007 Soundtrack - Kingston Calypso (02:38)
08. Jimmy Smith - Who's Afraid of Virginia Woolf (04:57)
09. James Moody Mambo With Moody (04:13)
10. Bossa tres - Nao Me Diga Adeus (03:30)
11. Cipo et his authentic - Cai Cai (03:53)
12. King Pleasure - Jazz Jump (03:27)
13. Ted curson - Fire Down Below (04:31)
14. Booker T - Soul Dressing (02:25)
15. Don wilkerson - Dem Tambourines (05:30)
16. Hank Marr - The Squash (03:19)


Exact Audio Copy V1.0 beta 3 from 29. August 2011

Отчёт EAC об извлечении, выполненном 4. июня 2013, 21:35

VA / From Latin To Jazz Dance Vol4 (RG2015CD)

Дисковод: PIONEER DVD-RW DVR-219L Adapter: 0 ID: 0

Режим чтения : Достоверность
Использование точного потока : Да
Отключение кэша аудио : Да
Использование указателей C2 : Нет

Коррекция смещения при чтении : 6
Способность читать области Lead-in и Lead-out : Нет
Заполнение пропущенных сэмплов тишиной : Да
Удаление блоков с тишиной в начале и конце : Нет
При вычислениях CRC использовались нулевые сэмплы : Да
Интерфейс : Встроенный Win32-интерфейс для Win NT/2000

Выходной формат : Пользовательский кодировщик
Выбранный битрейт : 640 kBit/s
Качество : Высокий
Добавление ID3-тега : Нет
Утилита сжатия : C:\Program Files (x86)\Exact Audio Copy\Flac\flac.exe
Дополнительные параметры : -V -8 -T "Date=%year%" -T "Genre=%genre%" %source%


TOC извлечённого CD

Трек | Старт | Длительность | Начальный сектор | Конечный сектор
––––––––––––––––––––––––––––––––––-
1 | 0:00.00 | 6:20.02 | 0 | 28501
2 | 6:20.02 | 5:32.48 | 28502 | 53449
3 | 11:52.50 | 2:28.60 | 53450 | 64609
4 | 14:21.35 | 3:21.29 | 64610 | 79713
5 | 17:42.64 | 4:17.26 | 79714 | 99014
6 | 22:00.15 | 2:59.48 | 99015 | 112487
7 | 24:59.63 | 2:38.63 | 112488 | 124400
8 | 27:38.51 | 4:57.04 | 124401 | 146679
9 | 32:35.55 | 4:13.20 | 146680 | 165674
10 | 36:49.00 | 3:30.17 | 165675 | 181441
11 | 40:19.17 | 3:53.13 | 181442 | 198929
12 | 44:12.30 | 3:27.50 | 198930 | 214504
13 | 47:40.05 | 4:31.71 | 214505 | 234900
14 | 52:12.01 | 2:25.32 | 234901 | 245807
15 | 54:37.33 | 5:30.65 | 245808 | 270622
16 | 60:08.23 | 3:19.70 | 270623 | 285617


Характеристики диапазона извлечения и сообщения об ошибках

Выбранный диапазон

Имя файла E:\dvda\VA - From Latin To Jazz Dance Vol4 (RG2015CD).wav

Пиковый уровень 100.0 %
Скорость извлечения 1.7 X
Качество диапазона 100.0 %
CRC теста F49F53C0
CRC копии F49F53C0
Копирование… OK

Ошибок не произошло


AccurateRip: сводка

Трек 1 : извлечено точно (доверие 2) [38C4C5F5] (AR v1)
Трек 2 : извлечено точно (доверие 2) [29FEF481] (AR v1)
Трек 3 : извлечено точно (доверие 2) [47616A50] (AR v1)
Трек 4 : извлечено точно (доверие 2) [10B8962F] (AR v1)
Трек 5 : извлечено точно (доверие 2) [99C7DE64] (AR v1)
Трек 6 : извлечено точно (доверие 2) [FCFB4A3B] (AR v1)
Трек 7 : извлечено точно (доверие 2) [13E8F112] (AR v1)
Трек 8 : извлечено точно (доверие 2) [5088A42B] (AR v1)
Трек 9 : извлечено точно (доверие 2) [4A9B0FBD] (AR v1)
Трек 10 : извлечено точно (доверие 2) [531AB89B] (AR v1)
Трек 11 : извлечено точно (доверие 2) [9DC6CCBA] (AR v1)
Трек 12 : извлечено точно (доверие 2) [FAB79737] (AR v1)
Трек 13 : извлечено точно (доверие 2) [134994A7] (AR v1)
Трек 14 : извлечено точно (доверие 2) [14871275] (AR v1)
Трек 15 : извлечено точно (доверие 2) [24F542EF] (AR v1)
Трек 16 : извлечено точно (доверие 2) [ACEF3E6E] (AR v1)

Все треки извлечены точно

Конец отчёта

==== Контрольная сумма отчёта 5733A1A6B62D601D59CFF79EB80AEE6895A7DE497AFB22CDB84FEABF0C9C0B61 ====

foobar2000 1.2 / Dynamic Range Meter 1.1.1
log date: 2015-02-27 00:21:19

––––––––––––––––––––––––––––––––––––––––
Analyzed: Unknown / From Latin To Jazz Dance Vol4 (RG2015CD)
––––––––––––––––––––––––––––––––––––––––

DR Peak RMS Duration Track
––––––––––––––––––––––––––––––––––––––––
DR9 0.00 dB -11.51 dB 6:20 01-Dizzy Gillespie - Manteca
DR11 0.00 dB -13.26 dB 5:33 02-Kenny Burrell - Fever
DR8 0.00 dB -10.22 dB 2:29 03-Mark Murphy - Milestones
DR10 0.00 dB -11.74 dB 3:21 04-Lalo Schifrin - Just one of those things
DR9 0.00 dB -10.75 dB 4:17 05-Johnny Hodges - Thinghs ain't
DR11 0.00 dB -13.19 dB 3:00 06-Sophia Loren - Goodness gracious me!
DR11 0.00 dB -13.41 dB 2:39 07-Dr. No 007 Soundtrack - Kingston calypso
DR8 0.00 dB -9.45 dB 4:57 08-Jimmy Smith - Who's afraid of virginia woolf
DR10 0.00 dB -12.22 dB 4:13 09-James Moody Mambo with moody
DR10 0.00 dB -11.96 dB 3:30 10-Bossa tres - Nao me diga adeus
DR10 0.00 dB -11.69 dB 3:53 11-Cipo et his authentic - Cai Cai
DR9 0.00 dB -11.40 dB 3:28 12-King Pleasure - Jazz Jump
DR8 0.00 dB -9.45 dB 4:32 13-Ted curson - Fire down below
DR10 0.00 dB -11.80 dB 2:25 14-Booker T - Soul Dressing
DR10 0.00 dB -11.93 dB 5:31 15-Don wilkerson - Dem Tambourines
DR9 0.00 dB -10.95 dB 3:20 16-Hank Marr - The squash
––––––––––––––––––––––––––––––––––––––––

Number of tracks: 16
Official DR value: DR10

Samplerate: 44100 Hz
Channels: 2
Bits per sample: 16
Bitrate: 747 kbps
Codec: FLAC
================================================================================




VA - From Latin... To Jazz Dance, Volume 1-5 (2003) 5 CD [Re-Up]

VA - From Latin… To Jazz Dance, Volume 5 (2003)
EAC | FLAC | Image (Cue&Log) ~ 355 Mb | Mp3 (CBR320) ~ 153 Mb
Label: Rare Groove | # RG2016cd | Time: 01:01:27 | Scans included


Tracklist:

01. Candido - Perdido (03:47)
02. Julian Adderley - Minha saudade (02:21)
03. Gabor Szabo - El toro (04:35)
04. Mose Allison - Parchman farm (03:14)
05. Little Willie John - Fever (02:27)
06. Wild Bill Davis - Cabato (02:52)
07. Buck Clarke Sound - Night in Tunisia (05:44)
08. Willis Jackson - Nuther'n like thuther'n (07:26)
09. Eddie Harris - Lolita Marie (04:58)
10. Mongo Santamaria - Yeh! Yeh! (03:05)
11. Willie Bobo - Chickadee (02:05)
12. Cipo - Implorar (03:54)
13. Cal Tjader - Soul Sauce (02:25)
14. Larry Young - Talking about J.C. (05:56)
15. King Curtis - Tequila (02:01)
16. Red Holloway - Shout Brother (04:30)


Exact Audio Copy V1.0 beta 3 from 29. August 2011

Отчёт EAC об извлечении, выполненном 4. июня 2013, 18:30

VA / From Latin To Jazz Dance Vol5 (RG2016CD)

Дисковод: PIONEER DVD-RW DVR-219L Adapter: 0 ID: 0

Режим чтения : Достоверность
Использование точного потока : Да
Отключение кэша аудио : Да
Использование указателей C2 : Нет

Коррекция смещения при чтении : 6
Способность читать области Lead-in и Lead-out : Нет
Заполнение пропущенных сэмплов тишиной : Да
Удаление блоков с тишиной в начале и конце : Нет
При вычислениях CRC использовались нулевые сэмплы : Да
Интерфейс : Встроенный Win32-интерфейс для Win NT/2000

Выходной формат : Пользовательский кодировщик
Выбранный битрейт : 640 kBit/s
Качество : Высокий
Добавление ID3-тега : Нет
Утилита сжатия : C:\Program Files (x86)\Exact Audio Copy\Flac\flac.exe
Дополнительные параметры : -V -8 -T "Date=%year%" -T "Genre=%genre%" %source%


TOC извлечённого CD

Трек | Старт | Длительность | Начальный сектор | Конечный сектор
––––––––––––––––––––––––––––––––––-
1 | 0:00.00 | 3:47.52 | 0 | 17076
2 | 3:47.52 | 2:21.40 | 17077 | 27691
3 | 6:09.17 | 4:35.28 | 27692 | 48344
4 | 10:44.45 | 3:14.36 | 48345 | 62930
5 | 13:59.06 | 2:27.69 | 62931 | 74024
6 | 16:27.00 | 2:52.29 | 74025 | 86953
7 | 19:19.29 | 5:44.41 | 86954 | 112794
8 | 25:03.70 | 7:26.20 | 112795 | 146264
9 | 32:30.15 | 4:58.27 | 146265 | 168641
10 | 37:28.42 | 3:05.39 | 168642 | 182555
11 | 40:34.06 | 2:05.71 | 182556 | 192001
12 | 42:40.02 | 3:54.13 | 192002 | 209564
13 | 46:34.15 | 2:25.34 | 209565 | 220473
14 | 48:59.49 | 5:56.00 | 220474 | 247173
15 | 54:55.49 | 2:01.36 | 247174 | 256284
16 | 56:57.10 | 4:30.56 | 256285 | 276590


Характеристики диапазона извлечения и сообщения об ошибках

Выбранный диапазон

Имя файла E:\dvda\VA - From Latin To Jazz Dance Vol5 (RG2016CD).wav

Пиковый уровень 100.0 %
Скорость извлечения 1.6 X
Качество диапазона 99.9 %
CRC теста A8207DAD
CRC копии A8207DAD
Копирование… OK

Ошибок не произошло


AccurateRip: сводка

Трек 1 точность не определена (достоверность 2) [63F91E71], AccurateRip вернул [024FF986] (AR v2)
Трек 2 точность не определена (достоверность 2) [1D62B946], AccurateRip вернул [0910ECB9] (AR v2)
Трек 3 точность не определена (достоверность 2) [387A45D9], AccurateRip вернул [5D2B4F45] (AR v2)
Трек 4 точность не определена (достоверность 2) [07857C2E], AccurateRip вернул [52A77F26] (AR v2)
Трек 5 точность не определена (достоверность 2) [80523E2D], AccurateRip вернул [DF511D88] (AR v2)
Трек 6 точность не определена (достоверность 2) [D53D48C1], AccurateRip вернул [34AC2B45] (AR v2)
Трек 7 точность не определена (достоверность 2) [F63E571F], AccurateRip вернул [F6267302] (AR v2)
Трек 8 точность не определена (достоверность 2) [062DC327], AccurateRip вернул [3BF8CB3F] (AR v2)
Трек 9 точность не определена (достоверность 2) [C8AF902B], AccurateRip вернул [84D039A0] (AR v2)
Трек 10 точность не определена (достоверность 2) [09817A18], AccurateRip вернул [CE7618CB] (AR v2)
Трек 11 точность не определена (достоверность 2) [4EFB58BB], AccurateRip вернул [7FBA746D] (AR v2)
Трек 12 точность не определена (достоверность 2) [3CB24676], AccurateRip вернул [B1E3AA13] (AR v2)
Трек 13 точность не определена (достоверность 2) [E81B7123], AccurateRip вернул [6E46104C] (AR v2)
Трек 14 точность не определена (достоверность 2) [A55F1CF7], AccurateRip вернул [643316B5] (AR v2)
Трек 15 точность не определена (достоверность 3) [64AF1790], AccurateRip вернул [64147F23] (AR v2)
Трек 16 точность не определена (достоверность 2) [EB3D6A8C], AccurateRip вернул [9DBD62DE] (AR v2)

Ни один трек не прошёл проверки на точность
В вашей базе может быть иной вариант штамповки диска

Конец отчёта

==== Контрольная сумма отчёта 0EFB00BC433C7C609F61F219E2C0CF2FD1E2162877A83C079750224C5CF6D0C1 ====

foobar2000 1.2 / Dynamic Range Meter 1.1.1
log date: 2015-02-27 00:21:40

––––––––––––––––––––––––––––––––––––––––
Analyzed: Unknown / From Latin To Jazz Dance Vol5 (RG2016CD)
––––––––––––––––––––––––––––––––––––––––

DR Peak RMS Duration Track
––––––––––––––––––––––––––––––––––––––––
DR10 0.00 dB -11.48 dB 3:48 01-Candido - Perdido
DR11 0.00 dB -13.68 dB 2:22 02-Julian Adderley - Minha saudade
DR10 0.00 dB -12.88 dB 4:35 03-Gabor Szabo - El toro
DR10 0.00 dB -11.39 dB 3:14 04-Mose Allison - Parchman farm
DR11 0.00 dB -11.94 dB 2:28 05-Little Willie John - Fever
DR10 0.00 dB -11.03 dB 2:52 06-Wild Bill Davis - Cabato
DR12 0.00 dB -14.37 dB 5:45 07-Buck Clarke Sound - Night in Tunisia
DR9 0.00 dB -10.85 dB 7:26 08-Willis Jackson - Nuther'n like thuther'n
DR11 0.00 dB -12.28 dB 4:58 09-Eddie Harris - Lolita Marie
DR10 0.00 dB -11.69 dB 3:06 10-Mongo Santamaria - Yeh! Yeh!
DR11 0.00 dB -13.43 dB 2:06 11-Willie Bobo - Chickadee
DR11 0.00 dB -12.98 dB 3:54 12-Cipo - Implorar
DR10 0.00 dB -11.90 dB 2:25 13-Cal Tjader - Soul Sauce
DR9 0.00 dB -11.73 dB 5:56 14-Larry Young - Talking about J.C.
DR11 0.00 dB -12.27 dB 2:01 15-King Curtis - Tequila
DR11 0.00 dB -13.26 dB 4:31 16-Red Holloway - Shout Brother
––––––––––––––––––––––––––––––––––––––––

Number of tracks: 16
Official DR value: DR10

Samplerate: 44100 Hz
Channels: 2
Bits per sample: 16
Bitrate: 748 kbps
Codec: FLAC
================================================================================




All thanks to original releaser - guzonka

More interesting music in My Blog