Subcategories

VA - Jazz Sexiest Ladies (2017) {3CD Box Set}

Posted By: popsakov
VA - Jazz Sexiest Ladies (2017) {3CD Box Set}

VA - Jazz Sexiest Ladies (2017) {3CD Box Set}
EAC Rip | FLAC (Img) + Cue + Log ~ 997 Mb | Full Scans (JPG, 600 dpi) ~ 48 Mb | RAR 5% Recovery
Vocal Jazz, Easy Listening, Lounge | Music Brokers #MBB 7238

Unique 3CD box set with 42 titles from the rich and highly demanded Jazz-Electro-Lounge vaults of MusicBrokers Based on extraordinary female vocals, jazz music is showcased from its erotic side, in up-to-date sound. Definitely the most Sexiest Ladies of Jazz.
***************

VA - Jazz Sexiest Ladies (2017) {3CD Box Set}

Track List CD 1 - Glamour Divas:

01. Sarah Menescal - The Game Of Love [3:25]
02. Cassandra Beck - Jump [3:30]
03. Karen Souza - New Year's Day [3:51]
04. The Cooltrane Quartet - Wonderwall [4:08]
05. Anakelly - Skin Trade [4:52]
06. Ivette Moraes - Live Forever [4:03]
07. Shirley Adamson - Us And Them [3:51]
08. Astrid Bergman - Sgt. Pepper's Lonely Hearts Club Band [2:04]
09. Flora Martinez - Happy [3:29]
10. Sarah Menescal - Time After Time [3:31]
11. Stella Starlight Trio - Amazing [3:55]
12. 48st Collective - Breakfast In America [3:12]
13. Karen Souza - My Foolish Heart [3:59]
14. Dinah Eastwood - Hungry Like The Wolf [4:08]

Exact Audio Copy V1.1 from 23. June 2015

Отчёт EAC об извлечении, выполненном 25. июля 2017, 14:42

Jazz Sexiest Ladies / CD 1: Glamour Divas

Дисковод: ASUS DRW-24B3ST Adapter: 0 ID: 0

Режим чтения : Достоверность
Использование точного потока : Да
Отключение кэша аудио : Да
Использование указателей C2 : Нет

Коррекция смещения при чтении : 6
Способность читать области Lead-in и Lead-out : Нет
Заполнение пропущенных сэмплов тишиной : Да
Удаление блоков с тишиной в начале и конце : Нет
При вычислениях CRC использовались нулевые сэмплы : Да
Интерфейс : Установленный внешний ASPI-интерфейс

Выходной формат : Пользовательский кодировщик
Выбранный битрейт : 1024 kBit/s
Качество : Высокий
Добавление ID3-тега : Нет
Утилита сжатия : C:\Program Files (x86)\Exact Audio Copy\Flac\flac.exe
Дополнительные параметры : -V -8 -T "Date=%year%" -T "Genre=%genre%" %source%


TOC извлечённого CD

Трек | Старт | Длительность | Начальный сектор | Конечный сектор
––––––––––––––––––––––––––––––––––-
1 | 0:00.00 | 3:24.47 | 0 | 15346
2 | 3:24.47 | 3:29.66 | 15347 | 31087
3 | 6:54.38 | 3:50.66 | 31088 | 48403
4 | 10:45.29 | 4:08.19 | 48404 | 67022
5 | 14:53.48 | 4:52.19 | 67023 | 88941
6 | 19:45.67 | 4:03.29 | 88942 | 107195
7 | 23:49.21 | 3:50.57 | 107196 | 124502
8 | 27:40.03 | 2:03.38 | 124503 | 133765
9 | 29:43.41 | 3:29.29 | 133766 | 149469
10 | 33:12.70 | 3:30.47 | 149470 | 165266
11 | 36:43.42 | 3:54.47 | 165267 | 182863
12 | 40:38.14 | 3:11.38 | 182864 | 197226
13 | 43:49.52 | 3:58.57 | 197227 | 215133
14 | 47:48.34 | 4:07.57 | 215134 | 233715


Характеристики диапазона извлечения и сообщения об ошибках

Выбранный диапазон

Имя файла E:\Torrents\Various Artists - 2017 - Jazz Sexiest Ladies\CD 1 - Glamour Divas\Jazz Sexiest Ladies - CD 1
- Glamour Divas.wav

Пиковый уровень 100.0 %
Скорость извлечения 8.7 X
Качество диапазона 100.0 %
CRC теста DAEE7907
CRC копии DAEE7907
Копирование… OK

Ошибок не произошло


AccurateRip: сводка

Трек 1 : извлечено точно (доверие 2) [70E3E01B] (AR v2)
Трек 2 : извлечено точно (доверие 2) [27DB2DEA] (AR v2)
Трек 3 : извлечено точно (доверие 2) [DC6B559D] (AR v2)
Трек 4 : извлечено точно (доверие 2) [389BCBAD] (AR v2)
Трек 5 : извлечено точно (доверие 2) [17E9971A] (AR v2)
Трек 6 : извлечено точно (доверие 2) [C23AD229] (AR v2)
Трек 7 : извлечено точно (доверие 2) [FBBC89D9] (AR v2)
Трек 8 : извлечено точно (доверие 2) [F83B77EE] (AR v2)
Трек 9 : извлечено точно (доверие 2) [5FB35577] (AR v2)
Трек 10 : извлечено точно (доверие 2) [679BCB96] (AR v2)
Трек 11 : извлечено точно (доверие 2) [02F62C5F] (AR v2)
Трек 12 : извлечено точно (доверие 2) [F4968174] (AR v2)
Трек 13 : извлечено точно (доверие 2) [05552747] (AR v2)
Трек 14 : извлечено точно (доверие 2) [D70F9F0D] (AR v2)

Все треки извлечены точно

Конец отчёта

==== Контрольная сумма отчёта 286B2C530D52DC2AD31AC5226F7687985F92F6598F1150197364F3ABEBDC1B2E ====

foobar2000 1.2.6 / Dynamic Range Meter 1.1.1
log date: 2017-07-26 14:45:04

––––––––––––––––––––––––––––––––––––––––
Analyzed: Anakelly / CD One: Glamour Divas (1)
Astrid Bergman / CD One: Glamour Divas (2)
––––––––––––––––––––––––––––––––––––––––

DR Peak RMS Duration Track
––––––––––––––––––––––––––––––––––––––––
DR6 0.00 dB -7.89 dB 4:52 05-Skin Trade
DR7 0.00 dB -8.59 dB 2:04 08-Sgt. Pepper's Lonely Hearts Club Band
––––––––––––––––––––––––––––––––––––––––

Number of tracks: 2
Official DR value: DR7

Samplerate: 44100 Hz
Channels: 2
Bits per sample: 16
Bitrate: 931 kbps
Codec: FLAC
================================================================================

––––––––––––––––––––––––––––––––––––––––
Analyzed: Cassandra Beck / CD One: Glamour Divas (1)
Dinah Eastwood / CD One: Glamour Divas (2)
––––––––––––––––––––––––––––––––––––––––

DR Peak RMS Duration Track
––––––––––––––––––––––––––––––––––––––––
DR6 0.00 dB -7.15 dB 3:30 02-Jump
DR7 0.00 dB -8.58 dB 4:08 14-Hungry Like The Wolf
––––––––––––––––––––––––––––––––––––––––

Number of tracks: 2
Official DR value: DR6

Samplerate: 44100 Hz
Channels: 2
Bits per sample: 16
Bitrate: 931 kbps
Codec: FLAC
================================================================================

––––––––––––––––––––––––––––––––––––––––
Statistics for: 09-Happy
Number of samples: 9233952
Duration: 3:29
––––––––––––––––––––––––––––––––––––––––

Left Right

Peak Value: 0.00 dB –- 0.00 dB
Avg RMS: -8.17 dB –- -8.56 dB
DR channel: 6.80 dB –- 7.28 dB
––––––––––––––––––––––––––––––––––––––––

Official DR Value: DR7

Samplerate: 44100 Hz
Channels: 2
Bits per sample: 16
Bitrate: 931 kbps
Codec: FLAC
================================================================================
––––––––––––––––––––––––––––––––––––––––
Statistics for: 06-Live Forever
Number of samples: 10733352
Duration: 4:03
––––––––––––––––––––––––––––––––––––––––

Left Right

Peak Value: 0.00 dB –- 0.00 dB
Avg RMS: -7.27 dB –- -6.89 dB
DR channel: 5.69 dB –- 5.80 dB
––––––––––––––––––––––––––––––––––––––––

Official DR Value: DR6

Samplerate: 44100 Hz
Channels: 2
Bits per sample: 16
Bitrate: 931 kbps
Codec: FLAC
================================================================================
––––––––––––––––––––––––––––––––––––––––
Analyzed: Karen Souza / CD One: Glamour Divas
––––––––––––––––––––––––––––––––––––––––

DR Peak RMS Duration Track
––––––––––––––––––––––––––––––––––––––––
DR6 0.00 dB -7.31 dB 3:51 03-New Year's Day
DR7 0.00 dB -8.45 dB 3:59 13-My Foolish Heart
––––––––––––––––––––––––––––––––––––––––

Number of tracks: 2
Official DR value: DR6

Samplerate: 44100 Hz
Channels: 2
Bits per sample: 16
Bitrate: 931 kbps
Codec: FLAC
================================================================================

––––––––––––––––––––––––––––––––––––––––
Analyzed: Sarah Menescal / CD One: Glamour Divas
––––––––––––––––––––––––––––––––––––––––

DR Peak RMS Duration Track
––––––––––––––––––––––––––––––––––––––––
DR8 0.00 dB -9.24 dB 3:25 01-The Game Of Love
DR6 0.00 dB -7.97 dB 3:31 10-Time After Time
––––––––––––––––––––––––––––––––––––––––

Number of tracks: 2
Official DR value: DR7

Samplerate: 44100 Hz
Channels: 2
Bits per sample: 16
Bitrate: 931 kbps
Codec: FLAC
================================================================================

––––––––––––––––––––––––––––––––––––––––
Analyzed: Shirley Adamson / CD One: Glamour Divas (1)
Stella Starlight Trio / CD One: Glamour Divas (2)
––––––––––––––––––––––––––––––––––––––––

DR Peak RMS Duration Track
––––––––––––––––––––––––––––––––––––––––
DR7 0.00 dB -7.96 dB 3:51 07-Us And Them
DR7 0.00 dB -9.64 dB 3:55 11-Amazing
––––––––––––––––––––––––––––––––––––––––

Number of tracks: 2
Official DR value: DR7

Samplerate: 44100 Hz
Channels: 2
Bits per sample: 16
Bitrate: 931 kbps
Codec: FLAC
================================================================================

––––––––––––––––––––––––––––––––––––––––
Statistics for: 04-Wonderwall
Number of samples: 10947972
Duration: 4:08
––––––––––––––––––––––––––––––––––––––––

Left Right

Peak Value: 0.00 dB –- 0.00 dB
Avg RMS: -8.25 dB –- -8.44 dB
DR channel: 5.90 dB –- 5.97 dB
––––––––––––––––––––––––––––––––––––––––

Official DR Value: DR6

Samplerate: 44100 Hz
Channels: 2
Bits per sample: 16
Bitrate: 931 kbps
Codec: FLAC
================================================================================

[CUETools log; Date: 26.07.2017 14:45:22; Version: 2.1.5]
[CTDB TOCID: uOVzpx0ml0lj_B7mymcoaEiLpKc-] found.
Track | CTDB Status
1 | (3/3) Accurately ripped
2 | (3/3) Accurately ripped
3 | (3/3) Accurately ripped
4 | (3/3) Accurately ripped
5 | (3/3) Accurately ripped
6 | (3/3) Accurately ripped
7 | (3/3) Accurately ripped
8 | (3/3) Accurately ripped
9 | (3/3) Accurately ripped
10 | (3/3) Accurately ripped
11 | (3/3) Accurately ripped
12 | (3/3) Accurately ripped
13 | (3/3) Accurately ripped
14 | (3/3) Accurately ripped
[AccurateRip ID: 001adacb-011db954-c10c2c0e] found.
Track [ CRC | V2 ] Status
01 [ee4a5820|70e3e01b] (0+2/2) Accurately ripped
02 [75989871|27db2dea] (0+2/2) Accurately ripped
03 [684c8a52|dc6b559d] (0+2/2) Accurately ripped
04 [bc0ccbd7|389bcbad] (0+2/2) Accurately ripped
05 [1868c6a0|17e9971a] (0+2/2) Accurately ripped
06 [3a4b3610|c23ad229] (0+2/2) Accurately ripped
07 [3543a1d5|fbbc89d9] (0+2/2) Accurately ripped
08 [0c764f95|f83b77ee] (0+2/2) Accurately ripped
09 [fe927e8f|5fb35577] (0+2/2) Accurately ripped
10 [800f4e4e|679bcb96] (0+2/2) Accurately ripped
11 [1c5db407|02f62c5f] (0+2/2) Accurately ripped
12 [1370bf8d|f4968174] (0+2/2) Accurately ripped
13 [03c56c4c|05552747] (0+2/2) Accurately ripped
14 [26ca0790|d70f9f0d] (0+2/2) Accurately ripped

Track Peak [ CRC32 ] [W/O NULL] [ LOG ]
– 100,0 [DAEE7907] [1A6C2939] CRC32
01 100,0 [A57C16C4] [B8F2221E]
02 100,0 [464FF3B5] [8758AC31]
03 100,0 [08E7981A] [983EDB90]
04 100,0 [8F11E32C] [FB844555]
05 100,0 [81A4FED7] [AFFF2C7E]
06 100,0 [B7A1EBA9] [1137D071]
07 100,0 [76A87608] [EBD11235]
08 100,0 [200F5BBE] [CC5E2FAE]
09 100,0 [8AB1C11B] [E3A1E946]
10 100,0 [F029EB76] [53381232]
11 100,0 [93D7C29A] [E0ADAF25]
12 100,0 [7C4B1E15] [E50A93D6]
13 100,0 [53106AE9] [FEDFB893]
14 100,0 [AC0B57D0] [327B88BA]

VA - Jazz Sexiest Ladies (2017) {3CD Box Set}

Track List CD 2 - Quiet Nights:

01. The Cooltrane Quartet - Moves Like Jagger [3:26]
02. George White Group - Gypsy Woman (She's Homeless) [2:39]
03. 48th Street Collective - Missing [3:45]
04. Karen Souza - I Heard It Through The Grapevine [3:46]
05. Sarah Menescal - Something [2:39]
06. Urselle - Wake Me Up Before You Go-Go [2:41]
07. Eve St.Jones - Blame It On The Boogie [2:43]
08. The Cooltrane Quartet - Firework [3:45]
09. Michelle Simonal - Time [3:44]
10. Flora Martinez - Let's Stay Together [3:33]
11. The Noir Horns feat Eva Wilson - The Unforgettable Fire [4:39]
12. Karen Souza - Every Breath You Take [2:49]
13. Anakelly - Unfinished Sympathy [3:10]
14. 48st Collective - Porcelain [3:23]

Exact Audio Copy V1.1 from 23. June 2015

Отчёт EAC об извлечении, выполненном 25. июля 2017, 15:11

Jazz Sexiest Ladies / CD 2: Quiet Nights

Дисковод: ASUS DRW-24B3ST Adapter: 0 ID: 0

Режим чтения : Достоверность
Использование точного потока : Да
Отключение кэша аудио : Да
Использование указателей C2 : Нет

Коррекция смещения при чтении : 6
Способность читать области Lead-in и Lead-out : Нет
Заполнение пропущенных сэмплов тишиной : Да
Удаление блоков с тишиной в начале и конце : Нет
При вычислениях CRC использовались нулевые сэмплы : Да
Интерфейс : Установленный внешний ASPI-интерфейс

Выходной формат : Пользовательский кодировщик
Выбранный битрейт : 1024 kBit/s
Качество : Высокий
Добавление ID3-тега : Нет
Утилита сжатия : C:\Program Files (x86)\Exact Audio Copy\Flac\flac.exe
Дополнительные параметры : -V -8 -T "Date=%year%" -T "Genre=%genre%" %source%


TOC извлечённого CD

Трек | Старт | Длительность | Начальный сектор | Конечный сектор
––––––––––––––––––––––––––––––––––-
1 | 0:00.00 | 3:25.66 | 0 | 15440
2 | 3:25.66 | 2:38.66 | 15441 | 27356
3 | 6:04.57 | 3:44.38 | 27357 | 44194
4 | 9:49.20 | 3:45.38 | 44195 | 61107
5 | 13:34.58 | 2:38.38 | 61108 | 72995
6 | 16:13.21 | 2:40.66 | 72996 | 85061
7 | 18:54.12 | 2:42.47 | 85062 | 97258
8 | 21:36.59 | 3:45.19 | 97259 | 114152
9 | 25:22.03 | 3:44.19 | 114153 | 130971
10 | 29:06.22 | 3:33.29 | 130972 | 146975
11 | 32:39.51 | 4:39.29 | 146976 | 167929
12 | 37:19.05 | 2:48.57 | 167930 | 180586
13 | 40:07.62 | 3:10.00 | 180587 | 194836
14 | 43:17.62 | 3:23.19 | 194837 | 210080


Характеристики диапазона извлечения и сообщения об ошибках

Выбранный диапазон

Имя файла E:\Torrents\Various Artists - 2017 - Jazz Sexiest Ladies\CD 2 - Quiet Nights\Jazz Sexiest Ladies - CD 2- Quiet Nights.wav

Пиковый уровень 100.0 %
Скорость извлечения 4.3 X
Качество диапазона 99.8 %
CRC теста 0C74BA24
CRC копии 0C74BA24
Копирование… OK

Ошибок не произошло


AccurateRip: сводка

Трек 1 : извлечено точно (доверие 2) [7DD5A6D5] (AR v2)
Трек 2 : извлечено точно (доверие 2) [3C57825A] (AR v2)
Трек 3 : извлечено точно (доверие 2) [FF0D8D8D] (AR v2)
Трек 4 : извлечено точно (доверие 2) [C399FD49] (AR v2)
Трек 5 : извлечено точно (доверие 2) [67634034] (AR v2)
Трек 6 : извлечено точно (доверие 2) [6A3B3BB9] (AR v2)
Трек 7 : извлечено точно (доверие 2) [17388205] (AR v2)
Трек 8 : извлечено точно (доверие 2) [9460A8DA] (AR v2)
Трек 9 : извлечено точно (доверие 2) [79A86522] (AR v2)
Трек 10 : извлечено точно (доверие 2) [8C039FB4] (AR v2)
Трек 11 : извлечено точно (доверие 2) [10F24D4E] (AR v2)
Трек 12 : извлечено точно (доверие 2) [AB947A9F] (AR v2)
Трек 13 : извлечено точно (доверие 2) [6F209BE0] (AR v2)
Трек 14 : извлечено точно (доверие 2) [F7A31008] (AR v2)

Все треки извлечены точно

Конец отчёта

==== Контрольная сумма отчёта E699CF6F798EAFA226DC41F1F8318A23E2778A215A6075E54B671E04E6A765AF ====

foobar2000 1.2.6 / Dynamic Range Meter 1.1.1
log date: 2017-07-26 14:47:22

––––––––––––––––––––––––––––––––––––––––
Analyzed: 48th Street Collective / CD Two: Quiet Nights (1)
Anakelly / CD Two: Quiet Nights (2)
––––––––––––––––––––––––––––––––––––––––

DR Peak RMS Duration Track
––––––––––––––––––––––––––––––––––––––––
DR7 0.00 dB -9.34 dB 3:45 03-Missing
DR7 0.00 dB -9.60 dB 3:10 13-Unfinished Sympathy
––––––––––––––––––––––––––––––––––––––––

Number of tracks: 2
Official DR value: DR7

Samplerate: 44100 Hz
Channels: 2
Bits per sample: 16
Bitrate: 910 kbps
Codec: FLAC
================================================================================

––––––––––––––––––––––––––––––––––––––––
Analyzed: Eve St.Jones / CD Two: Quiet Nights (1)
Flora Martinez / CD Two: Quiet Nights (2)
––––––––––––––––––––––––––––––––––––––––

DR Peak RMS Duration Track
––––––––––––––––––––––––––––––––––––––––
DR8 0.00 dB -9.67 dB 2:43 07-Blame It On The Boogie
DR6 0.00 dB -9.09 dB 3:33 10-Let's Stay Together
––––––––––––––––––––––––––––––––––––––––

Number of tracks: 2
Official DR value: DR7

Samplerate: 44100 Hz
Channels: 2
Bits per sample: 16
Bitrate: 910 kbps
Codec: FLAC
================================================================================

––––––––––––––––––––––––––––––––––––––––
Analyzed: George White Group / CD Two: Quiet Nights (1)
Karen Souza / CD Two: Quiet Nights (2-3)
––––––––––––––––––––––––––––––––––––––––

DR Peak RMS Duration Track
––––––––––––––––––––––––––––––––––––––––
DR7 0.00 dB -8.51 dB 2:39 02-Gypsy Woman (She's Homeless)
DR8 0.00 dB -10.28 dB 3:46 04-I Heard It Through The Grapevine
DR7 0.00 dB -8.98 dB 2:49 12-Every Breath You Take
––––––––––––––––––––––––––––––––––––––––

Number of tracks: 3
Official DR value: DR7

Samplerate: 44100 Hz
Channels: 2
Bits per sample: 16
Bitrate: 910 kbps
Codec: FLAC
================================================================================

––––––––––––––––––––––––––––––––––––––––
Statistics for: 09-Time
Number of samples: 9889572
Duration: 3:44
––––––––––––––––––––––––––––––––––––––––

Left Right

Peak Value: 0.00 dB –- 0.00 dB
Avg RMS: -8.47 dB –- -7.81 dB
DR channel: 7.21 dB –- 6.51 dB
––––––––––––––––––––––––––––––––––––––––

Official DR Value: DR7

Samplerate: 44100 Hz
Channels: 2
Bits per sample: 16
Bitrate: 910 kbps
Codec: FLAC
================================================================================
––––––––––––––––––––––––––––––––––––––––
Statistics for: 05-Something
Number of samples: 6990144
Duration: 2:39
––––––––––––––––––––––––––––––––––––––––

Left Right

Peak Value: 0.00 dB –- 0.00 dB
Avg RMS: -8.18 dB –- -8.09 dB
DR channel: 6.61 dB –- 6.33 dB
––––––––––––––––––––––––––––––––––––––––

Official DR Value: DR6

Samplerate: 44100 Hz
Channels: 2
Bits per sample: 16
Bitrate: 910 kbps
Codec: FLAC
================================================================================
––––––––––––––––––––––––––––––––––––––––
Analyzed: The Cooltrane Quartet / CD Two: Quiet Nights (1-2)
The Noir Horns feat Eva Wilson / CD Two: Quiet Nights (3)
––––––––––––––––––––––––––––––––––––––––

DR Peak RMS Duration Track
––––––––––––––––––––––––––––––––––––––––
DR5 0.00 dB -6.52 dB 3:26 01-Moves Like Jagger
DR7 0.00 dB -7.65 dB 3:45 08-Firework
DR7 0.00 dB -8.86 dB 4:39 11-The Unforgettable Fire
––––––––––––––––––––––––––––––––––––––––

Number of tracks: 3
Official DR value: DR6

Samplerate: 44100 Hz
Channels: 2
Bits per sample: 16
Bitrate: 910 kbps
Codec: FLAC
================================================================================

––––––––––––––––––––––––––––––––––––––––
Statistics for: 06-Wake Me Up Before You Go-Go
Number of samples: 7094808
Duration: 2:41
––––––––––––––––––––––––––––––––––––––––

Left Right

Peak Value: 0.00 dB –- 0.00 dB
Avg RMS: -8.02 dB –- -7.89 dB
DR channel: 6.96 dB –- 6.68 dB
––––––––––––––––––––––––––––––––––––––––

Official DR Value: DR7

Samplerate: 44100 Hz
Channels: 2
Bits per sample: 16
Bitrate: 910 kbps
Codec: FLAC
================================================================================

[CUETools log; Date: 26.07.2017 14:47:26; Version: 2.1.5]
[CTDB TOCID: G7OpK5KWLgF7dZ5ZrBCX6Fo9Mlk-] found.
Track | CTDB Status
1 | (3/3) Accurately ripped
2 | (3/3) Accurately ripped
3 | (3/3) Accurately ripped
4 | (3/3) Accurately ripped
5 | (3/3) Accurately ripped
6 | (3/3) Accurately ripped
7 | (3/3) Accurately ripped
8 | (3/3) Accurately ripped
9 | (3/3) Accurately ripped
10 | (3/3) Accurately ripped
11 | (3/3) Accurately ripped
12 | (3/3) Accurately ripped
13 | (3/3) Accurately ripped
14 | (2/3) Accurately ripped
[AccurateRip ID: 0017a29a-00fd54c9-ce0af10e] found.
Track [ CRC | V2 ] Status
01 [a5dcdf0d|7dd5a6d5] (0+2/2) Accurately ripped
02 [ebe2f30d|3c57825a] (0+2/2) Accurately ripped
03 [3b702c86|ff0d8d8d] (0+2/2) Accurately ripped
04 [d1ab25fe|c399fd49] (0+2/2) Accurately ripped
05 [8335753c|67634034] (0+2/2) Accurately ripped
06 [63498b85|6a3b3bb9] (0+2/2) Accurately ripped
07 [faacde3e|17388205] (0+2/2) Accurately ripped
08 [a4bb31cc|9460a8da] (0+2/2) Accurately ripped
09 [43fd51ba|79a86522] (0+2/2) Accurately ripped
10 [7214dc69|8c039fb4] (0+2/2) Accurately ripped
11 [d83e4d96|10f24d4e] (0+2/2) Accurately ripped
12 [7240ec0c|ab947a9f] (0+2/2) Accurately ripped
13 [6e2350f1|6f209be0] (0+2/2) Accurately ripped
14 [00546a19|f7a31008] (0+2/2) Accurately ripped

Track Peak [ CRC32 ] [W/O NULL] [ LOG ]
– 100,0 [0C74BA24] [E5CE95B1] CRC32
01 100,0 [22F49218] [B06F00AE]
02 100,0 [6A892DDB] [EA51CBD2]
03 100,0 [D60C6DD7] [CA911CCD]
04 100,0 [AFB4719F] [AE4F5BC4]
05 100,0 [CE29458B] [F5CDF306]
06 100,0 [FFD9A212] [08072D1F]
07 100,0 [BEC11FE7] [59CBCEB0]
08 100,0 [3625B559] [348A551F]
09 100,0 [1751924E] [241FD6FD]
10 100,0 [B4FD0969] [BE5C1448]
11 100,0 [1A476AE7] [2F6E9DE2]
12 100,0 [C7EDF824] [E1CF14D8]
13 100,0 [061DD9A2] [58073905]
14 100,0 [B3150D9B] [521D9CD1]

VA - Jazz Sexiest Ladies (2017) {3CD Box Set}

Track List CD 3 - Cocktail Classics:

01. Jazzystics feat Cassandra Beck - Don't Stop [3:20]
02. Lyle Hunter feat The Cooltrane Quartet - Breathe (In The Air) [2:36]
03. Karen Souza - Never Tear Us Apart [3:19]
04. Stella Starlight Trio feat Lizette - Can't Buy Me Love [2:45]
05. Urselle - Lovefool [3:11]
06. The Cooltrane Quartet - A Sky Full Of Stars [4:19]
07. Jazzystics - Enter Sandman [3:16]
08. Cassandra Beck - Material Girl [2:55]
09. Dinah York & The Swing Ensemble - Vertigo [3:57]
10. George White Group - Nothing Compares 2 U [3:50]
11. Celso Mendez feat Lua - Revolution [4:32]
12. Mandy Jones - Peperback Writer [2:03]
13. The Cooltrane Quartet - …Baby One More Time [2:24]
14. Urselle - Purple Rain [4:01]

Exact Audio Copy V1.1 from 23. June 2015

Отчёт EAC об извлечении, выполненном 25. июля 2017, 15:26

Jazz Sexiest Ladies / CD 3: Cocktail Classics

Дисковод: ASUS DRW-24B3ST Adapter: 0 ID: 0

Режим чтения : Достоверность
Использование точного потока : Да
Отключение кэша аудио : Да
Использование указателей C2 : Нет

Коррекция смещения при чтении : 6
Способность читать области Lead-in и Lead-out : Нет
Заполнение пропущенных сэмплов тишиной : Да
Удаление блоков с тишиной в начале и конце : Нет
При вычислениях CRC использовались нулевые сэмплы : Да
Интерфейс : Установленный внешний ASPI-интерфейс

Выходной формат : Пользовательский кодировщик
Выбранный битрейт : 1024 kBit/s
Качество : Высокий
Добавление ID3-тега : Нет
Утилита сжатия : C:\Program Files (x86)\Exact Audio Copy\Flac\flac.exe
Дополнительные параметры : -V -8 -T "Date=%year%" -T "Genre=%genre%" %source%


TOC извлечённого CD

Трек | Старт | Длительность | Начальный сектор | Конечный сектор
––––––––––––––––––––––––––––––––––-
1 | 0:00.00 | 3:20.00 | 0 | 14999
2 | 3:20.00 | 2:36.29 | 15000 | 26728
3 | 5:56.29 | 3:19.00 | 26729 | 41653
4 | 9:15.29 | 2:44.47 | 41654 | 54000
5 | 12:00.01 | 3:11.19 | 54001 | 68344
6 | 15:11.20 | 4:19.29 | 68345 | 87798
7 | 19:30.49 | 3:16.00 | 87799 | 102498
8 | 22:46.49 | 2:55.00 | 102499 | 115623
9 | 25:41.49 | 3:57.19 | 115624 | 133417
10 | 29:38.68 | 3:50.10 | 133418 | 150677
11 | 33:29.03 | 4:31.57 | 150678 | 171059
12 | 38:00.60 | 2:02.66 | 171060 | 180275
13 | 40:03.51 | 2:23.38 | 180276 | 191038
14 | 42:27.14 | 4:01.29 | 191039 | 209142


Характеристики диапазона извлечения и сообщения об ошибках

Выбранный диапазон

Имя файла E:\Torrents\Various Artists - 2017 - Jazz Sexiest Ladies\CD 3 - Cocktail Classics\Jazz Sexiest Ladies - CD 3- Cocktail Classics.wav

Пиковый уровень 100.0 %
Скорость извлечения 8.5 X
Качество диапазона 100.0 %
CRC теста 2D15D689
CRC копии 2D15D689
Копирование… OK

Ошибок не произошло


AccurateRip: сводка

Трек 1 : извлечено точно (доверие 2) [48D9C3C5] (AR v2)
Трек 2 : извлечено точно (доверие 2) [20C7391F] (AR v2)
Трек 3 : извлечено точно (доверие 2) [1CFDC2FA] (AR v2)
Трек 4 : извлечено точно (доверие 2) [C573D787] (AR v2)
Трек 5 : извлечено точно (доверие 2) [36286614] (AR v2)
Трек 6 : извлечено точно (доверие 2) [A147168C] (AR v2)
Трек 7 : извлечено точно (доверие 2) [E6259B01] (AR v2)
Трек 8 : извлечено точно (доверие 2) [4A7221EC] (AR v2)
Трек 9 : извлечено точно (доверие 2) [E8A83214] (AR v2)
Трек 10 : извлечено точно (доверие 2) [5356A4E3] (AR v2)
Трек 11 : извлечено точно (доверие 2) [60870725] (AR v2)
Трек 12 : извлечено точно (доверие 2) [95456765] (AR v2)
Трек 13 : извлечено точно (доверие 2) [EE9ABE22] (AR v2)
Трек 14 : извлечено точно (доверие 2) [FA90936F] (AR v2)

Все треки извлечены точно

Конец отчёта

==== Контрольная сумма отчёта B02A2A8883720D8EBAF5854AA37FA7BD5907A815148A3EE1853D7810E256C380 ====

foobar2000 1.2.6 / Dynamic Range Meter 1.1.1
log date: 2017-07-26 14:47:51

––––––––––––––––––––––––––––––––––––––––
Analyzed: Cassandra Beck / CD 3: Cocktail Classics (1)
Celso Mendez feat Lua / CD 3: Cocktail Classics (2)
––––––––––––––––––––––––––––––––––––––––

DR Peak RMS Duration Track
––––––––––––––––––––––––––––––––––––––––
DR5 0.00 dB -7.66 dB 2:55 08-Material Girl
DR7 0.00 dB -8.90 dB 4:32 11-Revolution
––––––––––––––––––––––––––––––––––––––––

Number of tracks: 2
Official DR value: DR6

Samplerate: 44100 Hz
Channels: 2
Bits per sample: 16
Bitrate: 901 kbps
Codec: FLAC
================================================================================

––––––––––––––––––––––––––––––––––––––––
Analyzed: Dinah York & The Swing Ensemble / CD 3: Cocktail Classics (1)
George White Group / CD 3: Cocktail Classics (2)
––––––––––––––––––––––––––––––––––––––––

DR Peak RMS Duration Track
––––––––––––––––––––––––––––––––––––––––
DR7 0.00 dB -7.79 dB 3:57 09-Vertigo
DR7 0.00 dB -9.24 dB 3:50 10-Nothing Compares 2 U
––––––––––––––––––––––––––––––––––––––––

Number of tracks: 2
Official DR value: DR7

Samplerate: 44100 Hz
Channels: 2
Bits per sample: 16
Bitrate: 901 kbps
Codec: FLAC
================================================================================

––––––––––––––––––––––––––––––––––––––––
Analyzed: Jazzystics feat Cassandra Beck / CD 3: Cocktail Classics (1)
Jazzystics / CD 3: Cocktail Classics (2)
––––––––––––––––––––––––––––––––––––––––

DR Peak RMS Duration Track
––––––––––––––––––––––––––––––––––––––––
DR6 0.00 dB -7.65 dB 3:20 01-Don't Stop
DR9 0.00 dB -10.14 dB 3:16 07-Enter Sandman
––––––––––––––––––––––––––––––––––––––––

Number of tracks: 2
Official DR value: DR7

Samplerate: 44100 Hz
Channels: 2
Bits per sample: 16
Bitrate: 901 kbps
Codec: FLAC
================================================================================

––––––––––––––––––––––––––––––––––––––––
Statistics for: 03-Never Tear Us Apart
Number of samples: 8775900
Duration: 3:19
––––––––––––––––––––––––––––––––––––––––

Left Right

Peak Value: 0.00 dB –- 0.00 dB
Avg RMS: -8.36 dB –- -8.22 dB
DR channel: 6.19 dB –- 6.08 dB
––––––––––––––––––––––––––––––––––––––––

Official DR Value: DR6

Samplerate: 44100 Hz
Channels: 2
Bits per sample: 16
Bitrate: 901 kbps
Codec: FLAC
================================================================================
––––––––––––––––––––––––––––––––––––––––
Analyzed: Lyle Hunter feat The Cooltrane Quartet / CD 3: Cocktail Classics (1)
Mandy Jones / CD 3: Cocktail Classics (2)
––––––––––––––––––––––––––––––––––––––––

DR Peak RMS Duration Track
––––––––––––––––––––––––––––––––––––––––
DR8 -0.25 dB -9.94 dB 2:36 02-Breathe (In The Air)
DR6 0.00 dB -7.67 dB 2:03 12-Peperback Writer
––––––––––––––––––––––––––––––––––––––––

Number of tracks: 2
Official DR value: DR7

Samplerate: 44100 Hz
Channels: 2
Bits per sample: 16
Bitrate: 901 kbps
Codec: FLAC
================================================================================

––––––––––––––––––––––––––––––––––––––––
Analyzed: Stella Starlight Trio feat Lizette / CD 3: Cocktail Classics (1)
The Cooltrane Quartet / CD 3: Cocktail Classics (2-3)
––––––––––––––––––––––––––––––––––––––––

DR Peak RMS Duration Track
––––––––––––––––––––––––––––––––––––––––
DR6 0.00 dB -8.08 dB 2:45 04-Can't Buy Me Love
DR6 0.00 dB -8.06 dB 4:19 06-A Sky Full Of Stars
DR6 0.00 dB -8.00 dB 2:24 13-…Baby One More Time
––––––––––––––––––––––––––––––––––––––––

Number of tracks: 3
Official DR value: DR6

Samplerate: 44100 Hz
Channels: 2
Bits per sample: 16
Bitrate: 901 kbps
Codec: FLAC
================================================================================

––––––––––––––––––––––––––––––––––––––––
Analyzed: Urselle / CD 3: Cocktail Classics
––––––––––––––––––––––––––––––––––––––––

DR Peak RMS Duration Track
––––––––––––––––––––––––––––––––––––––––
DR8 0.00 dB -9.83 dB 3:11 05-Lovefool
DR7 0.00 dB -9.04 dB 4:01 14-Purple Rain
––––––––––––––––––––––––––––––––––––––––

Number of tracks: 2
Official DR value: DR7

Samplerate: 44100 Hz
Channels: 2
Bits per sample: 16
Bitrate: 901 kbps
Codec: FLAC
================================================================================

[CUETools log; Date: 26.07.2017 14:47:58; Version: 2.1.5]
[CTDB TOCID: xE1CFOdie1yXROrgj6a.49y.bCw-] found.
Track | CTDB Status
1 | (4/4) Accurately ripped
2 | (4/4) Accurately ripped
3 | (4/4) Accurately ripped
4 | (4/4) Accurately ripped
5 | (4/4) Accurately ripped
6 | (4/4) Accurately ripped
7 | (4/4) Accurately ripped
8 | (4/4) Accurately ripped
9 | (4/4) Accurately ripped
10 | (4/4) Accurately ripped
11 | (4/4) Accurately ripped
12 | (4/4) Accurately ripped
13 | (4/4) Accurately ripped
14 | (4/4) Accurately ripped
[AccurateRip ID: 00179c01-00fdc7a5-aa0ae40e] found.
Track [ CRC | V2 ] Status
01 [3960e71c|48d9c3c5] (0+2/2) Accurately ripped
02 [13540eb6|20c7391f] (0+2/2) Accurately ripped
03 [81f609f1|1cfdc2fa] (0+2/2) Accurately ripped
04 [d8afebd5|c573d787] (0+2/2) Accurately ripped
05 [1a4371ce|36286614] (0+2/2) Accurately ripped
06 [de5ae6b4|a147168c] (0+2/2) Accurately ripped
07 [245511d3|e6259b01] (0+2/2) Accurately ripped
08 [c96dfdb9|4a7221ec] (0+2/2) Accurately ripped
09 [0a81b559|e8a83214] (0+2/2) Accurately ripped
10 [a998c477|5356a4e3] (0+2/2) Accurately ripped
11 [68bc56fd|60870725] (0+2/2) Accurately ripped
12 [4a88a664|95456765] (0+2/2) Accurately ripped
13 [63db78d6|ee9abe22] (0+2/2) Accurately ripped
14 [1bc3e4f3|fa90936f] (0+2/2) Accurately ripped

Track Peak [ CRC32 ] [W/O NULL] [ LOG ]
– 100,0 [2D15D689] [53BAB142] CRC32
01 100,0 [056D03C9] [4D8B4585]
02 97,1 [E9DABA68] [1DB416BF]
03 100,0 [E92B700A] [C0ACBA37]
04 100,0 [D81A431D] [FE1170CD]
05 100,0 [950A26E6] [B279452C]
06 100,0 [BE956EA6] [27BEB437]
07 100,0 [775F3E74] [D03B8129]
08 100,0 [FBA84CB9] [CAB4D0E9]
09 100,0 [18362094] [42CAD150]
10 100,0 [78F60707] [7525796E]
11 100,0 [F61F679E] [356D5B31]
12 100,0 [415A0B36] [762B3275]
13 100,0 [E115DA52] [E6662F80]
14 100,0 [0DEE9E7F] [49744F6D]

VA - Jazz Sexiest Ladies (2017) {3CD Box Set}

All thanks go to Копысов

>>> My Blog <<<

Download from icerbox.com: