Subcategories

VA - Michel Drucker Presente: Vivement le Classique (2018)

Posted By: ciklon5
VA - Michel Drucker Presente: Vivement le Classique (2018)

VA - Michel Drucker Presente: Vivement le Classique (2018)
WEB FLAC (tracks) / MP3 320 kbps | 2:05:19 | 1,2 Gb / 284 Mb
Genre: Classical / Label: Deutsche Grammophon

Aujourd’hui, Deutsche Grammophon s’associe avec Michel Drucker pour transmettre à un large public sa fierté que Vivement Dimanche ait été une des rares émissions de télévision aux heures de grande écoute à inviter des grandes stars du classique. Michel Drucker signe une préface pleine d’émotion pour ce double album qui réunit en même temps les plus grands tubes du classique. Il a notamment reçu sur le plateau de Vivement dimanche Roberto Alagna, Cecilia Bartoli, Lang Lang, Hélène Grimaud, Camille Berthollet, Gautier Capuçon, Nemanja Radulovic, Patricia Petibon, Natalie Dessay, Philippe Jaroussky, Andrea Bocelli, Juan Diego Flórez, Richard Galliano, Miloš Karadaglic, Alexandre Tharaud, Rolando Villazón, Renaud Capuçon ou encore Katia & Marielle Labèque, pour ne citer qu’eux.

Track List:

01. Roberto Alagna : Rossini: La Danza - Tarentelle Napolitaine [00:03:18]
02. Roberto Alagna : Pagliacci / Act 1 : Recitar… Vesti la giubba [00:03:10]
03. Lang Lang : 12 Etudes, Op.10 : No. 3 In E "Tristesse" [00:04:46]
04. Lang Lang : Liszt: Liebestraum No.3 In A Flat, S.541 No.3 [00:04:53]
05. Patricia Petibon : Les Indes galantes / Nouvelle Entrée: Les Sauvages Scène 6 : Danse du Grand Calumet de la Paix (Rondeau) - Forêts paisibles [00:04:12]
06. Patricia Petibon : Rinaldo, HWV 7a / Act 2 : "Lascia ch'io pianga" [00:05:33]
07. Nemanja Radulovic : Monti: Csárdás [00:04:45]
08. Nemanja Radulovic : Schindler's List - Original Motion Picture Soundtrack : Theme [00:03:50]
09. Juan Diego Flórez : Werther / Act 3 : "Toute mon âme est là! Pourquoi me réveiller, ô souffle de printemps?" [00:03:05]
10. Juan Diego Flórez : L'elisir d'amore / Act 2 : "Una furtiva lagrima" [00:04:39]
11. Presto Richard Galliano : Les quatre saisons / L’été, Op. 8, No. 2, RV 315 : 6. [00:02:28]
12. Richard Galliano : Piano Sonata No. 11 in A Major, K. 331 "Alla Turca" - Arr. for accordion and strings by Richard Galliano : 3. Marche turque [00:03:21]
13. Hélène Grimaud : In the Mists : 1. Andante [00:04:35]
14. Hélène Grimaud : Das Wohltemperierte Klavier: Book 1, BWV 846-869 : Prelude And Fugue No.1 In C Major, BWV 846 [00:02:46]
15. file_15 : Unknown Performer [00:04:19]
16. D.I.V.A : Carmen, WD 31 : L'amour est un oiseau rebelle (Habanera) / Près des remparts de Séville (Séguedille) / Toréador, en garde [00:04:26]
17. Sirba Octet : Fantaisie roumaine [00:02:26]
18. Sirba Octet : Kalinka [00:04:56]
19. Cecilia Bartoli : Norma - Critical Edition by Maurizio Biondi and Riccardo Minasi / Act 1 Scene 1 : "Casta Diva" [00:06:33]
20. Cecilia Bartoli : Tassilone : "Più non v'ascondo" [00:02:15]
21. Milos Karadaglic : Concierto de Aranjuez for Guitar and Orchestra : 2. Adagio [00:04:09]
22. Milos Karadaglic : Anonymous: Spanish Romance (arr. for Guitar and Orchestra) [00:02:59]
23. Rolando Villazon : Rigoletto / Act 3 : "La donna è mobile" [00:02:03]
24. Rolando Villazon : La Gioconda / Act 2 : "Cielo e mar" [00:05:10]
25. Ivry Gitlis : 24 Caprices pour violon seul, Op.1 : Caprice No. 24 en la mineur [00:05:59]
26. Natalie Dessay : Mitridate, re di Ponto, K.87 / Act 1 : "Al destin, che la minaccia" [00:06:33]
27. Katia & Marielle Labèque : Star-Cross'd Lovers : Act I: Star-Cross'd Lovers [00:01:56]
28. Katia & Marielle Labèque : 6 Épigraphes antiques, L.131 : 1. Pour invoquer Pan, dieu du vent d'été [00:02:13]
29. Pumeza Matshikiza : Gianni Schicchi : "O mio babbino caro" [00:02:20]
30. Pumeza Matshikiza : La Wally / Act 1 : "Ebben? Ne andrò lontana" [00:03:31]
31. Henri Demarquette : Rachmaninov: Vocalise, Op.34, No.14, Lentamente cantabile - Transcr. for cello and piano by Rachmaninov [00:05:22]
32. Andrea Bocelli : Schubert: Ave Maria - "Ellens Gesang III", D. 839 [00:02:31]

foobar2000 1.3.16 / Dynamic Range Meter 1.1.1
log date: 2018-06-15 03:46:08

––––––––––––––––––––––––––––––––––––––––
Analyzed: Andrea Bocelli / Vivement le classique (1)
Cecilia Bartoli / Vivement le classique (2-3)
D.I.V.A / Vivement le classique (4)
file_15 / Vivement le classique (5)
Helene Grimaud / Vivement le classique (6-7)
Henri Demarquette / Vivement le classique (8)
Ivry Gitlis / Vivement le classique (9)
Juan Diego Florez / Vivement le classique (10-11)
Katia & Marielle Labeque / Vivement le classique (12-13)
Lang Lang / Vivement le classique (14-15)
Milos Karadaglic / Vivement le classique (16-17)
Natalie Dessay / Vivement le classique (18)
Nemanja Radulovic / Vivement le classique (19-20)
Patricia Petibon / Vivement le classique (21-22)
Presto Richard Galliano / Vivement le classique (23)
Pumeza Matshikiza / Vivement le classique (24-25)
Richard Galliano / Vivement le classique (26)
Roberto Alagna / Vivement le classique (27-28)
Rolando Villazon / Vivement le classique (29-30)
Sirba Octet / Vivement le classique (31-32)
Michel Drucker presente Vivement le Classique
––––––––––––––––––––––––––––––––––––––––

DR Peak RMS Duration Track
––––––––––––––––––––––––––––––––––––––––
DR12 -2.91 dB -19.32 dB 2:32 32-Schubert: Ave Maria - "Ellens Gesang III", D. 839
DR13 -0.30 dB -18.79 dB 6:34 19-Norma - Critical Edition by Maurizio Biondi and Riccardo Minasi / Act 1 Scene 1 : "Casta Diva"
DR12 -4.63 dB -20.43 dB 2:15 20-Tassilone : "Piu non v'ascondo"
DR9 -0.30 dB -12.79 dB 4:27 16-Carmen, WD 31 : L'amour est un oiseau rebelle (Habanera) / Pres des remparts de Seville (Seguedille) / Toreador, en garde
DR9 -0.30 dB -12.99 dB 4:19 15-Unknown Performer
DR13 -0.30 dB -19.41 dB 4:35 13-In the Mists : 1. Andante
DR10 -2.31 dB -18.04 dB 2:47 14-Das Wohltemperierte Klavier: Book 1, BWV 846-869 : Prelude And Fugue No.1 In C Major, BWV 846
DR12 -2.29 dB -19.32 dB 5:22 31-Rachmaninov: Vocalise, Op.34, No.14, Lentamente cantabile - Transcr. for cello and piano by Rachmaninov
DR14 -3.20 dB -21.81 dB 6:00 25-24 Caprices pour violon seul, Op.1 : Caprice No. 24 en la mineur
DR7 -0.30 dB -12.66 dB 3:06 09-Werther / Act 3 : "Toute mon ame est la! Pourquoi me reveiller, o souffle de printemps?"
DR11 -0.30 dB -16.00 dB 4:40 10-L'elisir d'amore / Act 2 : "Una furtiva lagrima"
DR13 -0.30 dB -18.47 dB 1:56 27-Star-Cross'd Lovers : Act I: Star-Cross'd Lovers
DR13 -0.30 dB -19.35 dB 2:13 28-6 Epigraphes antiques, L.131 : 1. Pour invoquer Pan, dieu du vent d'ete
DR13 -0.72 dB -20.03 dB 4:47 03-12 Etudes, Op.10 : No. 3 In E "Tristesse"
DR12 -0.85 dB -19.92 dB 4:54 04-Liszt: Liebestraum No.3 In A Flat, S.541 No.3
DR12 -2.75 dB -20.12 dB 4:09 21-Concierto de Aranjuez for Guitar and Orchestra : 2. Adagio
DR11 -6.91 dB -20.58 dB 3:00 22-Anonymous: Spanish Romance (arr. for Guitar and Orchestra)
DR12 -0.30 dB -15.30 dB 6:34 26-Mitridate, re di Ponto, K.87 / Act 1 : "Al destin, che la minaccia"
DR14 -0.30 dB -19.55 dB 4:45 07-Monti: Csardas
DR13 -0.30 dB -19.25 dB 3:50 08-Schindler's List - Original Motion Picture Soundtrack : Theme
DR12 -0.30 dB -17.17 dB 4:13 05-Les Indes galantes / Nouvelle Entree: Les Sauvages Scene 6 : Danse du Grand Calumet de la Paix (Rondeau) - Forets paisibles
DR14 -1.76 dB -22.50 dB 5:34 06-Rinaldo, HWV 7a / Act 2 : "Lascia ch'io pianga"
DR11 -0.30 dB -13.80 dB 2:28 11-Les quatre saisons / L’ete, Op. 8, No. 2, RV 315 : 6.
DR8 -0.30 dB -12.78 dB 2:21 29-Gianni Schicchi : "O mio babbino caro"
DR7 -0.30 dB -12.75 dB 3:31 30-La Wally / Act 1 : "Ebben? Ne andro lontana"
DR12 -0.30 dB -16.38 dB 3:22 12-Piano Sonata No. 11 in A Major, K. 331 "Alla Turca" - Arr. for accordion and strings by Richard Galliano : 3. Marche turque
DR13 -0.30 dB -16.52 dB 3:18 01-Rossini: La Danza - Tarentelle Napolitaine
DR12 -0.30 dB -15.45 dB 3:11 02-Pagliacci / Act 1 : Recitar… Vesti la giubba
DR11 -0.30 dB -14.21 dB 2:04 23-Rigoletto / Act 3 : "La donna e mobile"
DR11 -0.30 dB -16.07 dB 5:11 24-La Gioconda / Act 2 : "Cielo e mar"
DR11 -0.30 dB -14.82 dB 2:27 17-Fantaisie roumaine
DR12 -0.30 dB -17.89 dB 4:56 18-Kalinka
––––––––––––––––––––––––––––––––––––––––

Number of tracks: 32
Official DR value: DR12

Samplerate: 44100 Hz
Channels: 2
Bits per sample: 24
Bitrate: 1306 kbps
Codec: FLAC
================================================================================