Subcategories

VA - NOW 100 Hits Sing-A-Long (2019)

Posted By: ciklon5
VA - NOW 100 Hits Sing-A-Long (2019)

VA - NOW 100 Hits Sing-A-Long (5CD, 2019)
FLAC tracks +cue+log+scans | 06:08:48 | 2,6 Gb
Genre: Pop, Rock, Dance / Label: Now

Get ready to perform to a mixture of contemporary and classic hits with Now 100 Hits: Sing-a-Long. Featuring five discs of karaoke anthems, this album is perfect for the whole family. To your attention is presented a publication NOW Thats What I Call Music for review, as well as an overview of the overall picture, content and listening! Peter Carlsson, James Arthur, Nelly Furtado, Billie Eilish, American Authors, Zac Barnett, James Adam Shelley, Dave Rublin.

Track List:
CD1
01.Lewis Capaldi - Someone You Loved - 00:03:02
02.George Ezra - Budapest - 00:03:21
03.Dolly Parton - 9 To 5 - 00:02:44
04.Elton John - Tiny Dancer - 00:06:14
05.Tom Walker - Leave A Light On - 00:03:05
06.The Killers - Mr. Brightside - 00:03:43
07.Blacked Eyed Peas - I Gotta Feeling - 00:04:05
08.Mika - Grace Kelly - 00:03:05
09.Jess Glynne - Hold My Hand - 00:03:46
10.OutKast - Hey Ya! - 00:03:55
11.Cyndi Lauper - Girls Just Want To Have Fun - 00:03:51
12.Lou Bega - Mambo No.5 (A Little Bit Of…) - 00:03:39
13.Meghan Trainor - All About The Bass - 00:03:08
14.The Proclaimers - I'm Gonna Be (500 Miles) - 00:03:36
15.Billy Joel - Uptown Girl - 00:003:14
16.Spice Girls - Stop - 00:03:24
17.Justin Timberlake - Can't Stop The Feeling! - 00:03:56
18.S Club 7 - Reach - 00:03:54
19.Pharrell Williams - Happy - 00:03:52
20.Scissor Sisters - I Don't Feel Like Dancin' - 00:04:08

CD2
01.Clean Bandit Feat. Jess Glynne - Rather Be - 00:03:47
02.Avicii - Wake Me Up - 00:04:05
03.David Guetta Feat. Sia - Titanium - 00:04:05
04.Zara Larsson - Lush Life - 00:03:20
05.TLC - No Scrubs - 00:03:59
06.Backstreet Boys - Everybody (Backstreet's Back) - 00:03:46
07.Kelly Clarkson - Heartbeat Song - 00:03:20
08.Sugababes - About You Now - 00:03:11
09.Hanson - MMMBop - 00:03:57
10.Blondie - Sunday Girl - 00:03:13
11.Steps - Tragedy - 00:04:30
12.Dead Or Alive - You Spin Me Round (Like A Record) - 00:03:11
13.Aqua - Barbie Girl - 00:03:15
14.The Weather Girls - It's Raining Men - 00:03:31
15.Bucks Fizz - Making Your Mind Up - 00:02:38
16.Kenny Loggins - Footloose - 00:03:46
17.Ricky Martin - Livin' La Vida Loca - 00:04:02
18.The Fratellis - Chelsea Dagger - 00:03:21
19.Walk The Moon - Shut Up & Dance - 00:03:18
20.DNCE - Cake By The Ocean - 00:03:39

CD3
01.Mark Ronson Feat. Bruno Mars - Uptown Funk - 00:03:56
02.Little Mix - Shout Out To My Ex - 00:03:46
03.Pussycat Dolls - Don't Cha - 00:04:11
04.Destiny's Child - Bootylicious - 00:03:33
05.Sigala & Ella Eyre - Came Here For Love - 00:03:31
06.Timbaland Feat. Katy Perry - If We Ever Meet Again - 00:04:04
07.Olly Murs Feat. Demi Lovato - Up - 00:03:50
08.KT Tunstall - Suddenly I See - 00:03:20
09.James - Sit Down - 00:04:06
10.Sara Bareilles - Love Song - 00:04:21
11.Scouting For Girls - She's So Lovely - 00:03:42
12.The Kooks - Naive - 00:03:23
13.Avril Lavigne - Complicated - 00:04:05
14.Ella Henderson - Ghost - 00:03:33
15.American Authors - Best Day Of My Life - 00:03:13
16.Maroon 5 - Payphone - 00:03:42
17.JP Cooper - September Song - 00:03:41
18.Alan Walker - Faded - 00:03:33
19.Years & Years - King - 00:03:36
20.Clean Bandit Feat. Sean Paul & Anne-Marie - Rockabye - 00:04:11

CD4
01.Billie Eilish - Bad Guy - 00:03:13
02.Naughty Boy Feat. Sam Smith - La La La - 00:03:39
03.Lil Nas X Feat. Billy Ray Cyrus - Old Town Road (Remix) - 00:02:37
04.Corinne Bailey Rae - Put Your Records On - 00:03:32
05.Nelly Furtado - I'm Like A Bird - 00:04:03
06.Lorde - Royals - 00:03:10
07.P!nk Feat. Nate Ruess - Just Give Me A Reason - 00:04:02
08.Robbie Williams - She's The One - 00:04:18
09.T'Pau - China In Your Hand - 00:04:02
10.Bonnie Tyler - Total Eclipse Of The Heart - 00:04:28
11.James Arthur - Impossible - 00:03:28
12.John Legend - All Of Me - 00:04:33
13.Calum Scott - Dancing On My Own - 00:04:19
14.Sam Smith - I'm Not The Only One - 00:03:24
15.Fugees - Killing Me Softly With His Song - 00:04:05
16.UB40 - Red Red Wine - 00:03:01
17.Culture Club - Karma Chameleon - 00:04:13
18.Abba - Mamma Mia - 00:03:30
19.Gloria Gaynor - I Will Survive - 00:03:11
20.Don McLean - American Pie (Pt. 1) - 00:04:05

CD5
01.Amy Winehouse - Rehab - 00:03:33
02.Dua Lipa - New Rules - 00:03:30
03.Justin Bieber - Sorry - 00:03:19
04.Jonas Blue Feat. JP Cooper - Perfect Strangers - 00:03:17
05.Anne-Marie - Ciao Adios - 00:03:20
06.Taio Cruz - Dynamite - 00:03:22
07.Blacked Eyed Peas - Meet Me Halfway - 00:03:45
08.Calvin Harris Feat. Dua Lipa - One Kiss - 00:03:32
09.Cher - Believe - 00:03:57
10.Sia Feat. Sean Paul - Cheap Thrills - 00:03:40
11.Fifth Harmony Feat. Ty Dolla $ign - Work From Home - 00:03:36
12.Sigrid - Don't Kill My Vibe - 00:03:02
13.Ellie Goulding - Love Me Like You Do - 00:04:01
14.One Direction - Story Of My Life - 00:04:03
15.Take That - Back For Good - 00:04:01
16.Britney Spears - …Baby One More Time - 00:03:31
17.MC Hammer - U Can't Touch This - 00:04:14
18.George Ezra - Shotgun - 00:03:19
19.Human League - Don't You Want Me - 00:03:57
20.Rick Astley - Never Gonna Give You Up - 00:03:29

Exact Audio Copy V1.3 from 2. September 2016

EAC extraction logfile from 7. December 2019, 23:46

Various / Now - 100 Hits - Sing-A-Long - CD1

Used drive : ATAPI iHAS124 Y Adapter: 1 ID: 0

Read mode : Secure
Utilize accurate stream : Yes
Defeat audio cache : No
Make use of C2 pointers : Yes

Read offset correction : 48
Overread into Lead-In and Lead-Out : No
Fill up missing offset samples with silence : Yes
Delete leading and trailing silent blocks : No
Null samples used in CRC calculations : Yes
Used interface : Native Win32 interface for Win NT & 2000
Gap handling : Not detected, thus appended to previous track

Used output format : User Defined Encoder
Selected bitrate : 768 kBit/s
Quality : High
Add ID3 tag : No
Command line compressor : C:\Program Files (x86)\Exact Audio Copy\FLAC\FLAC.EXE
Additional command line options : -6 -V -T "ARTIST=%artist%" -T "TITLE=%title%" -T "ALBUM=%albumtitle%" -T "DATE=%year%" -T "TRACKNUMBER=%tracknr%" -T "GENRE=%genre%" -T "COMMENT=%comment%" -T "BAND=%albuminterpret%" -T "ALBUMARTIST=%albuminterpret%" -T "COMPOSER=%composer%" %haslyrics%–tag-from-file=LYRICS="%lyricsfile%"%haslyrics% -T "DISCNUMBER=%cdnumber%" -T "TOTALDISCS=%totalcds%" -T "TOTALTRACKS=%numtracks%" %hascover%–picture="%coverfile%"%hascover% %source% -o %dest%


TOC of the extracted CD

Track | Start | Length | Start sector | End sector
––––––––––––––––––––––––––––-
1 | 0:00.00 | 3:02.17 | 0 | 13666
2 | 3:02.17 | 3:21.53 | 13667 | 28794
3 | 6:23.70 | 2:44.27 | 28795 | 41121
4 | 9:08.22 | 6:14.68 | 41122 | 69239
5 | 15:23.15 | 3:05.17 | 69240 | 83131
6 | 18:28.32 | 3:43.13 | 83132 | 99869
7 | 22:11.45 | 4:05.56 | 99870 | 118300
8 | 26:17.26 | 3:05.26 | 118301 | 132201
9 | 29:22.52 | 3:46.36 | 132202 | 149187
10 | 33:09.13 | 3:55.18 | 149188 | 166830
11 | 37:04.31 | 3:51.58 | 166831 | 184213
12 | 40:56.14 | 3:39.50 | 184214 | 200688
13 | 44:35.64 | 3:08.71 | 200689 | 214859
14 | 47:44.60 | 3:36.24 | 214860 | 231083
15 | 51:21.09 | 3:14.70 | 231084 | 245703
16 | 54:36.04 | 3:24.38 | 245704 | 261041
17 | 58:00.42 | 3:56.25 | 261042 | 278766
18 | 61:56.67 | 3:54.12 | 278767 | 296328
19 | 65:51.04 | 3:52.22 | 296329 | 313750
20 | 69:43.26 | 4:08.15 | 313751 | 332365


Track 1

Filename A:\PsPBuRnOuT's MUSIC\SORTED BY YEAR\NOW MUSIC\NOW - 100 HITS - SING-A-LONG\NOW - 100 HITS - SING-A-LONG - CD1\01.Lewis Capaldi - Someone You Loved.wav

Peak level 78.2 %
Extraction speed 9.0 X
Track quality 100.0 %
Copy CRC ED4D9556
Track not present in AccurateRip database
Copy OK

Track 2

Filename A:\PsPBuRnOuT's MUSIC\SORTED BY YEAR\NOW MUSIC\NOW - 100 HITS - SING-A-LONG\NOW - 100 HITS - SING-A-LONG - CD1\02.George Ezra - Budapest.wav

Peak level 84.4 %
Extraction speed 10.2 X
Track quality 99.8 %
Copy CRC 6C9E33B3
Track not present in AccurateRip database
Copy OK

Track 3

Filename A:\PsPBuRnOuT's MUSIC\SORTED BY YEAR\NOW MUSIC\NOW - 100 HITS - SING-A-LONG\NOW - 100 HITS - SING-A-LONG - CD1\03.Dolly Parton - 9 To 5.wav

Peak level 89.1 %
Extraction speed 10.9 X
Track quality 100.0 %
Copy CRC FA818BA7
Track not present in AccurateRip database
Copy OK

Track 4

Filename A:\PsPBuRnOuT's MUSIC\SORTED BY YEAR\NOW MUSIC\NOW - 100 HITS - SING-A-LONG\NOW - 100 HITS - SING-A-LONG - CD1\04.Elton John - Tiny Dancer.wav

Peak level 89.1 %
Extraction speed 12.2 X
Track quality 100.0 %
Copy CRC EC74594F
Track not present in AccurateRip database
Copy OK

Track 5

Filename A:\PsPBuRnOuT's MUSIC\SORTED BY YEAR\NOW MUSIC\NOW - 100 HITS - SING-A-LONG\NOW - 100 HITS - SING-A-LONG - CD1\05.Tom Walker - Leave A Light On.wav

Peak level 86.2 %
Extraction speed 13.5 X
Track quality 100.0 %
Copy CRC 39A2AE52
Track not present in AccurateRip database
Copy OK

Track 6

Filename A:\PsPBuRnOuT's MUSIC\SORTED BY YEAR\NOW MUSIC\NOW - 100 HITS - SING-A-LONG\NOW - 100 HITS - SING-A-LONG - CD1\06.The Killers - Mr. Brightside.wav

Peak level 71.8 %
Extraction speed 14.0 X
Track quality 100.0 %
Copy CRC FFBA716F
Track not present in AccurateRip database
Copy OK

Track 7

Filename A:\PsPBuRnOuT's MUSIC\SORTED BY YEAR\NOW MUSIC\NOW - 100 HITS - SING-A-LONG\NOW - 100 HITS - SING-A-LONG - CD1\07.Blacked Eyed Peas - I Gotta Feeling.wav

Peak level 88.1 %
Extraction speed 14.6 X
Track quality 100.0 %
Copy CRC 90AD8E73
Track not present in AccurateRip database
Copy OK

Track 8

Filename A:\PsPBuRnOuT's MUSIC\SORTED BY YEAR\NOW MUSIC\NOW - 100 HITS - SING-A-LONG\NOW - 100 HITS - SING-A-LONG - CD1\08.Mika - Grace Kelly.wav

Peak level 89.1 %
Extraction speed 14.7 X
Track quality 100.0 %
Copy CRC 3519AE7D
Track not present in AccurateRip database
Copy OK

Track 9

Filename A:\PsPBuRnOuT's MUSIC\SORTED BY YEAR\NOW MUSIC\NOW - 100 HITS - SING-A-LONG\NOW - 100 HITS - SING-A-LONG - CD1\09.Jess Glynne - Hold My Hand.wav

Peak level 78.5 %
Extraction speed 15.3 X
Track quality 100.0 %
Copy CRC 1064D1F8
Track not present in AccurateRip database
Copy OK

Track 10

Filename A:\PsPBuRnOuT's MUSIC\SORTED BY YEAR\NOW MUSIC\NOW - 100 HITS - SING-A-LONG\NOW - 100 HITS - SING-A-LONG - CD1\10.OutKast - Hey Ya!.wav

Peak level 75.0 %
Extraction speed 16.5 X
Track quality 100.0 %
Copy CRC 0901FCE6
Track not present in AccurateRip database
Copy OK

Track 11

Filename A:\PsPBuRnOuT's MUSIC\SORTED BY YEAR\NOW MUSIC\NOW - 100 HITS - SING-A-LONG\NOW - 100 HITS - SING-A-LONG - CD1\11.Cyndi Lauper - Girls Just Want To Have Fun.wav

Peak level 75.1 %
Extraction speed 17.1 X
Track quality 100.0 %
Copy CRC 337B797E
Track not present in AccurateRip database
Copy OK

Track 12

Filename A:\PsPBuRnOuT's MUSIC\SORTED BY YEAR\NOW MUSIC\NOW - 100 HITS - SING-A-LONG\NOW - 100 HITS - SING-A-LONG - CD1\12.Lou Bega - Mambo No.5 (A Little Bit Of…).wav

Peak level 89.1 %
Extraction speed 17.7 X
Track quality 100.0 %
Copy CRC B9D50CFD
Track not present in AccurateRip database
Copy OK

Track 13

Filename A:\PsPBuRnOuT's MUSIC\SORTED BY YEAR\NOW MUSIC\NOW - 100 HITS - SING-A-LONG\NOW - 100 HITS - SING-A-LONG - CD1\13.Meghan Trainor - All About The Bass.wav

Peak level 75.0 %
Extraction speed 17.2 X
Track quality 99.8 %
Copy CRC 4314F9D4
Track not present in AccurateRip database
Copy OK

Track 14

Filename A:\PsPBuRnOuT's MUSIC\SORTED BY YEAR\NOW MUSIC\NOW - 100 HITS - SING-A-LONG\NOW - 100 HITS - SING-A-LONG - CD1\14.The Proclaimers - I'm Gonna Be (500 Miles).wav

Peak level 89.0 %
Extraction speed 17.8 X
Track quality 100.0 %
Copy CRC 54CEF1A0
Track not present in AccurateRip database
Copy OK

Track 15

Filename A:\PsPBuRnOuT's MUSIC\SORTED BY YEAR\NOW MUSIC\NOW - 100 HITS - SING-A-LONG\NOW - 100 HITS - SING-A-LONG - CD1\15.Billy Joel - Uptown Girl.wav

Peak level 89.1 %
Extraction speed 18.2 X
Track quality 100.0 %
Copy CRC BDE66D0E
Track not present in AccurateRip database
Copy OK

Track 16

Filename A:\PsPBuRnOuT's MUSIC\SORTED BY YEAR\NOW MUSIC\NOW - 100 HITS - SING-A-LONG\NOW - 100 HITS - SING-A-LONG - CD1\16.Spice Girls - Stop.wav

Peak level 86.4 %
Extraction speed 18.6 X
Track quality 100.0 %
Copy CRC 9E6F7A59
Track not present in AccurateRip database
Copy OK

Track 17

Filename A:\PsPBuRnOuT's MUSIC\SORTED BY YEAR\NOW MUSIC\NOW - 100 HITS - SING-A-LONG\NOW - 100 HITS - SING-A-LONG - CD1\17.Justin Timberlake - Can't Stop The Feeling!.wav

Peak level 82.6 %
Extraction speed 19.2 X
Track quality 100.0 %
Copy CRC DA34A56C
Track not present in AccurateRip database
Copy OK

Track 18

Filename A:\PsPBuRnOuT's MUSIC\SORTED BY YEAR\NOW MUSIC\NOW - 100 HITS - SING-A-LONG\NOW - 100 HITS - SING-A-LONG - CD1\18.S Club 7 - Reach.wav

Peak level 83.9 %
Extraction speed 19.5 X
Track quality 100.0 %
Copy CRC A02DF4A3
Track not present in AccurateRip database
Copy OK

Track 19

Filename A:\PsPBuRnOuT's MUSIC\SORTED BY YEAR\NOW MUSIC\NOW - 100 HITS - SING-A-LONG\NOW - 100 HITS - SING-A-LONG - CD1\19.Pharrell Williams - Happy.wav

Peak level 86.1 %
Extraction speed 19.9 X
Track quality 99.9 %
Copy CRC 1A6ED93E
Track not present in AccurateRip database
Copy OK

Track 20

Filename A:\PsPBuRnOuT's MUSIC\SORTED BY YEAR\NOW MUSIC\NOW - 100 HITS - SING-A-LONG\NOW - 100 HITS - SING-A-LONG - CD1\20.Scissor Sisters - I Don't Feel Like Dancin'.wav

Peak level 86.1 %
Extraction speed 20.3 X
Track quality 100.0 %
Copy CRC AC81E626
Track not present in AccurateRip database
Copy OK


None of the tracks are present in the AccurateRip database

No errors occurred

End of status report

–– CUETools DB Plugin V2.1.6

[CTDB TOCID: hYmg.o.ReD0orJe5mCcbdb20EzA-] found
Submit result: hYmg.o.ReD0orJe5mCcbdb20EzA- has been confirmed
Track | CTDB Status
1 | (1/1) Accurately ripped
2 | (1/1) Accurately ripped
3 | (1/1) Accurately ripped
4 | (1/1) Accurately ripped
5 | (1/1) Accurately ripped
6 | (1/1) Accurately ripped
7 | (1/1) Accurately ripped
8 | (1/1) Accurately ripped
9 | (1/1) Accurately ripped
10 | (1/1) Accurately ripped
11 | (1/1) Accurately ripped
12 | (1/1) Accurately ripped
13 | (1/1) Accurately ripped
14 | (1/1) Accurately ripped
15 | (1/1) Accurately ripped
16 | (1/1) Accurately ripped
17 | (1/1) Accurately ripped
18 | (1/1) Accurately ripped
19 | (1/1) Accurately ripped
20 | (1/1) Accurately ripped

Exact Audio Copy V1.3 from 2. September 2016

EAC extraction logfile from 8. December 2019, 0:14

Various / Now - 100 Hits - Sing-A-Long - CD2

Used drive : ATAPI iHAS124 Y Adapter: 1 ID: 0

Read mode : Secure
Utilize accurate stream : Yes
Defeat audio cache : No
Make use of C2 pointers : Yes

Read offset correction : 48
Overread into Lead-In and Lead-Out : No
Fill up missing offset samples with silence : Yes
Delete leading and trailing silent blocks : No
Null samples used in CRC calculations : Yes
Used interface : Native Win32 interface for Win NT & 2000
Gap handling : Not detected, thus appended to previous track

Used output format : User Defined Encoder
Selected bitrate : 768 kBit/s
Quality : High
Add ID3 tag : No
Command line compressor : C:\Program Files (x86)\Exact Audio Copy\FLAC\FLAC.EXE
Additional command line options : -6 -V -T "ARTIST=%artist%" -T "TITLE=%title%" -T "ALBUM=%albumtitle%" -T "DATE=%year%" -T "TRACKNUMBER=%tracknr%" -T "GENRE=%genre%" -T "COMMENT=%comment%" -T "BAND=%albuminterpret%" -T "ALBUMARTIST=%albuminterpret%" -T "COMPOSER=%composer%" %haslyrics%–tag-from-file=LYRICS="%lyricsfile%"%haslyrics% -T "DISCNUMBER=%cdnumber%" -T "TOTALDISCS=%totalcds%" -T "TOTALTRACKS=%numtracks%" %hascover%–picture="%coverfile%"%hascover% %source% -o %dest%


TOC of the extracted CD

Track | Start | Length | Start sector | End sector
––––––––––––––––––––––––––––-
1 | 0:00.00 | 3:47.10 | 0 | 17034
2 | 3:47.10 | 4:05.37 | 17035 | 35446
3 | 7:52.47 | 4:05.35 | 35447 | 53856
4 | 11:58.07 | 3:20.50 | 53857 | 68906
5 | 15:18.57 | 3:59.37 | 68907 | 86868
6 | 19:18.19 | 3:46.19 | 86869 | 103837
7 | 23:04.38 | 3:20.61 | 103838 | 118898
8 | 26:25.24 | 3:11.19 | 118899 | 133242
9 | 29:36.43 | 3:57.66 | 133243 | 151083
10 | 33:34.34 | 3:13.45 | 151084 | 165603
11 | 36:48.04 | 4:30.36 | 165604 | 185889
12 | 41:18.40 | 3:11.68 | 185890 | 200282
13 | 44:30.33 | 3:15.27 | 200283 | 214934
14 | 47:45.60 | 3:31.47 | 214935 | 230806
15 | 51:17.32 | 2:38.18 | 230807 | 242674
16 | 53:55.50 | 3:46.60 | 242675 | 259684
17 | 57:42.35 | 4:02.35 | 259685 | 277869
18 | 61:44.70 | 3:21.10 | 277870 | 292954
19 | 65:06.05 | 3:18.03 | 292955 | 307807
20 | 68:24.08 | 3:39.12 | 307808 | 324244


Track 1

Filename A:\PsPBuRnOuT's MUSIC\SORTED BY YEAR\NOW MUSIC\NOW - 100 HITS - SING-A-LONG\NOW - 100 HITS - SING-A-LONG - CD2\01.Clean Bandit Feat. Jess Glynne - Rather Be.wav

Peak level 88.1 %
Extraction speed 9.2 X
Track quality 100.0 %
Copy CRC F5CF9D45
Track not present in AccurateRip database
Copy OK

Track 2

Filename A:\PsPBuRnOuT's MUSIC\SORTED BY YEAR\NOW MUSIC\NOW - 100 HITS - SING-A-LONG\NOW - 100 HITS - SING-A-LONG - CD2\02.Avicii - Wake Me Up.wav

Peak level 74.5 %
Extraction speed 11.0 X
Track quality 100.0 %
Copy CRC 44454E47
Track not present in AccurateRip database
Copy OK

Track 3

Filename A:\PsPBuRnOuT's MUSIC\SORTED BY YEAR\NOW MUSIC\NOW - 100 HITS - SING-A-LONG\NOW - 100 HITS - SING-A-LONG - CD2\03.David Guetta Feat. Sia - Titanium.wav

Peak level 75.3 %
Extraction speed 11.9 X
Track quality 100.0 %
Copy CRC A56257E9
Track not present in AccurateRip database
Copy OK

Track 4

Filename A:\PsPBuRnOuT's MUSIC\SORTED BY YEAR\NOW MUSIC\NOW - 100 HITS - SING-A-LONG\NOW - 100 HITS - SING-A-LONG - CD2\04.Zara Larsson - Lush Life.wav

Peak level 89.0 %
Extraction speed 12.2 X
Track quality 100.0 %
Copy CRC 683A2D72
Track not present in AccurateRip database
Copy OK

Track 5

Filename A:\PsPBuRnOuT's MUSIC\SORTED BY YEAR\NOW MUSIC\NOW - 100 HITS - SING-A-LONG\NOW - 100 HITS - SING-A-LONG - CD2\05.TLC - No Scrubs.wav

Peak level 89.1 %
Extraction speed 13.0 X
Track quality 100.0 %
Copy CRC 1C232DF0
Track not present in AccurateRip database
Copy OK

Track 6

Filename A:\PsPBuRnOuT's MUSIC\SORTED BY YEAR\NOW MUSIC\NOW - 100 HITS - SING-A-LONG\NOW - 100 HITS - SING-A-LONG - CD2\06.Backstreet Boys - Everybody (Backstreet's Back).wav

Peak level 88.2 %
Extraction speed 13.5 X
Track quality 99.9 %
Copy CRC 6A41BB83
Track not present in AccurateRip database
Copy OK

Track 7

Filename A:\PsPBuRnOuT's MUSIC\SORTED BY YEAR\NOW MUSIC\NOW - 100 HITS - SING-A-LONG\NOW - 100 HITS - SING-A-LONG - CD2\07.Kelly Clarkson - Heartbeat Song.wav

Peak level 79.1 %
Extraction speed 14.9 X
Track quality 100.0 %
Copy CRC 9417B8B1
Track not present in AccurateRip database
Copy OK

Track 8

Filename A:\PsPBuRnOuT's MUSIC\SORTED BY YEAR\NOW MUSIC\NOW - 100 HITS - SING-A-LONG\NOW - 100 HITS - SING-A-LONG - CD2\08.Sugababes - About You Now.wav

Peak level 89.1 %
Extraction speed 15.4 X
Track quality 100.0 %
Copy CRC 374F1F43
Track not present in AccurateRip database
Copy OK

Track 9

Filename A:\PsPBuRnOuT's MUSIC\SORTED BY YEAR\NOW MUSIC\NOW - 100 HITS - SING-A-LONG\NOW - 100 HITS - SING-A-LONG - CD2\09.Hanson - MMMBop.wav

Peak level 89.1 %
Extraction speed 15.3 X
Track quality 100.0 %
Copy CRC BDF09A07
Track not present in AccurateRip database
Copy OK

Track 10

Filename A:\PsPBuRnOuT's MUSIC\SORTED BY YEAR\NOW MUSIC\NOW - 100 HITS - SING-A-LONG\NOW - 100 HITS - SING-A-LONG - CD2\10.Blondie - Sunday Girl.wav

Peak level 89.1 %
Extraction speed 15.8 X
Track quality 100.0 %
Copy CRC DC2A2B86
Track not present in AccurateRip database
Copy OK

Track 11

Filename A:\PsPBuRnOuT's MUSIC\SORTED BY YEAR\NOW MUSIC\NOW - 100 HITS - SING-A-LONG\NOW - 100 HITS - SING-A-LONG - CD2\11.Steps - Tragedy.wav

Peak level 78.9 %
Extraction speed 16.3 X
Track quality 100.0 %
Copy CRC 1DAA4F06
Track not present in AccurateRip database
Copy OK

Track 12

Filename A:\PsPBuRnOuT's MUSIC\SORTED BY YEAR\NOW MUSIC\NOW - 100 HITS - SING-A-LONG\NOW - 100 HITS - SING-A-LONG - CD2\12.Dead Or Alive - You Spin Me Round (Like A Record).wav

Peak level 84.0 %
Extraction speed 17.8 X
Track quality 100.0 %
Copy CRC 5D04BB9C
Track not present in AccurateRip database
Copy OK

Track 13

Filename A:\PsPBuRnOuT's MUSIC\SORTED BY YEAR\NOW MUSIC\NOW - 100 HITS - SING-A-LONG\NOW - 100 HITS - SING-A-LONG - CD2\13.Aqua - Barbie Girl.wav

Peak level 81.7 %
Extraction speed 17.2 X
Track quality 99.8 %
Copy CRC DE48CC5E
Track not present in AccurateRip database
Copy OK

Track 14

Filename A:\PsPBuRnOuT's MUSIC\SORTED BY YEAR\NOW MUSIC\NOW - 100 HITS - SING-A-LONG\NOW - 100 HITS - SING-A-LONG - CD2\14.The Weather Girls - It's Raining Men.wav

Peak level 88.1 %
Extraction speed 18.7 X
Track quality 100.0 %
Copy CRC 33D475B2
Track not present in AccurateRip database
Copy OK

Track 15

Filename A:\PsPBuRnOuT's MUSIC\SORTED BY YEAR\NOW MUSIC\NOW - 100 HITS - SING-A-LONG\NOW - 100 HITS - SING-A-LONG - CD2\15.Bucks Fizz - Making Your Mind Up.wav

Peak level 81.0 %
Extraction speed 18.4 X
Track quality 100.0 %
Copy CRC 6EA48C61
Track not present in AccurateRip database
Copy OK

Track 16

Filename A:\PsPBuRnOuT's MUSIC\SORTED BY YEAR\NOW MUSIC\NOW - 100 HITS - SING-A-LONG\NOW - 100 HITS - SING-A-LONG - CD2\16.Kenny Loggins - Footloose.wav

Peak level 89.1 %
Extraction speed 18.6 X
Track quality 100.0 %
Copy CRC 9DDC10E0
Track not present in AccurateRip database
Copy OK

Track 17

Filename A:\PsPBuRnOuT's MUSIC\SORTED BY YEAR\NOW MUSIC\NOW - 100 HITS - SING-A-LONG\NOW - 100 HITS - SING-A-LONG - CD2\17.Ricky Martin - Livin' La Vida Loca.wav

Peak level 76.0 %
Extraction speed 18.0 X
Track quality 99.8 %
Copy CRC 1969DE03
Track not present in AccurateRip database
Copy OK

Track 18

Filename A:\PsPBuRnOuT's MUSIC\SORTED BY YEAR\NOW MUSIC\NOW - 100 HITS - SING-A-LONG\NOW - 100 HITS - SING-A-LONG - CD2\18.The Fratellis - Chelsea Dagger.wav

Peak level 74.6 %
Extraction speed 20.6 X
Track quality 100.0 %
Copy CRC 176DE0AA
Track not present in AccurateRip database
Copy OK

Track 19

Filename A:\PsPBuRnOuT's MUSIC\SORTED BY YEAR\NOW MUSIC\NOW - 100 HITS - SING-A-LONG\NOW - 100 HITS - SING-A-LONG - CD2\19.Walk The Moon - Shut Up & Dance.wav

Peak level 85.6 %
Extraction speed 19.4 X
Track quality 99.8 %
Copy CRC D36C2E19
Track not present in AccurateRip database
Copy OK

Track 20

Filename A:\PsPBuRnOuT's MUSIC\SORTED BY YEAR\NOW MUSIC\NOW - 100 HITS - SING-A-LONG\NOW - 100 HITS - SING-A-LONG - CD2\20.DNCE - Cake By The Ocean.wav

Peak level 89.0 %
Extraction speed 17.8 X
Track quality 99.8 %
Copy CRC B02843B4
Track not present in AccurateRip database
Copy OK


None of the tracks are present in the AccurateRip database

No errors occurred

End of status report

–– CUETools DB Plugin V2.1.6

[CTDB TOCID: rdJ_d7BxvMjSCSxUGIfdyzMQXq4-] found
Submit result: rdJ_d7BxvMjSCSxUGIfdyzMQXq4- has been confirmed
Track | CTDB Status
1 | (1/1) Accurately ripped
2 | (1/1) Accurately ripped
3 | (1/1) Accurately ripped
4 | (1/1) Accurately ripped
5 | (1/1) Accurately ripped
6 | (1/1) Accurately ripped
7 | (1/1) Accurately ripped
8 | (1/1) Accurately ripped
9 | (1/1) Accurately ripped
10 | (1/1) Accurately ripped
11 | (1/1) Accurately ripped
12 | (1/1) Accurately ripped
13 | (1/1) Accurately ripped
14 | (1/1) Accurately ripped
15 | (1/1) Accurately ripped
16 | (1/1) Accurately ripped
17 | (1/1) Accurately ripped
18 | (1/1) Accurately ripped
19 | (1/1) Accurately ripped
20 | (1/1) Accurately ripped

Exact Audio Copy V1.3 from 2. September 2016

EAC extraction logfile from 8. December 2019, 0:42

Various / Now - 100 Hits - Sing-A-Long - CD3

Used drive : ATAPI iHAS124 Y Adapter: 1 ID: 0

Read mode : Secure
Utilize accurate stream : Yes
Defeat audio cache : No
Make use of C2 pointers : Yes

Read offset correction : 48
Overread into Lead-In and Lead-Out : No
Fill up missing offset samples with silence : Yes
Delete leading and trailing silent blocks : No
Null samples used in CRC calculations : Yes
Used interface : Native Win32 interface for Win NT & 2000
Gap handling : Not detected, thus appended to previous track

Used output format : User Defined Encoder
Selected bitrate : 768 kBit/s
Quality : High
Add ID3 tag : No
Command line compressor : C:\Program Files (x86)\Exact Audio Copy\FLAC\FLAC.EXE
Additional command line options : -6 -V -T "ARTIST=%artist%" -T "TITLE=%title%" -T "ALBUM=%albumtitle%" -T "DATE=%year%" -T "TRACKNUMBER=%tracknr%" -T "GENRE=%genre%" -T "COMMENT=%comment%" -T "BAND=%albuminterpret%" -T "ALBUMARTIST=%albuminterpret%" -T "COMPOSER=%composer%" %haslyrics%–tag-from-file=LYRICS="%lyricsfile%"%haslyrics% -T "DISCNUMBER=%cdnumber%" -T "TOTALDISCS=%totalcds%" -T "TOTALTRACKS=%numtracks%" %hascover%–picture="%coverfile%"%hascover% %source% -o %dest%


TOC of the extracted CD

Track | Start | Length | Start sector | End sector
––––––––––––––––––––––––––––-
1 | 0:00.00 | 3:56.73 | 0 | 17772
2 | 3:56.73 | 3:46.03 | 17773 | 34725
3 | 7:43.01 | 4:11.28 | 34726 | 53578
4 | 11:54.29 | 3:33.11 | 53579 | 69564
5 | 15:27.40 | 3:31.34 | 69565 | 85423
6 | 18:58.74 | 4:04.45 | 85424 | 103768
7 | 23:03.44 | 3:50.10 | 103769 | 121028
8 | 26:53.54 | 3:20.16 | 121029 | 136044
9 | 30:13.70 | 4:06.20 | 136045 | 154514
10 | 34:20.15 | 4:21.42 | 154515 | 174131
11 | 38:41.57 | 3:42.09 | 174132 | 190790
12 | 42:23.66 | 3:23.48 | 190791 | 206063
13 | 45:47.39 | 4:05.25 | 206064 | 224463
14 | 49:52.64 | 3:33.72 | 224464 | 240510
15 | 53:26.61 | 3:13.68 | 240511 | 255053
16 | 56:40.54 | 3:42.65 | 255054 | 271768
17 | 60:23.44 | 3:41.55 | 271769 | 288398
18 | 64:05.24 | 3:33.66 | 288399 | 304439
19 | 67:39.15 | 3:36.44 | 304440 | 320683
20 | 71:15.59 | 4:11.12 | 320684 | 339520


Track 1

Filename A:\PsPBuRnOuT's MUSIC\SORTED BY YEAR\NOW MUSIC\NOW - 100 HITS - SING-A-LONG\NOW - 100 HITS - SING-A-LONG - CD3\01.Mark Ronson Feat. Bruno Mars - Uptown Funk.wav

Peak level 75.1 %
Extraction speed 14.5 X
Track quality 100.0 %
Copy CRC 2EC6099D
Track not present in AccurateRip database
Copy OK

Track 2

Filename A:\PsPBuRnOuT's MUSIC\SORTED BY YEAR\NOW MUSIC\NOW - 100 HITS - SING-A-LONG\NOW - 100 HITS - SING-A-LONG - CD3\02.Little Mix - Shout Out To My Ex.wav

Peak level 82.5 %
Extraction speed 21.3 X
Track quality 100.0 %
Copy CRC 062681D0
Track not present in AccurateRip database
Copy OK

Track 3

Filename A:\PsPBuRnOuT's MUSIC\SORTED BY YEAR\NOW MUSIC\NOW - 100 HITS - SING-A-LONG\NOW - 100 HITS - SING-A-LONG - CD3\03.Pussycat Dolls - Don't Cha.wav

Peak level 89.1 %
Extraction speed 22.0 X
Track quality 100.0 %
Copy CRC C6E96868
Track not present in AccurateRip database
Copy OK

Track 4

Filename A:\PsPBuRnOuT's MUSIC\SORTED BY YEAR\NOW MUSIC\NOW - 100 HITS - SING-A-LONG\NOW - 100 HITS - SING-A-LONG - CD3\04.Destiny's Child - Bootylicious.wav

Peak level 75.0 %
Extraction speed 23.4 X
Track quality 100.0 %
Copy CRC ECF85923
Track not present in AccurateRip database
Copy OK

Track 5

Filename A:\PsPBuRnOuT's MUSIC\SORTED BY YEAR\NOW MUSIC\NOW - 100 HITS - SING-A-LONG\NOW - 100 HITS - SING-A-LONG - CD3\05.Sigala & Ella Eyre - Came Here For Love.wav

Peak level 78.1 %
Extraction speed 24.8 X
Track quality 100.0 %
Copy CRC 0F4CD0C2
Track not present in AccurateRip database
Copy OK

Track 6

Filename A:\PsPBuRnOuT's MUSIC\SORTED BY YEAR\NOW MUSIC\NOW - 100 HITS - SING-A-LONG\NOW - 100 HITS - SING-A-LONG - CD3\06.Timbaland Feat. Katy Perry - If We Ever Meet Again.wav

Peak level 75.0 %
Extraction speed 26.2 X
Track quality 100.0 %
Copy CRC A7006945
Track not present in AccurateRip database
Copy OK

Track 7

Filename A:\PsPBuRnOuT's MUSIC\SORTED BY YEAR\NOW MUSIC\NOW - 100 HITS - SING-A-LONG\NOW - 100 HITS - SING-A-LONG - CD3\07.Olly Murs Feat. Demi Lovato - Up.wav

Peak level 80.7 %
Extraction speed 28.6 X
Track quality 100.0 %
Copy CRC 8E8A7A56
Track not present in AccurateRip database
Copy OK

Track 8

Filename A:\PsPBuRnOuT's MUSIC\SORTED BY YEAR\NOW MUSIC\NOW - 100 HITS - SING-A-LONG\NOW - 100 HITS - SING-A-LONG - CD3\08.KT Tunstall - Suddenly I See.wav

Peak level 78.4 %
Extraction speed 29.9 X
Track quality 100.0 %
Copy CRC B23FB655
Track not present in AccurateRip database
Copy OK

Track 9

Filename A:\PsPBuRnOuT's MUSIC\SORTED BY YEAR\NOW MUSIC\NOW - 100 HITS - SING-A-LONG\NOW - 100 HITS - SING-A-LONG - CD3\09.James - Sit Down.wav

Peak level 88.1 %
Extraction speed 29.0 X
Track quality 100.0 %
Copy CRC 0EDAD4C5
Track not present in AccurateRip database
Copy OK

Track 10

Filename A:\PsPBuRnOuT's MUSIC\SORTED BY YEAR\NOW MUSIC\NOW - 100 HITS - SING-A-LONG\NOW - 100 HITS - SING-A-LONG - CD3\10.Sara Bareilles - Love Song.wav

Peak level 86.2 %
Extraction speed 30.6 X
Track quality 100.0 %
Copy CRC 73547ACD
Track not present in AccurateRip database
Copy OK

Track 11

Filename A:\PsPBuRnOuT's MUSIC\SORTED BY YEAR\NOW MUSIC\NOW - 100 HITS - SING-A-LONG\NOW - 100 HITS - SING-A-LONG - CD3\11.Scouting For Girls - She's So Lovely.wav

Peak level 84.6 %
Extraction speed 26.7 X
Track quality 99.9 %
Copy CRC 97BD4BC9
Track not present in AccurateRip database
Copy OK

Track 12

Filename A:\PsPBuRnOuT's MUSIC\SORTED BY YEAR\NOW MUSIC\NOW - 100 HITS - SING-A-LONG\NOW - 100 HITS - SING-A-LONG - CD3\12.The Kooks - Naive.wav

Peak level 89.1 %
Extraction speed 16.2 X
Track quality 99.8 %
Copy CRC C5904613
Track not present in AccurateRip database
Copy OK

Track 13

Filename A:\PsPBuRnOuT's MUSIC\SORTED BY YEAR\NOW MUSIC\NOW - 100 HITS - SING-A-LONG\NOW - 100 HITS - SING-A-LONG - CD3\13.Avril Lavigne - Complicated.wav

Peak level 89.1 %
Extraction speed 33.2 X
Track quality 100.0 %
Copy CRC 10009A11
Track not present in AccurateRip database
Copy OK

Track 14

Filename A:\PsPBuRnOuT's MUSIC\SORTED BY YEAR\NOW MUSIC\NOW - 100 HITS - SING-A-LONG\NOW - 100 HITS - SING-A-LONG - CD3\14.Ella Henderson - Ghost.wav

Peak level 75.8 %
Extraction speed 36.4 X
Track quality 100.0 %
Copy CRC B0284438
Track not present in AccurateRip database
Copy OK

Track 15

Filename A:\PsPBuRnOuT's MUSIC\SORTED BY YEAR\NOW MUSIC\NOW - 100 HITS - SING-A-LONG\NOW - 100 HITS - SING-A-LONG - CD3\15.American Authors - Best Day Of My Life.wav

Peak level 82.3 %
Extraction speed 35.3 X
Track quality 100.0 %
Copy CRC D06183F4
Track not present in AccurateRip database
Copy OK

Track 16

Filename A:\PsPBuRnOuT's MUSIC\SORTED BY YEAR\NOW MUSIC\NOW - 100 HITS - SING-A-LONG\NOW - 100 HITS - SING-A-LONG - CD3\16.Maroon 5 - Payphone.wav

Peak level 89.0 %
Extraction speed 38.0 X
Track quality 100.0 %
Copy CRC 73FE233B
Track not present in AccurateRip database
Copy OK

Track 17

Filename A:\PsPBuRnOuT's MUSIC\SORTED BY YEAR\NOW MUSIC\NOW - 100 HITS - SING-A-LONG\NOW - 100 HITS - SING-A-LONG - CD3\17.JP Cooper - September Song.wav

Peak level 83.4 %
Extraction speed 36.8 X
Track quality 100.0 %
Copy CRC F5B88853
Track not present in AccurateRip database
Copy OK

Track 18

Filename A:\PsPBuRnOuT's MUSIC\SORTED BY YEAR\NOW MUSIC\NOW - 100 HITS - SING-A-LONG\NOW - 100 HITS - SING-A-LONG - CD3\18.Alan Walker - Faded.wav

Peak level 82.8 %
Extraction speed 39.9 X
Track quality 100.0 %
Copy CRC EF34D439
Track not present in AccurateRip database
Copy OK

Track 19

Filename A:\PsPBuRnOuT's MUSIC\SORTED BY YEAR\NOW MUSIC\NOW - 100 HITS - SING-A-LONG\NOW - 100 HITS - SING-A-LONG - CD3\19.Years & Years - King.wav

Peak level 78.9 %
Extraction speed 38.4 X
Track quality 100.0 %
Copy CRC AE6C6E9F
Track not present in AccurateRip database
Copy OK

Track 20

Filename A:\PsPBuRnOuT's MUSIC\SORTED BY YEAR\NOW MUSIC\NOW - 100 HITS - SING-A-LONG\NOW - 100 HITS - SING-A-LONG - CD3\20.Clean Bandit Feat. Sean Paul & Anne-Marie - Rockabye.wav

Peak level 89.1 %
Extraction speed 41.7 X
Track quality 100.0 %
Copy CRC 212184DD
Track not present in AccurateRip database
Copy OK


None of the tracks are present in the AccurateRip database

No errors occurred

End of status report

–– CUETools DB Plugin V2.1.6

[CTDB TOCID: JuLAzQHyN9J6ThfFJVbLJ2K3uqw-] found
Submit result: JuLAzQHyN9J6ThfFJVbLJ2K3uqw- has been confirmed
Track | CTDB Status
1 | (1/1) Accurately ripped
2 | (1/1) Accurately ripped
3 | (1/1) Accurately ripped
4 | (1/1) Accurately ripped
5 | (1/1) Accurately ripped
6 | (1/1) Accurately ripped
7 | (1/1) Accurately ripped
8 | (1/1) Accurately ripped
9 | (1/1) Accurately ripped
10 | (1/1) Accurately ripped
11 | (1/1) Accurately ripped
12 | (1/1) Accurately ripped
13 | (1/1) Accurately ripped
14 | (1/1) Accurately ripped
15 | (1/1) Accurately ripped
16 | (1/1) Accurately ripped
17 | (1/1) Accurately ripped
18 | (1/1) Accurately ripped
19 | (1/1) Accurately ripped
20 | (1/1) Accurately ripped

Exact Audio Copy V1.3 from 2. September 2016

EAC extraction logfile from 8. December 2019, 1:08

Various / Now - 100 Hits - Sing-A-Long - CD4

Used drive : ATAPI iHAS124 Y Adapter: 1 ID: 0

Read mode : Secure
Utilize accurate stream : Yes
Defeat audio cache : No
Make use of C2 pointers : Yes

Read offset correction : 48
Overread into Lead-In and Lead-Out : No
Fill up missing offset samples with silence : Yes
Delete leading and trailing silent blocks : No
Null samples used in CRC calculations : Yes
Used interface : Native Win32 interface for Win NT & 2000
Gap handling : Not detected, thus appended to previous track

Used output format : User Defined Encoder
Selected bitrate : 768 kBit/s
Quality : High
Add ID3 tag : No
Command line compressor : C:\Program Files (x86)\Exact Audio Copy\FLAC\FLAC.EXE
Additional command line options : -6 -V -T "ARTIST=%artist%" -T "TITLE=%title%" -T "ALBUM=%albumtitle%" -T "DATE=%year%" -T "TRACKNUMBER=%tracknr%" -T "GENRE=%genre%" -T "COMMENT=%comment%" -T "BAND=%albuminterpret%" -T "ALBUMARTIST=%albuminterpret%" -T "COMPOSER=%composer%" %haslyrics%–tag-from-file=LYRICS="%lyricsfile%"%haslyrics% -T "DISCNUMBER=%cdnumber%" -T "TOTALDISCS=%totalcds%" -T "TOTALTRACKS=%numtracks%" %hascover%–picture="%coverfile%"%hascover% %source% -o %dest%


TOC of the extracted CD

Track | Start | Length | Start sector | End sector
––––––––––––––––––––––––––––-
1 | 0:00.00 | 3:13.38 | 0 | 14512
2 | 3:13.38 | 3:39.38 | 14513 | 30975
3 | 6:53.01 | 2:37.00 | 30976 | 42750
4 | 9:30.01 | 3:32.00 | 42751 | 58650
5 | 13:02.01 | 4:03.00 | 58651 | 76875
6 | 17:05.01 | 3:10.00 | 76876 | 91125
7 | 20:15.01 | 4:02.37 | 91126 | 109312
8 | 24:17.38 | 4:18.00 | 109313 | 128662
9 | 28:35.38 | 4:02.38 | 128663 | 146850
10 | 32:38.01 | 4:28.00 | 146851 | 166950
11 | 37:06.01 | 3:28.00 | 166951 | 182550
12 | 40:34.01 | 4:33.00 | 182551 | 203025
13 | 45:07.01 | 4:19.00 | 203026 | 222450
14 | 49:26.01 | 3:24.00 | 222451 | 237750
15 | 52:50.01 | 4:05.37 | 237751 | 256162
16 | 56:55.38 | 3:01.38 | 256163 | 269775
17 | 59:57.01 | 4:13.37 | 269776 | 288787
18 | 64:10.38 | 3:30.38 | 288788 | 304575
19 | 67:41.01 | 3:11.00 | 304576 | 318900
20 | 70:52.01 | 4:05.46 | 318901 | 337321


Track 1

Filename A:\PsPBuRnOuT's MUSIC\SORTED BY YEAR\NOW MUSIC\NOW - 100 HITS - SING-A-LONG\NOW - 100 HITS - SING-A-LONG - CD4\01.Billie Eilish - Bad Guy.wav

Peak level 89.1 %
Extraction speed 14.6 X
Track quality 100.0 %
Copy CRC 8D9D0CDC
Track not present in AccurateRip database
Copy OK

Track 2

Filename A:\PsPBuRnOuT's MUSIC\SORTED BY YEAR\NOW MUSIC\NOW - 100 HITS - SING-A-LONG\NOW - 100 HITS - SING-A-LONG - CD4\02.Naughty Boy Feat. Sam Smith - La La La.wav

Peak level 88.1 %
Extraction speed 19.9 X
Track quality 100.0 %
Copy CRC 74768174
Track not present in AccurateRip database
Copy OK

Track 3

Filename A:\PsPBuRnOuT's MUSIC\SORTED BY YEAR\NOW MUSIC\NOW - 100 HITS - SING-A-LONG\NOW - 100 HITS - SING-A-LONG - CD4\03.Lil Nas X Feat. Billy Ray Cyrus - Old Town Road (Remix).wav

Peak level 86.2 %
Extraction speed 21.1 X
Track quality 100.0 %
Copy CRC 0F9B07CD
Track not present in AccurateRip database
Copy OK

Track 4

Filename A:\PsPBuRnOuT's MUSIC\SORTED BY YEAR\NOW MUSIC\NOW - 100 HITS - SING-A-LONG\NOW - 100 HITS - SING-A-LONG - CD4\04.Corinne Bailey Rae - Put Your Records On.wav

Peak level 87.1 %
Extraction speed 23.6 X
Track quality 100.0 %
Copy CRC ADC08C01
Track not present in AccurateRip database
Copy OK

Track 5

Filename A:\PsPBuRnOuT's MUSIC\SORTED BY YEAR\NOW MUSIC\NOW - 100 HITS - SING-A-LONG\NOW - 100 HITS - SING-A-LONG - CD4\05.Nelly Furtado - I'm Like A Bird.wav

Peak level 89.0 %
Extraction speed 24.0 X
Track quality 100.0 %
Copy CRC 74781469
Track not present in AccurateRip database
Copy OK

Track 6

Filename A:\PsPBuRnOuT's MUSIC\SORTED BY YEAR\NOW MUSIC\NOW - 100 HITS - SING-A-LONG\NOW - 100 HITS - SING-A-LONG - CD4\06.Lorde - Royals.wav

Peak level 89.1 %
Extraction speed 26.5 X
Track quality 100.0 %
Copy CRC CAA5C49C
Track not present in AccurateRip database
Copy OK

Track 7

Filename A:\PsPBuRnOuT's MUSIC\SORTED BY YEAR\NOW MUSIC\NOW - 100 HITS - SING-A-LONG\NOW - 100 HITS - SING-A-LONG - CD4\07.P!nk Feat. Nate Ruess - Just Give Me A Reason.wav

Peak level 77.8 %
Extraction speed 22.8 X
Track quality 99.9 %
Copy CRC E75311FE
Track not present in AccurateRip database
Copy OK

Track 8

Filename A:\PsPBuRnOuT's MUSIC\SORTED BY YEAR\NOW MUSIC\NOW - 100 HITS - SING-A-LONG\NOW - 100 HITS - SING-A-LONG - CD4\08.Robbie Williams - She's The One.wav

Peak level 78.3 %
Extraction speed 14.2 X
Track quality 99.9 %
Copy CRC 2BADDCA8
Track not present in AccurateRip database
Copy OK

Track 9

Filename A:\PsPBuRnOuT's MUSIC\SORTED BY YEAR\NOW MUSIC\NOW - 100 HITS - SING-A-LONG\NOW - 100 HITS - SING-A-LONG - CD4\09.T'Pau - China In Your Hand.wav

Peak level 89.1 %
Extraction speed 11.4 X
Track quality 99.9 %
Copy CRC CE2757C6
Track not present in AccurateRip database
Copy OK

Track 10

Filename A:\PsPBuRnOuT's MUSIC\SORTED BY YEAR\NOW MUSIC\NOW - 100 HITS - SING-A-LONG\NOW - 100 HITS - SING-A-LONG - CD4\10.Bonnie Tyler - Total Eclipse Of The Heart.wav

Peak level 86.1 %
Extraction speed 26.3 X
Track quality 99.9 %
Copy CRC 401E9F3A
Track not present in AccurateRip database
Copy OK

Track 11

Filename A:\PsPBuRnOuT's MUSIC\SORTED BY YEAR\NOW MUSIC\NOW - 100 HITS - SING-A-LONG\NOW - 100 HITS - SING-A-LONG - CD4\11.James Arthur - Impossible.wav

Peak level 62.1 %
Extraction speed 24.4 X
Track quality 100.0 %
Copy CRC B62139BA
Track not present in AccurateRip database
Copy OK

Track 12

Filename A:\PsPBuRnOuT's MUSIC\SORTED BY YEAR\NOW MUSIC\NOW - 100 HITS - SING-A-LONG\NOW - 100 HITS - SING-A-LONG - CD4\12.John Legend - All Of Me.wav

Peak level 66.5 %
Extraction speed 32.4 X
Track quality 100.0 %
Copy CRC D1ABBD43
Track not present in AccurateRip database
Copy OK

Track 13

Filename A:\PsPBuRnOuT's MUSIC\SORTED BY YEAR\NOW MUSIC\NOW - 100 HITS - SING-A-LONG\NOW - 100 HITS - SING-A-LONG - CD4\13.Calum Scott - Dancing On My Own.wav

Peak level 79.7 %
Extraction speed 33.5 X
Track quality 100.0 %
Copy CRC 74AB9619
Track not present in AccurateRip database
Copy OK

Track 14

Filename A:\PsPBuRnOuT's MUSIC\SORTED BY YEAR\NOW MUSIC\NOW - 100 HITS - SING-A-LONG\NOW - 100 HITS - SING-A-LONG - CD4\14.Sam Smith - I'm Not The Only One.wav

Peak level 79.1 %
Extraction speed 36.1 X
Track quality 100.0 %
Copy CRC 2AB2082C
Track not present in AccurateRip database
Copy OK

Track 15

Filename A:\PsPBuRnOuT's MUSIC\SORTED BY YEAR\NOW MUSIC\NOW - 100 HITS - SING-A-LONG\NOW - 100 HITS - SING-A-LONG - CD4\15.Fugees - Killing Me Softly With His Song.wav

Peak level 89.1 %
Extraction speed 37.1 X
Track quality 100.0 %
Copy CRC B1B7BFAF
Track not present in AccurateRip database
Copy OK

Track 16

Filename A:\PsPBuRnOuT's MUSIC\SORTED BY YEAR\NOW MUSIC\NOW - 100 HITS - SING-A-LONG\NOW - 100 HITS - SING-A-LONG - CD4\16.UB40 - Red Red Wine.wav

Peak level 77.8 %
Extraction speed 35.6 X
Track quality 100.0 %
Copy CRC A32673B0
Track not present in AccurateRip database
Copy OK

Track 17

Filename A:\PsPBuRnOuT's MUSIC\SORTED BY YEAR\NOW MUSIC\NOW - 100 HITS - SING-A-LONG\NOW - 100 HITS - SING-A-LONG - CD4\17.Culture Club - Karma Chameleon.wav

Peak level 89.1 %
Extraction speed 38.7 X
Track quality 100.0 %
Copy CRC 1FBC6054
Track not present in AccurateRip database
Copy OK

Track 18

Filename A:\PsPBuRnOuT's MUSIC\SORTED BY YEAR\NOW MUSIC\NOW - 100 HITS - SING-A-LONG\NOW - 100 HITS - SING-A-LONG - CD4\18.Abba - Mamma Mia.wav

Peak level 79.5 %
Extraction speed 37.3 X
Track quality 100.0 %
Copy CRC E1E4DDD2
Track not present in AccurateRip database
Copy OK

Track 19

Filename A:\PsPBuRnOuT's MUSIC\SORTED BY YEAR\NOW MUSIC\NOW - 100 HITS - SING-A-LONG\NOW - 100 HITS - SING-A-LONG - CD4\19.Gloria Gaynor - I Will Survive.wav

Peak level 89.0 %
Extraction speed 40.5 X
Track quality 100.0 %
Copy CRC CCE03261
Track not present in AccurateRip database
Copy OK

Track 20

Filename A:\PsPBuRnOuT's MUSIC\SORTED BY YEAR\NOW MUSIC\NOW - 100 HITS - SING-A-LONG\NOW - 100 HITS - SING-A-LONG - CD4\20.Don McLean - American Pie (Pt. 1).wav

Peak level 77.9 %
Extraction speed 29.9 X
Track quality 100.0 %
Copy CRC 4B04573E
Track not present in AccurateRip database
Copy OK


None of the tracks are present in the AccurateRip database

No errors occurred

End of status report

–– CUETools DB Plugin V2.1.6

[CTDB TOCID: .FCF1Digk2UB9Cas5xs.UT6fbTQ-] found
Submit result: .FCF1Digk2UB9Cas5xs.UT6fbTQ- has been confirmed
Track | CTDB Status
1 | (1/1) Accurately ripped
2 | (1/1) Accurately ripped
3 | (1/1) Accurately ripped
4 | (1/1) Accurately ripped
5 | (1/1) Accurately ripped
6 | (1/1) Accurately ripped
7 | (1/1) Accurately ripped
8 | (1/1) Accurately ripped
9 | (1/1) Accurately ripped
10 | (1/1) Accurately ripped
11 | (1/1) Accurately ripped
12 | (1/1) Accurately ripped
13 | (1/1) Accurately ripped
14 | (1/1) Accurately ripped
15 | (1/1) Accurately ripped
16 | (1/1) Accurately ripped
17 | (1/1) Accurately ripped
18 | (1/1) Accurately ripped
19 | (1/1) Accurately ripped
20 | (1/1) Accurately ripped

Exact Audio Copy V1.3 from 2. September 2016

EAC extraction logfile from 8. December 2019, 1:48

Various / Now - 100 Hits - Sing-A-Long - CD5

Used drive : ATAPI iHAS124 Y Adapter: 1 ID: 0

Read mode : Secure
Utilize accurate stream : Yes
Defeat audio cache : No
Make use of C2 pointers : Yes

Read offset correction : 48
Overread into Lead-In and Lead-Out : No
Fill up missing offset samples with silence : Yes
Delete leading and trailing silent blocks : No
Null samples used in CRC calculations : Yes
Used interface : Native Win32 interface for Win NT & 2000
Gap handling : Not detected, thus appended to previous track

Used output format : User Defined Encoder
Selected bitrate : 768 kBit/s
Quality : High
Add ID3 tag : No
Command line compressor : C:\Program Files (x86)\Exact Audio Copy\FLAC\FLAC.EXE
Additional command line options : -6 -V -T "ARTIST=%artist%" -T "TITLE=%title%" -T "ALBUM=%albumtitle%" -T "DATE=%year%" -T "TRACKNUMBER=%tracknr%" -T "GENRE=%genre%" -T "COMMENT=%comment%" -T "BAND=%albuminterpret%" -T "ALBUMARTIST=%albuminterpret%" -T "COMPOSER=%composer%" %haslyrics%–tag-from-file=LYRICS="%lyricsfile%"%haslyrics% -T "DISCNUMBER=%cdnumber%" -T "TOTALDISCS=%totalcds%" -T "TOTALTRACKS=%numtracks%" %hascover%–picture="%coverfile%"%hascover% %source% -o %dest%


TOC of the extracted CD

Track | Start | Length | Start sector | End sector
––––––––––––––––––––––––––––-
1 | 0:00.00 | 3:33.37 | 0 | 16011
2 | 3:33.37 | 3:30.00 | 16012 | 31761
3 | 7:03.37 | 3:19.38 | 31762 | 46724
4 | 10:23.00 | 3:17.00 | 46725 | 61499
5 | 13:40.00 | 3:20.37 | 61500 | 76536
6 | 17:00.37 | 3:22.38 | 76537 | 91724
7 | 20:23.00 | 3:45.37 | 91725 | 108636
8 | 24:08.37 | 3:32.00 | 108637 | 124536
9 | 27:40.37 | 3:57.00 | 124537 | 142311
10 | 31:37.37 | 3:40.38 | 142312 | 158849
11 | 35:18.00 | 3:36.37 | 158850 | 175086
12 | 38:54.37 | 3:02.00 | 175087 | 188736
13 | 41:56.37 | 4:01.00 | 188737 | 206811
14 | 45:57.37 | 4:03.00 | 206812 | 225036
15 | 50:00.37 | 4:01.00 | 225037 | 243111
16 | 54:01.37 | 3:31.00 | 243112 | 258936
17 | 57:32.37 | 4:14.00 | 258937 | 277986
18 | 61:46.37 | 3:19.00 | 277987 | 292911
19 | 65:05.37 | 3:57.00 | 292912 | 310686
20 | 69:02.37 | 3:29.18 | 310687 | 326379


Track 1

Filename A:\PsPBuRnOuT's MUSIC\SORTED BY YEAR\NOW MUSIC\NOW - 100 HITS - SING-A-LONG\NOW - 100 HITS - SING-A-LONG - CD5\01.Amy Winehouse - Rehab.wav

Peak level 89.1 %
Extraction speed 9.1 X
Track quality 99.9 %
Copy CRC E636B285
Track not present in AccurateRip database
Copy OK

Track 2

Filename A:\PsPBuRnOuT's MUSIC\SORTED BY YEAR\NOW MUSIC\NOW - 100 HITS - SING-A-LONG\NOW - 100 HITS - SING-A-LONG - CD5\02.Dua Lipa - New Rules.wav

Peak level 85.1 %
Extraction speed 10.4 X
Track quality 99.8 %
Copy CRC ECDFF052
Track not present in AccurateRip database
Copy OK

Track 3

Filename A:\PsPBuRnOuT's MUSIC\SORTED BY YEAR\NOW MUSIC\NOW - 100 HITS - SING-A-LONG\NOW - 100 HITS - SING-A-LONG - CD5\03.Justin Bieber - Sorry.wav

Peak level 89.0 %
Extraction speed 11.7 X
Track quality 100.0 %
Copy CRC E5A552E9
Track not present in AccurateRip database
Copy OK

Track 4

Filename A:\PsPBuRnOuT's MUSIC\SORTED BY YEAR\NOW MUSIC\NOW - 100 HITS - SING-A-LONG\NOW - 100 HITS - SING-A-LONG - CD5\04.Jonas Blue Feat. JP Cooper - Perfect Strangers.wav

Peak level 88.1 %
Extraction speed 12.3 X
Track quality 100.0 %
Copy CRC 75E04AE8
Track not present in AccurateRip database
Copy OK

Track 5

Filename A:\PsPBuRnOuT's MUSIC\SORTED BY YEAR\NOW MUSIC\NOW - 100 HITS - SING-A-LONG\NOW - 100 HITS - SING-A-LONG - CD5\05.Anne-Marie - Ciao Adios.wav

Peak level 89.0 %
Extraction speed 13.1 X
Track quality 100.0 %
Copy CRC DEB9F276
Track not present in AccurateRip database
Copy OK

Track 6

Filename A:\PsPBuRnOuT's MUSIC\SORTED BY YEAR\NOW MUSIC\NOW - 100 HITS - SING-A-LONG\NOW - 100 HITS - SING-A-LONG - CD5\06.Taio Cruz - Dynamite.wav

Peak level 84.6 %
Extraction speed 13.7 X
Track quality 100.0 %
Copy CRC 85BFB37E
Track not present in AccurateRip database
Copy OK

Track 7

Filename A:\PsPBuRnOuT's MUSIC\SORTED BY YEAR\NOW MUSIC\NOW - 100 HITS - SING-A-LONG\NOW - 100 HITS - SING-A-LONG - CD5\07.Blacked Eyed Peas - Meet Me Halfway.wav

Peak level 89.1 %
Extraction speed 13.9 X
Track quality 100.0 %
Copy CRC 02EC7F1F
Track not present in AccurateRip database
Copy OK

Track 8

Filename A:\PsPBuRnOuT's MUSIC\SORTED BY YEAR\NOW MUSIC\NOW - 100 HITS - SING-A-LONG\NOW - 100 HITS - SING-A-LONG - CD5\08.Calvin Harris Feat. Dua Lipa - One Kiss.wav

Peak level 85.8 %
Extraction speed 15.1 X
Track quality 100.0 %
Copy CRC 663D04AE
Track not present in AccurateRip database
Copy OK

Track 9

Filename A:\PsPBuRnOuT's MUSIC\SORTED BY YEAR\NOW MUSIC\NOW - 100 HITS - SING-A-LONG\NOW - 100 HITS - SING-A-LONG - CD5\09.Cher - Believe.wav

Peak level 88.1 %
Extraction speed 14.9 X
Track quality 99.9 %
Copy CRC D4F8E490
Track not present in AccurateRip database
Copy OK

Track 10

Filename A:\PsPBuRnOuT's MUSIC\SORTED BY YEAR\NOW MUSIC\NOW - 100 HITS - SING-A-LONG\NOW - 100 HITS - SING-A-LONG - CD5\10.Sia Feat. Sean Paul - Cheap Thrills.wav

Peak level 69.7 %
Extraction speed 15.6 X
Track quality 99.9 %
Copy CRC 964C9B15
Track not present in AccurateRip database
Copy OK

Track 11

Filename A:\PsPBuRnOuT's MUSIC\SORTED BY YEAR\NOW MUSIC\NOW - 100 HITS - SING-A-LONG\NOW - 100 HITS - SING-A-LONG - CD5\11.Fifth Harmony Feat. Ty Dolla $ign - Work From Home.wav

Peak level 69.9 %
Extraction speed 16.8 X
Track quality 100.0 %
Copy CRC 06171FB8
Track not present in AccurateRip database
Copy OK

Track 12

Filename A:\PsPBuRnOuT's MUSIC\SORTED BY YEAR\NOW MUSIC\NOW - 100 HITS - SING-A-LONG\NOW - 100 HITS - SING-A-LONG - CD5\12.Sigrid - Don't Kill My Vibe.wav

Peak level 78.5 %
Extraction speed 17.5 X
Track quality 100.0 %
Copy CRC EE89BC8A
Track not present in AccurateRip database
Copy OK

Track 13

Filename A:\PsPBuRnOuT's MUSIC\SORTED BY YEAR\NOW MUSIC\NOW - 100 HITS - SING-A-LONG\NOW - 100 HITS - SING-A-LONG - CD5\13.Ellie Goulding - Love Me Like You Do.wav

Peak level 89.1 %
Extraction speed 17.8 X
Track quality 100.0 %
Copy CRC 6DCEC7E4
Track not present in AccurateRip database
Copy OK

Track 14

Filename A:\PsPBuRnOuT's MUSIC\SORTED BY YEAR\NOW MUSIC\NOW - 100 HITS - SING-A-LONG\NOW - 100 HITS - SING-A-LONG - CD5\14.One Direction - Story Of My Life.wav

Peak level 81.4 %
Extraction speed 17.6 X
Track quality 100.0 %
Copy CRC 626CB99A
Track not present in AccurateRip database
Copy OK

Track 15

Filename A:\PsPBuRnOuT's MUSIC\SORTED BY YEAR\NOW MUSIC\NOW - 100 HITS - SING-A-LONG\NOW - 100 HITS - SING-A-LONG - CD5\15.Take That - Back For Good.wav

Peak level 89.1 %
Extraction speed 18.9 X
Track quality 100.0 %
Copy CRC 6B3AA3DB
Track not present in AccurateRip database
Copy OK

Track 16

Filename A:\PsPBuRnOuT's MUSIC\SORTED BY YEAR\NOW MUSIC\NOW - 100 HITS - SING-A-LONG\NOW - 100 HITS - SING-A-LONG - CD5\16.Britney Spears - …Baby One More Time.wav

Peak level 88.1 %
Extraction speed 19.2 X
Track quality 100.0 %
Copy CRC F428BA83
Track not present in AccurateRip database
Copy OK

Track 17

Filename A:\PsPBuRnOuT's MUSIC\SORTED BY YEAR\NOW MUSIC\NOW - 100 HITS - SING-A-LONG\NOW - 100 HITS - SING-A-LONG - CD5\17.MC Hammer - U Can't Touch This.wav

Peak level 87.6 %
Extraction speed 19.0 X
Track quality 99.9 %
Copy CRC F91A57F5
Track not present in AccurateRip database
Copy OK

Track 18

Filename A:\PsPBuRnOuT's MUSIC\SORTED BY YEAR\NOW MUSIC\NOW - 100 HITS - SING-A-LONG\NOW - 100 HITS - SING-A-LONG - CD5\18.George Ezra - Shotgun.wav

Peak level 82.1 %
Extraction speed 19.8 X
Track quality 100.0 %
Copy CRC A0677DFA
Track not present in AccurateRip database
Copy OK

Track 19

Filename A:\PsPBuRnOuT's MUSIC\SORTED BY YEAR\NOW MUSIC\NOW - 100 HITS - SING-A-LONG\NOW - 100 HITS - SING-A-LONG - CD5\19.Human League - Don't You Want Me.wav

Peak level 86.1 %
Extraction speed 19.9 X
Track quality 100.0 %
Copy CRC CDA8C8C3
Track not present in AccurateRip database
Copy OK

Track 20

Filename A:\PsPBuRnOuT's MUSIC\SORTED BY YEAR\NOW MUSIC\NOW - 100 HITS - SING-A-LONG\NOW - 100 HITS - SING-A-LONG - CD5\20.Rick Astley - Never Gonna Give You Up.wav

Peak level 86.1 %
Extraction speed 20.6 X
Track quality 100.0 %
Copy CRC E6089AE6
Track not present in AccurateRip database
Copy OK


None of the tracks are present in the AccurateRip database

No errors occurred

End of status report

–– CUETools DB Plugin V2.1.6

[CTDB TOCID: zocLi0OSlz7PFvchjbiFY2mLM7g-] found
Submit result: zocLi0OSlz7PFvchjbiFY2mLM7g- has been confirmed
Track | CTDB Status
1 | (1/1) Accurately ripped
2 | (1/1) Accurately ripped
3 | (1/1) Accurately ripped
4 | (1/1) Accurately ripped
5 | (1/1) Accurately ripped
6 | (1/1) Accurately ripped
7 | (1/1) Accurately ripped
8 | (1/1) Accurately ripped
9 | (1/1) Accurately ripped
10 | (1/1) Accurately ripped
11 | (1/1) Accurately ripped
12 | (1/1) Accurately ripped
13 | (1/1) Accurately ripped
14 | (1/1) Accurately ripped
15 | (1/1) Accurately ripped
16 | (1/1) Accurately ripped
17 | (1/1) Accurately ripped
18 | (1/1) Accurately ripped
19 | (1/1) Accurately ripped
20 | (1/1) Accurately ripped