Subcategories

VA - So Blue, So Funky (Heroes Of The Hammond) (1991)

Posted By: Designol
VA - So Blue, So Funky (Heroes Of The Hammond) (1991)

VA - So Blue, So Funky (Heroes Of The Hammond) (1991)
EAC | FLAC | Tracks (Cue&Log) ~ 475 Mb | Mp3 (CBR320) ~ 199 Mb | Scans included | 01:13:12
Soul-Jazz, Jazz-Funk, Hard Bop | Label: Blue Note | # CDP 7965632, BNZ 267

Blue Note's So Blue, So Funky, Vol. 1 is a 12-track compilation that highlights the funkiest soul-jazz organists that recorded for the label, whether it was a leader or as a sideman. Although there's a handful of cuts from the early '60s, such as "Face to Face" by the terrific, underrated Baby Face Willette, the compilation leans toward the funky fusions of the late '60s, such as Big John Patton's "Fat Judy," Lou Donaldson's "Everything I Do Is Gon' Be Funky (From Now On)," Jack McDuff's "Butter for Yo' Popcorn" and Grant Green's "Ain't It Funky Now." The best thing about this comp is that even though it has familiar names, not all of the material is readily available on CD, which makes it of interest to casual groove fans and serious collectors alike.

Review by Stephen Thomas Erlewine, Allmusic.com

If you're just getting into the classic B-3 organ combo sound, or have been into it for sometime, but want to get your hands on some great tracks which have fallen out of print, this is THE COLLECTION. And probably something very different than you're used to hearing. - - I mean, its the difference between Chris's Steak and greasy hot barbeque at your favorite soul food joint. Both are good, but I guarentee you, sometimes its best to have that hot sauce dripping down your chin with a bit of Bro' McDuff blaring on the juke box (though you might not exactly impress your date… especially after you pop a button off your suit get that stuff all over your shirt.)

This CD features the groovy soulful side of the Blue Note organ combo sound, the highligh of which are several grooves that got deep down in the vaults. Worth the purchase alone is BOOP BOP BING BASH, from an out of print Blue Note CD featuring Billy Gardner on organ and featuring George Braithe, a frequent John Patton/Ben Dixon Grant Green sideman. John Patton's Fat Judy really has that early '60s B-3 combo juke box feel. Grant Green tears the roof off on AIN'T IT FUNKY NOW with a very James Brown feel.

After you hear this, check out the artists themselves… Freddie Roach, Babyface Wilette, Big John Patton and Grant Green (Blues for Lou !) especially…

Review by Eddie Landsberg, Amazon.co.uk

VA - So Blue, So Funky (Heroes Of The Hammond) (1991)


Tracklist:

01. Jimmy McGriff - All About My Girl (3:58)
02. "Big" John Patton - The Silver Metre (5:40)
03. Jimmy Smith - I'm Movin' On (5:15)
04. Freddie Roach - Brown Sugar (4:20)
05. Fred Jackson - Hootin' 'N' Tootin' (4:33)
06. "Baby Face" Willette - Face To Face (6:16)
07. Larry Young - Plaza De Toros (9:37)
08. George Braith - Boop Bop Bing Bash (6:24)
09. "Big" John Patton - Fat Judy (7:40)
10. Lou Donaldson - Everything I Do Gonh Be Funky (From Now On) (5:29)
11. "Brother" Jack McDuff - Butter (For Yo' Popcorn) (4:08)
12. Grant Green - Ain't It Funky Now (9:53)


Exact Audio Copy V1.0 beta 1 from 15. November 2010

EAC extraction logfile from 28. March 2011, 21:02

Various / So Blue, So Funky (Heroes Of The Hammond)

Used drive : HL-DT-STDVD-RAM GH22NP20 Adapter: 1 ID: 1

Read mode : Secure
Utilize accurate stream : Yes
Defeat audio cache : Yes
Make use of C2 pointers : No

Read offset correction : 102
Overread into Lead-In and Lead-Out : No
Fill up missing offset samples with silence : Yes
Delete leading and trailing silent blocks : No
Null samples used in CRC calculations : Yes
Used interface : Native Win32 interface for Win NT & 2000
Gap handling : Appended to previous track

Used output format : User Defined Encoder
Selected bitrate : 896 kBit/s
Quality : High
Add ID3 tag : No
Command line compressor : C:\Program Files\Exact Audio Copy\Flac\flac.exe
Additional command line options : -5 -V -T "ARTIST=%a" -T "TITLE=%t" -T "ALBUM=%g" -T "DATE=%y" -T "TRACKNUMBER=%n" -T "GENRE=%m" -T "COMMENT=%e" %s -o %d


TOC of the extracted CD

Track | Start | Length | Start sector | End sector
––––––––––––––––––––––––––––-
1 | 0:00.33 | 3:57.67 | 33 | 17874
2 | 3:58.25 | 5:39.70 | 17875 | 43369
3 | 9:38.20 | 5:15.05 | 43370 | 66999
4 | 14:53.25 | 4:20.30 | 67000 | 86529
5 | 19:13.55 | 4:32.45 | 86530 | 106974
6 | 23:46.25 | 6:15.53 | 106975 | 135152
7 | 30:02.03 | 9:37.05 | 135153 | 178432
8 | 39:39.08 | 6:24.10 | 178433 | 207242
9 | 46:03.18 | 7:39.67 | 207243 | 241734
10 | 53:43.10 | 5:29.08 | 241735 | 266417
11 | 59:12.18 | 4:07.45 | 266418 | 284987
12 | 63:19.63 | 9:52.42 | 284988 | 329429


Track 1

Filename C:\New Folder\01. Jimmy McGriff - All About My Girl.wav

Pre-gap length 0:00:02.33

Peak level 82.5 %
Extraction speed 1.4 X
Track quality 100.0 %
Test CRC 8395A630
Copy CRC 8395A630
Accurately ripped (confidence 3) [9F7DC720]
Copy OK

Track 2

Filename C:\New Folder\02. ''Big'' John Patton - The Silver Metre.wav

Pre-gap length 0:00:01.12

Peak level 84.6 %
Extraction speed 1.8 X
Track quality 100.0 %
Test CRC 6FDDD44F
Copy CRC 6FDDD44F
Accurately ripped (confidence 3) [DF353FCF]
Copy OK

Track 3

Filename C:\New Folder\03. Jimmy Smith - I'm Movin' On.wav

Pre-gap length 0:00:01.02

Peak level 100.0 %
Extraction speed 1.9 X
Track quality 100.0 %
Test CRC 56854B56
Copy CRC 56854B56
Accurately ripped (confidence 3) [FCD1369D]
Copy OK

Track 4

Filename C:\New Folder\04. Freddie Roach - Brown Sugar.wav

Pre-gap length 0:00:00.07

Peak level 76.5 %
Extraction speed 2.3 X
Track quality 100.0 %
Test CRC 90048FDA
Copy CRC 90048FDA
Accurately ripped (confidence 3) [402D7590]
Copy OK

Track 5

Filename C:\New Folder\05. Fred Jackson - Hootin' 'N' Tootin'.wav

Pre-gap length 0:00:01.22

Peak level 92.5 %
Extraction speed 1.7 X
Track quality 99.9 %
Test CRC DBE7D05B
Copy CRC DBE7D05B
Accurately ripped (confidence 3) [1BCD1853]
Copy OK

Track 6

Filename C:\New Folder\06. ''Baby Face'' Willette - Face To Face.wav

Pre-gap length 0:00:00.62

Peak level 91.4 %
Extraction speed 2.5 X
Track quality 100.0 %
Test CRC 7DCBF0BB
Copy CRC 7DCBF0BB
Accurately ripped (confidence 3) [5A28AEDB]
Copy OK

Track 7

Filename C:\New Folder\07. Larry Young - Plaza De Toros.wav

Pre-gap length 0:00:01.18

Peak level 97.1 %
Extraction speed 2.9 X
Track quality 100.0 %
Test CRC 826FF30E
Copy CRC 826FF30E
Accurately ripped (confidence 3) [18D7FA8B]
Copy OK

Track 8

Filename C:\New Folder\08. George Braith - Boop Bop Bing Bash.wav

Pre-gap length 0:00:00.45

Peak level 78.0 %
Extraction speed 3.1 X
Track quality 100.0 %
Test CRC 18DD5ED9
Copy CRC 18DD5ED9
Accurately ripped (confidence 3) [C785D46C]
Copy OK

Track 9

Filename C:\New Folder\09. ''Big'' John Patton - Fat Judy.wav

Pre-gap length 0:00:01.43

Peak level 87.9 %
Extraction speed 3.1 X
Track quality 99.9 %
Test CRC 38F80BBD
Copy CRC 38F80BBD
Accurately ripped (confidence 3) [F1079539]
Copy OK

Track 10

Filename C:\New Folder\10. Lou Donaldson - Everything I Do Gonh Be Funky (From Now On).wav

Pre-gap length 0:00:00.32

Peak level 89.4 %
Extraction speed 3.4 X
Track quality 100.0 %
Test CRC F87741D2
Copy CRC F87741D2
Accurately ripped (confidence 3) [03000797]
Copy OK

Track 11

Filename C:\New Folder\11. ''Brother'' Jack McDuff - Butter (For Yo' Popcorn).wav

Pre-gap length 0:00:00.70

Peak level 87.6 %
Extraction speed 3.4 X
Track quality 100.0 %
Test CRC F8ADBCF0
Copy CRC F8ADBCF0
Accurately ripped (confidence 3) [D9A3EAF2]
Copy OK

Track 12

Filename C:\New Folder\12. Grant Green - Ain't It Funky Now.wav

Pre-gap length 0:00:01.40

Peak level 93.2 %
Extraction speed 3.9 X
Track quality 100.0 %
Test CRC 11D4ADDC
Copy CRC 11D4ADDC
Accurately ripped (confidence 3) [A1C22319]
Copy OK


All tracks accurately ripped

No errors occurred

End of status report

==== Log checksum BCB59E6146460CED8630BA6194CB5ECB05B9602E0753EB377D7901531FF46164 ====

[CUETools log; Date: 05.03.2018 17:30:50; Version: 2.1.4]
Pregap length 00:00:33.
[CTDB TOCID: 0FFOdcpFZvR0X.Wj2LSGA2FlXCQ-] found.
Track | CTDB Status
1 | (21/25) Accurately ripped
2 | (25/25) Accurately ripped
3 | (25/25) Accurately ripped
4 | (25/25) Accurately ripped
5 | (25/25) Accurately ripped
6 | (25/25) Accurately ripped
7 | (25/25) Accurately ripped
8 | (25/25) Accurately ripped
9 | (25/25) Accurately ripped
10 | (25/25) Accurately ripped
11 | (25/25) Accurately ripped
12 | (24/25) Accurately ripped
[AccurateRip ID: 001dfc7f-011ed3c5-9e11280c] found.
Track [ CRC | V2 ] Status
01 [9f7dc720|84464ef8] (04+06/44) Accurately ripped
02 [df353fcf|82ef5b72] (04+06/46) Accurately ripped
03 [fcd1369d|dab89f30] (04+06/46) Accurately ripped
04 [402d7590|0140ade4] (04+06/47) Accurately ripped
05 [1bcd1853|1a30800f] (04+06/48) Accurately ripped
06 [5a28aedb|06bce798] (04+06/47) Accurately ripped
07 [18d7fa8b|018c8aa9] (04+06/47) Accurately ripped
08 [c785d46c|f789fb06] (04+06/47) Accurately ripped
09 [f1079539|39e3e0f8] (04+06/48) Accurately ripped
10 [03000797|2ac176dd] (04+06/47) Accurately ripped
11 [d9a3eaf2|67c70226] (04+06/47) Accurately ripped
12 [a1c22319|aad4367f] (04+06/45) Accurately ripped
Offsetted by 659:
01 [8d380ebf] (12/44) Accurately ripped
02 [4ba6c7b6] (13/46) Accurately ripped
03 [53bc1612] (13/46) Accurately ripped
04 [df9f5655] (14/47) Accurately ripped
05 [598d9e50] (14/48) Accurately ripped
06 [a3dd7981] (13/47) Accurately ripped
07 [bc7ca025] (14/47) Accurately ripped
08 [2867f481] (14/47) Accurately ripped
09 [5a42dde4] (14/48) Accurately ripped
10 [c9a07d66] (14/47) Accurately ripped
11 [08c4af55] (13/47) Accurately ripped
12 [abccb5ea] (14/45) Accurately ripped
Offsetted by -1585:
01 [a688e9eb] (00/44) No match (V2 was not tested)
02 [dbf02282] (00/46) No match (V2 was not tested)
03 [b41e7176] (00/46) No match (V2 was not tested)
04 [fe10aff9] (00/47) No match (V2 was not tested)
05 [e2914654] (00/48) No match (V2 was not tested)
06 [4129b5f9] (00/47) No match (V2 was not tested)
07 [2eea78ad] (00/47) No match (V2 was not tested)
08 [5626a465] (00/47) No match (V2 was not tested)
09 [50c64d00] (00/48) No match (V2 was not tested)
10 [2c437052] (00/47) No match (V2 was not tested)
11 [f8694ed1] (00/47) No match (V2 was not tested)
12 [026bb77e] (00/45) No match (V2 was not tested)

Track Peak [ CRC32 ] [W/O NULL] [ LOG ]
– 100,0 [30EB3A5F] [33747679]
01 82,5 [8395A630] [0018C5AF] CRC32
02 84,6 [6FDDD44F] [D8DA6D5D] CRC32
03 100,0 [56854B56] [3E73ED66] CRC32
04 76,5 [90048FDA] [7916A6D1] CRC32
05 92,5 [DBE7D05B] [1A08E6DC] CRC32
06 91,4 [7DCBF0BB] [477946D0] CRC32
07 97,1 [826FF30E] [FD04DD46] CRC32
08 78,0 [18DD5ED9] [54E7FA66] CRC32
09 87,9 [38F80BBD] [50E6B216] CRC32
10 89,4 [F87741D2] [C592A406] CRC32
11 87,6 [F8ADBCF0] [F78BD4A2] CRC32
12 93,2 [11D4ADDC] [5E31E9CE] CRC32

foobar2000 1.2 / Dynamic Range Meter 1.1.1
log date: 2018-03-05 18:55:04

––––––––––––––––––––––––––––––––––––––––
Analyzed: ''Baby Face'' Willette / So Blue, So Funky (Heroes Of The Hammond) (1)
''Big'' John Patton / So Blue, So Funky (Heroes Of The Hammond) (2-3)
''Brother'' Jack McDuff / So Blue, So Funky (Heroes Of The Hammond) (4)
Fred Jackson / So Blue, So Funky (Heroes Of The Hammond) (5)
Freddie Roach / So Blue, So Funky (Heroes Of The Hammond) (6)
George Braith / So Blue, So Funky (Heroes Of The Hammond) (7)
Grant Green / So Blue, So Funky (Heroes Of The Hammond) (8)
Jimmy McGriff / So Blue, So Funky (Heroes Of The Hammond) (9)
Jimmy Smith / So Blue, So Funky (Heroes Of The Hammond) (10)
Larry Young / So Blue, So Funky (Heroes Of The Hammond) (11)
Lou Donaldson / So Blue, So Funky (Heroes Of The Hammond) (12)
––––––––––––––––––––––––––––––––––––––––

DR Peak RMS Duration Track
––––––––––––––––––––––––––––––––––––––––
DR10 -0.77 dB -15.06 dB 6:16 06-Face To Face
DR10 -1.45 dB -14.79 dB 5:40 02-The Silver Metre
DR13 -1.12 dB -16.92 dB 7:40 09-Fat Judy
DR12 -1.15 dB -15.19 dB 4:08 11-Butter (For Yo' Popcorn)
DR11 -0.67 dB -15.01 dB 4:33 05-Hootin' 'N' Tootin'
DR10 -2.32 dB -15.56 dB 4:20 04-Brown Sugar
DR11 -2.15 dB -15.99 dB 6:24 08-Boop Bop Bing Bash
DR12 -0.61 dB -15.51 dB 9:53 12-Ain't It Funky Now
DR12 -1.67 dB -16.23 dB 3:58 01-All About My Girl
DR11 0.00 dB -16.55 dB 5:15 03-I'm Movin' On
DR12 -0.25 dB -15.17 dB 9:37 07-Plaza De Toros
DR12 -0.97 dB -16.39 dB 5:29 10-Everything I Do Gonh Be Funky (From Now On)
––––––––––––––––––––––––––––––––––––––––

Number of tracks: 12
Official DR value: DR11

Samplerate: 44100 Hz
Channels: 2
Bits per sample: 16
Bitrate: 758 kbps
Codec: FLAC
================================================================================

VA - So Blue, So Funky (Heroes Of The Hammond) (1991)

VA - So Blue, So Funky (Heroes Of The Hammond) (1991)

All thanks to original releaser - alekow

More interesting music in My Blog