Subcategories
Tags
Language
Tags

VA - Stars Of American Anthems: 60 American Classics (2017) {3CD Box Set}

Posted By: popsakov
VA - Stars Of American Anthems: 60 American Classics (2017) {3CD Box Set}

VA - Stars Of American Anthems: 60 American Classics (2017) {3CD Box Set}
EAC Rip | FLAC (Img) + Cue + Log ~ 527 Mb | MP3 CBR320 ~ 357 Mb
Full Scans ~ 55 Mb | 02:28:02 | RAR 5% Recovery
Rock & Roll / Blues / R&B / Country / Folk / Pop / Easy Listening
Union Square Music #USMMKTCD025

There are many incredible music genres that originated in the great land of America. Rock ’n’ Roll, Blues, Country, Gospel, the list goes on. Stars Of American Anthems gathers many of these leading genres & delivers 60 American timeless classics by iconic artists that remain influential in today’s popular music. The great names include Chuck Berry, Roy Orbison, Bill Haley, Little Richard, Willie Nelson, Patsy Cline, Ray Charles, The Everly Brothers, Ike & Tina Turner plus many more celebrated legends. Featured are the greatest favourites that have stood the test of time & will continue to be enjoyed by audiences for decades to come.
***************

Track List CD1:

01. Buddy Holly - Heartbeat (Petty/Montgomery) 2:09
02. Roy Orbison - Running Scared (Orbison/Melson) 2:13
03. Duane Eddy - Peter Gunn (Mancini) 2:20
04. Chuck Berry - Johnny B. Goode (Chuck Berry) 2:41
05. Little Richard - Good Golly Miss Molly (Marascalco/Blackwell) 2:10
06. Jerry Lee Lewis - High School Confidential (Lewis/Hargrave) 2:31
07. The Everly Brothers - Wake Up Little Susie (Bryonl/Bryant) 2:05
08. Barrett Strong - Money (Gordy/ Bradford) 2:36
09. Bill Haley - See You Later Alligator (Guidry) 2:47
10. Jerry Lee Lewis - Great Balls Of Fire (Blackwell Hammer) 1:53
11. Bo Diddley - Bo Diddley (McDaniel) 2:44
12. Carl Perkins - Dixie Fried (Perkins/Griffin) 2:27
13. Chuck Berry - Roll Over Beethoven (Berry) 2:24
14. Duane Eddy - Up And Down (Hozlewood/Casey) 1:58
15. The Everly Brothers - Bye Bye Love (Bryant Bryant) 2:23
16. Patsy Cline - Walkin' After Midnight (Hecht/Block) 2:33
17. Ray Charles - Hit The Road Jack (Mayfield) 1:59
18. Muddy Waters - Hoochie Coochie Man (Dixon) 2:52
19. Buddy Holly - Peggy Sue (Holly/Allison/Petty) 2:31
20. Ritchie Valens - La Bamba (Votens) 2:06

Total Time: 00:47:22

Exact Audio Copy V1.3 from 2. September 2016

EAC extraction logfile from 12. January 2021, 16:20

Various Artists / Stars Of: American Anthems (CD1)

Used drive : ATAPI iHAS122 C Adapter: 1 ID: 0

Read mode : Secure
Utilize accurate stream : Yes
Defeat audio cache : Yes
Make use of C2 pointers : No

Read offset correction : 6
Overread into Lead-In and Lead-Out : No
Fill up missing offset samples with silence : Yes
Delete leading and trailing silent blocks : No
Null samples used in CRC calculations : Yes
Used interface : Native Win32 interface for Win NT & 2000

Used output format : Internal WAV Routines
Sample format : 44.100 Hz; 16 Bit; Stereo


TOC of the extracted CD

Track | Start | Length | Start sector | End sector
––––––––––––––––––––––––––––-
1 | 0:00.00 | 2:09.36 | 0 | 9710
2 | 2:09.36 | 2:12.72 | 9711 | 19682
3 | 4:22.33 | 2:19.60 | 19683 | 30167
4 | 6:42.18 | 2:41.29 | 30168 | 42271
5 | 9:23.47 | 2:10.20 | 42272 | 52041
6 | 11:33.67 | 2:30.56 | 52042 | 63347
7 | 14:04.48 | 2:05.00 | 63348 | 72722
8 | 16:09.48 | 2:36.18 | 72723 | 84440
9 | 18:45.66 | 2:47.04 | 84441 | 96969
10 | 21:32.70 | 1:53.16 | 96970 | 105460
11 | 23:26.11 | 2:43.46 | 105461 | 117731
12 | 26:09.57 | 2:27.04 | 117732 | 128760
13 | 28:36.61 | 2:24.08 | 128761 | 139568
14 | 31:00.69 | 1:58.01 | 139569 | 148419
15 | 32:58.70 | 2:22.64 | 148420 | 159133
16 | 35:21.59 | 2:33.22 | 159134 | 170630
17 | 37:55.06 | 1:59.00 | 170631 | 179555
18 | 39:54.06 | 2:51.48 | 179556 | 192428
19 | 42:45.54 | 2:30.38 | 192429 | 203716
20 | 45:16.17 | 2:06.15 | 203717 | 213181


Range status and errors

Selected range

Filename C:\Users\LondonW1\Desktop\Various Artists - Stars Of- American Anthems (CD1).wav

Peak level 97.7 %
Extraction speed 8.2 X
Range quality 100.0 %
Test CRC 4A71AEAD
Copy CRC 4A71AEAD
Copy OK

No errors occurred


AccurateRip summary

Track 1 not present in database
Track 2 not present in database
Track 3 not present in database
Track 4 not present in database
Track 5 not present in database
Track 6 not present in database
Track 7 not present in database
Track 8 not present in database
Track 9 not present in database
Track 10 not present in database
Track 11 not present in database
Track 12 not present in database
Track 13 not present in database
Track 14 not present in database
Track 15 not present in database
Track 16 not present in database
Track 17 not present in database
Track 18 not present in database
Track 19 not present in database
Track 20 not present in database

None of the tracks are present in the AccurateRip database

End of status report

–– CUETools DB Plugin V2.1.6

[CTDB TOCID: BMRTD4AFXmaFroQCI039qGyGwms-] disk not present in database
Submit result: BMRTD4AFXmaFroQCI039qGyGwms- has been uploaded


==== Log checksum 904A645AE525F6478FCA451642B9D5D201B59A82CADB22EFED5872EF8FC30CFD ====

Track List CD2:

01. Willie Nelson & Shirley Collie - Willingly (Cochran) 2:43
02. Patsy Cline - Crazy (Nelson) 2:44
03. Gene Vincent - Be-Bop-A-Lula (Davis/Vincent) 2:37
04. Bill Haley & His Comets - Rock Around The Clock (De Ktight/ Freedman) 2:11
05. Muddy Waters - Baby Please Don't Go (Williams) 3:17
06. Ray Charles - Hallelujah, I Love Her So (Chafe) 2:35
07. Ben E. King - Stand By Me (Neison/Ieiber/Stoller) 3:00
08. Fats Domino- Walking To New Orleans (Bartholomew/Guidry/Domino) 1:54
09. Jerry Lee Lewis - Breathless (Blackwell) 2:43
10. Little Richard - Rip It Up (Marascalco/Blackwell) 2:19
11. Ritchie Valens - Donna (Valens) 2:23
12. The Everly Brothers - Bird Dog (Bryont) 2:15
13. Wanda Jackson - Fujiyama Mama (Burrows) 2:13
14. Buddy Holly - That'll Be The Day (Holly/Allison/Petty) 2:17
15. Connie Francis - Lipstick On Your Collar (Lewis/Goehring) 2:18
16. Big Bopper - Chantilly Lace (Richardson) 2:24
17. Ben E. King - Spanish Harlem (Spector/Leiber) 2:59
18. The Coasters - Yakety Yak (Stoller/ Leiber) 1:51
19. Chuck Berry - Sweet Little Sixteen (Berry) 3:02
20. The Platters - The Great Pretender (Ram) 2:38

Total Time: 00:50:20

Exact Audio Copy V1.3 from 2. September 2016

EAC extraction logfile from 12. January 2021, 17:50

Various Artists / Stars Of: American Anthems (CD2)

Used drive : ATAPI iHAS122 C Adapter: 1 ID: 0

Read mode : Secure
Utilize accurate stream : Yes
Defeat audio cache : Yes
Make use of C2 pointers : No

Read offset correction : 6
Overread into Lead-In and Lead-Out : No
Fill up missing offset samples with silence : Yes
Delete leading and trailing silent blocks : No
Null samples used in CRC calculations : Yes
Used interface : Native Win32 interface for Win NT & 2000

Used output format : Internal WAV Routines
Sample format : 44.100 Hz; 16 Bit; Stereo


TOC of the extracted CD

Track | Start | Length | Start sector | End sector
––––––––––––––––––––––––––––-
1 | 0:00.00 | 2:43.33 | 0 | 12257
2 | 2:43.33 | 2:43.39 | 12258 | 24521
3 | 5:26.72 | 2:36.61 | 24522 | 36282
4 | 8:03.58 | 2:11.00 | 36283 | 46107
5 | 10:14.58 | 3:16.44 | 46108 | 60851
6 | 13:31.27 | 2:34.53 | 60852 | 72454
7 | 16:06.05 | 2:59.48 | 72455 | 85927
8 | 19:05.53 | 1:54.37 | 85928 | 94514
9 | 21:00.15 | 2:42.51 | 94515 | 106715
10 | 23:42.66 | 2:18.67 | 106716 | 117132
11 | 26:01.58 | 2:22.69 | 117133 | 127851
12 | 28:24.52 | 2:14.68 | 127852 | 137969
13 | 30:39.45 | 2:13.13 | 137970 | 147957
14 | 32:52.58 | 2:16.42 | 147958 | 158199
15 | 35:09.25 | 2:17.51 | 158200 | 168525
16 | 37:27.01 | 2:24.23 | 168526 | 179348
17 | 39:51.24 | 2:58.54 | 179349 | 192752
18 | 42:50.03 | 1:50.52 | 192753 | 201054
19 | 44:40.55 | 3:02.07 | 201055 | 214711
20 | 47:42.62 | 2:37.42 | 214712 | 226528


Range status and errors

Selected range

Filename C:\Users\LondonW1\Desktop\Various Artists - Stars Of- American Anthems (CD2).wav

Peak level 100.0 %
Extraction speed 8.3 X
Range quality 100.0 %
Test CRC E02D3932
Copy CRC E02D3932
Copy OK

No errors occurred


AccurateRip summary

Track 1 not present in database
Track 2 not present in database
Track 3 not present in database
Track 4 not present in database
Track 5 not present in database
Track 6 not present in database
Track 7 not present in database
Track 8 not present in database
Track 9 not present in database
Track 10 not present in database
Track 11 not present in database
Track 12 not present in database
Track 13 not present in database
Track 14 not present in database
Track 15 not present in database
Track 16 not present in database
Track 17 not present in database
Track 18 not present in database
Track 19 not present in database
Track 20 not present in database

None of the tracks are present in the AccurateRip database

End of status report

–– CUETools DB Plugin V2.1.6

[CTDB TOCID: G0L4oSPnFQ16Foi.wvCZuC1rcrY-] disk not present in database
Submit result: G0L4oSPnFQ16Foi.wvCZuC1rcrY- has been uploaded


==== Log checksum 283CC2268732DD74AAAB416D7529AA9905410E39F071A85AB76DF405429CE59A ====

Track List CD3:

01. Ike & Tina Turner - A Fool In Love (Turner) 2:52
02. The Drifters - Sweets For My Sweet (Shuman/Pomus) 2:35
03. The Everly Brothers - All I Have To Do Is Dream (Bryant) 2:18
04. Bobby Darin - Dream Lover (Darin) 2:33
05. The Isley Brothers - Shout (Isley/Isley/Isley) 2:19
06. Frankie Lymon & The Teenagers - Why Do Fook Fall In Love? (Levy/Lymon) 2:19
07. The Coasters - Poison Ivy (Stoller/ Leiber) 2:43
08. The Champs - Tequila (Rio) 2:12
09. Ricky Valance - Tell Laura I Love Her (Raleigh/Bony) 2:40
10. Wanda Jackson - Hot Dog! That Made Him Mad (Raye/ Barker) 2:39
11. Gene Vincent - Race With The Devil (Davis/Vincent) 2:03
12. Willie Nelson - Hello Walls (Nelson) 2:26
13. Paul Anka - Diana (Anka) 2:27
14. Eddie Cochran - Summertime Blues (Cochran Capehart) 1:58
15. The Shirelles - Will You Love Me Tomorrow (King/Goffin) 2:42
16. The Platters - Only You (Ram/Rand) 2:39
17. Duane Eddy - Rebel Rouser (Eddy/Hazlewood) 2:23
18. Roy Orbison - Only The Lonely (Orbison/Melson) 2:27
19. Ray Charles - Georgia On My Mind (Gorrell/Carmichael) 3:37
20. The Drifters - Save The Last Dance For Me (Pomus/Shuman) 2:27

Total Time: 00:50:20

Exact Audio Copy V1.3 from 2. September 2016

EAC extraction logfile from 19. January 2021, 10:21

Various Artists / Stars Of: American Anthems (CD3)

Used drive : ATAPI iHAS122 C Adapter: 1 ID: 0

Read mode : Secure
Utilize accurate stream : Yes
Defeat audio cache : Yes
Make use of C2 pointers : No

Read offset correction : 6
Overread into Lead-In and Lead-Out : No
Fill up missing offset samples with silence : Yes
Delete leading and trailing silent blocks : No
Null samples used in CRC calculations : Yes
Used interface : Native Win32 interface for Win NT & 2000

Used output format : Internal WAV Routines
Sample format : 44.100 Hz; 16 Bit; Stereo


TOC of the extracted CD

Track | Start | Length | Start sector | End sector
––––––––––––––––––––––––––––-
1 | 0:00.00 | 2:52.23 | 0 | 12922
2 | 2:52.23 | 2:35.36 | 12923 | 24583
3 | 5:27.59 | 2:18.13 | 24584 | 34946
4 | 7:45.72 | 2:33.08 | 34947 | 46429
5 | 10:19.05 | 2:18.66 | 46430 | 56845
6 | 12:37.71 | 2:18.39 | 56846 | 67234
7 | 14:56.35 | 2:43.19 | 67235 | 79478
8 | 17:39.54 | 2:12.36 | 79479 | 89414
9 | 19:52.15 | 2:39.68 | 89415 | 101407
10 | 22:32.08 | 2:38.71 | 101408 | 113328
11 | 25:11.04 | 2:03.37 | 113329 | 122590
12 | 27:14.41 | 2:25.55 | 122591 | 133520
13 | 29:40.21 | 2:26.49 | 133521 | 144519
14 | 32:06.70 | 1:58.20 | 144520 | 153389
15 | 34:05.15 | 2:42.15 | 153390 | 165554
16 | 36:47.30 | 2:39.00 | 165555 | 177479
17 | 39:26.30 | 2:23.21 | 177480 | 188225
18 | 41:49.51 | 2:27.08 | 188226 | 199258
19 | 44:16.59 | 3:36.57 | 199259 | 215515
20 | 47:53.41 | 2:26.71 | 215516 | 226536


Range status and errors

Selected range

Filename C:\Users\LondonW1\Desktop\Various Artists - Stars Of- American Anthems (CD3).wav

Peak level 100.0 %
Extraction speed 8.3 X
Range quality 100.0 %
Test CRC 45C87AF3
Copy CRC 45C87AF3
Copy OK

No errors occurred


AccurateRip summary

Track 1 not present in database
Track 2 not present in database
Track 3 not present in database
Track 4 not present in database
Track 5 not present in database
Track 6 not present in database
Track 7 not present in database
Track 8 not present in database
Track 9 not present in database
Track 10 not present in database
Track 11 not present in database
Track 12 not present in database
Track 13 not present in database
Track 14 not present in database
Track 15 not present in database
Track 16 not present in database
Track 17 not present in database
Track 18 not present in database
Track 19 not present in database
Track 20 not present in database

None of the tracks are present in the AccurateRip database

End of status report

–– CUETools DB Plugin V2.1.6

[CTDB TOCID: lIrS1vtbDlGGIip0w3PS4gje_oQ-] disk not present in database
Submit result: lIrS1vtbDlGGIip0w3PS4gje_oQ- has been uploaded


==== Log checksum 7BB7D67EC3D0472496E3471588028239193196D81F1B732716DA232AD01B4FDB ====

All thanks go to London

>>> My Blog <<<

DOWNLOAD: