Subcategories

VA - The Best Air Guitar Album In The World... Ever! (2001) 2CDs

Posted By: Designol
VA - The Best Air Guitar Album In The World... Ever! (2001) 2CDs

VA - The Best Air Guitar Album In The World… Ever! (2001) 2CDs
EAC | FLAC | Tracks (Cue&Log) ~ 1 Gb | Mp3 (CBR320) ~ 346 Mb | Scans ~ 130 Mb | Time: 02:31:23
Classic Rock, Hard Rock, Pop/Rock, Guitar Virtuoso | Label: Virgin | # 7243 8 11295 2 4

A fabulous collection of rock numbers from Eddie Cochran to Wheatus by way of Status Quo and Black Sabbath that will appeal not only to the air guitarists among us, but to everyone who finds great rock music exhilarating and enjoyable. Whether you're giving the grand solo performance in the privacy of you own home or hammering down the motorway with the wind in your (remaining) hair this double album hits the spot. The exhausted will feel reinvigorated and the depressed can hardly fail to feel somewhat more cheerful after sampling a few of these tracks. A second volume is promised and I will be one of the first in line when it is released. A treat - don't miss it!

Review by R. F. Pyke, Amazon.co.uk

The Best Air Guitar Album in the World… Ever! should not be mistaken for a "greatest rock album ever" kind of affair as it would cause monumental arguments as to why it includes Robbie Williams but not Led Zeppelin. The songs chosen by Queen guitarist Brian May are all there because they make the fingers start flexing, the head to start banging, and force you to assume the imaginary position of a pouting rock guitarist on stage in front of thousands of screaming worshipers. The first disc kicks of with Queen's heavy blues-rock anthem "Tie Your Mother Down" and ends with one of the most epic guitar solos ever recorded, Lynyrd Skynyrd's "Freebird" which sadly appears as an abridged version. Highlights along the way are the brooding intro to Bowie's "Rebel Rebel", the Surfaris "Wipeout" and seminal guitar moment from beardy rock god Eric Clapton on "Layla". Disc two has a few more inclusions from recent years with Robbie Williams' storming "Let Me Entertain You", Weezer's "Hash Pipe" and Wheatus's "Teenage Dirtbag" alongside such classics as Jimi Hendrix's "Voodoo Chile" and Motorhead's "Ace of Spades". So in summary there's no "Stairway" but plenty of guitar hooks, stabs and widdles to keep you prancing like Kiss while sounding like Beavis and Butthead.

Review by Georgina Collins

VA - The Best Air Guitar Album In The World... Ever! (2001) 2CDs


Tracklist:

CD1:

01. Queen - Tie Your Mother Down (Air Guitar Edit) (4:01)
02. Deep Purple - Smoke On The Water (5:20)
03. Blur - Song 2 (2:01)
04. Run DMC Feat. Aerosmith - Walk This Way (3:38)
05. Derek & The Dominos - Layla (2:44)
06. The Kinks - You Really Got Me (2:13)
07. Rainbow - Since You've Been Gone (3:15)
08. Def Leppard - Photograph (4:06)
09. The Troggs - Wild Thing (2:35)
10. David Bowie - Rebel Rebel (4:30)
11. Jeff Beck With Terry Bozzio & Tony Hymas - Where Were You (3:16)
12. Joe Walsh - Rocky Mountain Way (5:14)
13. Dire Straits - Sultans Of Swing (5:45)
14. The Surfaris - Wipe Out (2:38)
15. Foo Fighters - Monkey Wrench (3:52)
16. Thin Lizzy - The Boys Are Back In Town (4:24)
17. Black Sabbath - Paranoid (2:47)
18. Joe Satriani - Surfing With The Alien (4:22)
19. Status Quo - Whatever You Want (3:49)
20. Lynyrd Skynyrd - Free Bird (4:20)


CD2:

01. The Jimi Hendrix Experience - Voodoo Chile (5:11)
02. The Who - My Generation (3:17)
03. T-Rex - 20th Century Boy (3:38)
04. Paul McCartney - All Shook Up (2:06)
05. Chuck Berry - Johnny B Goode (2:39)
06. Weezer - Hash Pipe (3:07)
07. The Shadows - Apache (2:54)
08. Motorhead - Ace Of Spades (2:46)
09. Eddie Cochran - Summertime Blues (1:57)
10. Free - All Right Now (4:14)
11. Robbie Williams - Let Me Entertain You (3:45)
12. Fleetwood Mac - Oh Well (3:24)
13. Metallica - For Whom The Bell Tolls (5:09)
14. ZZ Top - Gimme All Your Lovin' (3:58)
15. Boston - More Than A Feeling (3:22)
16. Cream - Crossroads (4:07)
17. Status Quo - Down Down (3:43)
18. Bad Company - Can't Get Enough (3:27)
19. Whitesnake - Here I Go Again ('87 Remix) (3:54)
20. Wheatus - Teenage Dirtbag (4:02)
21. Queen - Bohemian Rhapsody (5:54)


Exact Audio Copy V1.0 beta 4 from 7. December 2014

EAC extraction logfile from 5. August 2017, 8:44

Various Artists / The Best Air Guitar Album In The World… Ever! (CD1)

Used drive : TSSTcorpCDDVDW SH-224DB Adapter: 1 ID: 0

Read mode : Secure
Utilize accurate stream : Yes
Defeat audio cache : Yes
Make use of C2 pointers : No

Read offset correction : 6
Overread into Lead-In and Lead-Out : No
Fill up missing offset samples with silence : Yes
Delete leading and trailing silent blocks : No
Null samples used in CRC calculations : Yes
Used interface : Native Win32 interface for Win NT & 2000
Gap handling : Appended to previous track

Used output format : User Defined Encoder
Selected bitrate : 896 kBit/s
Quality : High
Add ID3 tag : No
Command line compressor : C:\Program Files\Exact Audio Copy\Flac\flac.exe
Additional command line options : -5 -V -T "ARTIST=%artist%" -T "TITLE=%title%" -T "ALBUM=%albumtitle%" -T "DATE=%year%" -T "TRACKNUMBER=%tracknr%" -T "GENRE=%genre%" -T "COMMENT=%comment%" %source% -o %dest%


TOC of the extracted CD

Track | Start | Length | Start sector | End sector
––––––––––––––––––––––––––––-
1 | 0:00.00 | 4:00.45 | 0 | 18044
2 | 4:00.45 | 5:19.40 | 18045 | 42009
3 | 9:20.10 | 2:01.15 | 42010 | 51099
4 | 11:21.25 | 3:37.42 | 51100 | 67416
5 | 14:58.67 | 2:44.25 | 67417 | 79741
6 | 17:43.17 | 2:13.05 | 79742 | 89721
7 | 19:56.22 | 3:14.45 | 89722 | 104316
8 | 23:10.67 | 4:06.33 | 104317 | 122799
9 | 27:17.25 | 2:34.65 | 122800 | 134414
10 | 29:52.15 | 4:30.07 | 134415 | 154671
11 | 34:22.22 | 3:15.68 | 154672 | 169364
12 | 37:38.15 | 5:14.20 | 169365 | 192934
13 | 42:52.35 | 5:45.20 | 192935 | 218829
14 | 48:37.55 | 2:38.15 | 218830 | 230694
15 | 51:15.70 | 3:52.30 | 230695 | 248124
16 | 55:08.25 | 4:24.02 | 248125 | 267926
17 | 59:32.27 | 2:46.50 | 267927 | 280426
18 | 62:19.02 | 4:22.18 | 280427 | 300094
19 | 66:41.20 | 3:48.40 | 300095 | 317234
20 | 70:29.60 | 4:19.55 | 317235 | 336714


Track 1

Filename C:\New Folder\01 - Queen - Tie Your Mother Down (Air Guitar Edit).wav

Pre-gap length 0:00:02.00

Peak level 94.6 %
Extraction speed 4.8 X
Track quality 100.0 %
Test CRC 4737DB60
Copy CRC 4737DB60
Accurately ripped (confidence 41) [91B435AF] (AR v2)
Copy OK

Track 2

Filename C:\New Folder\02 - Deep Purple - Smoke On The Water.wav

Peak level 99.6 %
Extraction speed 5.4 X
Track quality 100.0 %
Test CRC 845B2C79
Copy CRC 845B2C79
Accurately ripped (confidence 39) [21B21220] (AR v2)
Copy OK

Track 3

Filename C:\New Folder\03 - Blur - Song 2.wav

Pre-gap length 0:00:00.10

Peak level 96.8 %
Extraction speed 4.9 X
Track quality 100.0 %
Test CRC B86DCBE7
Copy CRC B86DCBE7
Accurately ripped (confidence 39) [CFE36556] (AR v2)
Copy OK

Track 4

Filename C:\New Folder\04 - Run DMC Feat. Aerosmith - Walk This Way.wav

Pre-gap length 0:00:00.35

Peak level 98.3 %
Extraction speed 5.9 X
Track quality 100.0 %
Test CRC 9D7ED29D
Copy CRC 9D7ED29D
Accurately ripped (confidence 40) [238ABDCB] (AR v2)
Copy OK

Track 5

Filename C:\New Folder\05 - Derek & The Dominos - Layla.wav

Pre-gap length 0:00:00.22

Peak level 98.0 %
Extraction speed 4.2 X
Track quality 99.9 %
Test CRC EBF13315
Copy CRC EBF13315
Accurately ripped (confidence 41) [AD24D199] (AR v2)
Copy OK

Track 6

Filename C:\New Folder\06 - The Kinks - You Really Got Me.wav

Pre-gap length 0:00:00.47

Peak level 98.7 %
Extraction speed 5.8 X
Track quality 100.0 %
Test CRC 6028DFB7
Copy CRC 6028DFB7
Accurately ripped (confidence 39) [130D323B] (AR v2)
Copy OK

Track 7

Filename C:\New Folder\07 - Rainbow - Since You've Been Gone.wav

Pre-gap length 0:00:00.45

Peak level 99.0 %
Extraction speed 6.3 X
Track quality 100.0 %
Test CRC 72C0FD10
Copy CRC 72C0FD10
Accurately ripped (confidence 40) [A0ED47FE] (AR v2)
Copy OK

Track 8

Filename C:\New Folder\08 - Def Leppard - Photograph.wav

Pre-gap length 0:00:00.35

Peak level 98.7 %
Extraction speed 6.9 X
Track quality 100.0 %
Test CRC 00979C4B
Copy CRC 00979C4B
Accurately ripped (confidence 39) [5E1A773A] (AR v2)
Copy OK

Track 9

Filename C:\New Folder\09 - The Troggs - Wild Thing.wav

Pre-gap length 0:00:00.38

Peak level 98.1 %
Extraction speed 6.5 X
Track quality 100.0 %
Test CRC 5F6455DF
Copy CRC 5F6455DF
Accurately ripped (confidence 40) [373C74A7] (AR v2)
Copy OK

Track 10

Filename C:\New Folder\10 - David Bowie - Rebel Rebel.wav

Pre-gap length 0:00:00.35

Peak level 98.0 %
Extraction speed 7.4 X
Track quality 100.0 %
Test CRC A5037E50
Copy CRC A5037E50
Accurately ripped (confidence 40) [FAB7E9CC] (AR v2)
Copy OK

Track 11

Filename C:\New Folder\11 - Jeff Beck With Terry Bozzio & Tony Hymas - Where Were You.wav

Pre-gap length 0:00:01.67

Peak level 97.9 %
Extraction speed 7.2 X
Track quality 100.0 %
Test CRC CEC1DB57
Copy CRC CEC1DB57
Accurately ripped (confidence 40) [3C686A38] (AR v2)
Copy OK

Track 12

Filename C:\New Folder\12 - Joe Walsh - Rocky Mountain Way.wav

Peak level 98.0 %
Extraction speed 8.0 X
Track quality 100.0 %
Test CRC B3BE520B
Copy CRC B3BE520B
Accurately ripped (confidence 40) [B6932586] (AR v2)
Copy OK

Track 13

Filename C:\New Folder\13 - Dire Straits - Sultans Of Swing.wav

Pre-gap length 0:00:00.35

Peak level 98.8 %
Extraction speed 7.0 X
Track quality 99.9 %
Test CRC 188FA0F1
Copy CRC 188FA0F1
Accurately ripped (confidence 39) [55869DA6] (AR v2)
Copy OK

Track 14

Filename C:\New Folder\14 - The Surfaris - Wipe Out.wav

Pre-gap length 0:00:00.40

Peak level 99.1 %
Extraction speed 7.7 X
Track quality 100.0 %
Test CRC ECCA1651
Copy CRC ECCA1651
Accurately ripped (confidence 40) [536649A6] (AR v2)
Copy OK

Track 15

Filename C:\New Folder\15 - Foo Fighters - Monkey Wrench.wav

Pre-gap length 0:00:00.55

Peak level 89.6 %
Extraction speed 6.5 X
Track quality 99.9 %
Test CRC 4CBBE363
Copy CRC 4CBBE363
Accurately ripped (confidence 40) [BE6DBB63] (AR v2)
Copy OK

Track 16

Filename C:\New Folder\16 - Thin Lizzy - The Boys Are Back In Town.wav

Pre-gap length 0:00:00.10

Peak level 98.5 %
Extraction speed 8.7 X
Track quality 100.0 %
Test CRC 5E739D3D
Copy CRC 5E739D3D
Accurately ripped (confidence 39) [4635349B] (AR v2)
Copy OK

Track 17

Filename C:\New Folder\17 - Black Sabbath - Paranoid.wav

Pre-gap length 0:00:00.42

Peak level 98.9 %
Extraction speed 5.9 X
Track quality 99.9 %
Test CRC 57E734B8
Copy CRC 57E734B8
Accurately ripped (confidence 40) [92883C4D] (AR v2)
Copy OK

Track 18

Filename C:\New Folder\18 - Joe Satriani - Surfing With The Alien.wav

Pre-gap length 0:00:00.15

Peak level 98.1 %
Extraction speed 7.1 X
Track quality 99.9 %
Test CRC BEEC1F3C
Copy CRC BEEC1F3C
Accurately ripped (confidence 40) [0E08C79D] (AR v2)
Copy OK

Track 19

Filename C:\New Folder\19 - Status Quo - Whatever You Want.wav

Pre-gap length 0:00:00.18

Peak level 98.3 %
Extraction speed 9.1 X
Track quality 100.0 %
Test CRC 947D2D74
Copy CRC 947D2D74
Accurately ripped (confidence 38) [720DFDA8] (AR v2)
Copy OK

Track 20

Filename C:\New Folder\20 - Lynyrd Skynyrd - Free Bird.wav

Pre-gap length 0:00:00.10

Peak level 85.6 %
Extraction speed 9.5 X
Track quality 100.0 %
Test CRC 187A40E8
Copy CRC 187A40E8
Accurately ripped (confidence 34) [4970F213] (AR v2)
Copy OK


All tracks accurately ripped

No errors occurred

End of status report

–– CUETools DB Plugin V2.1.4

[CTDB TOCID: 94bXlnpiSPjCa0i1g0vjKDUkTkI-] found
Submit result: 94bXlnpiSPjCa0i1g0vjKDUkTkI- has been confirmed
Track | CTDB Status
1 | (91/94) Accurately ripped
2 | (91/94) Accurately ripped
3 | (92/94) Accurately ripped
4 | (91/94) Accurately ripped
5 | (92/94) Accurately ripped
6 | (92/94) Accurately ripped
7 | (92/94) Accurately ripped
8 | (92/94) Accurately ripped
9 | (92/94) Accurately ripped
10 | (92/94) Accurately ripped
11 | (92/94) Accurately ripped
12 | (92/94) Accurately ripped
13 | (91/94) Accurately ripped
14 | (92/94) Accurately ripped
15 | (91/94) Accurately ripped
16 | (90/94) Accurately ripped
17 | (92/94) Accurately ripped
18 | (89/94) Accurately ripped, or (2/94) differs in 267 samples @00:00:29-00:00:30,04:21:02-04:21:03,04:21:54-04:21:56
19 | (86/94) Accurately ripped, or (2/94) differs in 58 samples @03:47:66-03:47:67
20 | (90/94) Accurately ripped


==== Log checksum 9F9A0A859CBAF07738AFA7D13A6025C4E783395937CEAED6D8019C617470D70E ====

foobar2000 1.2 / Dynamic Range Meter 1.1.1
log date: 2017-10-01 18:37:41

––––––––––––––––––––––––––––––––––––––––
Analyzed: Black Sabbath / The Best Air Guitar Album In The World… Ever! (CD1) (1)
Blur / The Best Air Guitar Album In The World… Ever! (CD1) (2)
David Bowie / The Best Air Guitar Album In The World… Ever! (CD1) (3)
Deep Purple / The Best Air Guitar Album In The World… Ever! (CD1) (4)
Def Leppard / The Best Air Guitar Album In The World… Ever! (CD1) (5)
Derek & The Dominos / The Best Air Guitar Album In The World… Ever! (CD1) (6)
Dire Straits / The Best Air Guitar Album In The World… Ever! (CD1) (7)
Foo Fighters / The Best Air Guitar Album In The World… Ever! (CD1) (8)
Jeff Beck With Terry Bozzio & Tony Hymas / The Best Air Guitar Album In The World… Ever! (CD1) (9)
Joe Satriani / The Best Air Guitar Album In The World… Ever! (CD1) (10)
Joe Walsh / The Best Air Guitar Album In The World… Ever! (CD1) (11)
Lynyrd Skynyrd / The Best Air Guitar Album In The World… Ever! (CD1) (12)
Queen / The Best Air Guitar Album In The World… Ever! (CD1) (13)
Rainbow / The Best Air Guitar Album In The World… Ever! (CD1) (14)
Run DMC Feat. Aerosmith / The Best Air Guitar Album In The World… Ever! (CD1) (15)
Status Quo / The Best Air Guitar Album In The World… Ever! (CD1) (16)
The Kinks / The Best Air Guitar Album In The World… Ever! (CD1) (17)
The Surfaris / The Best Air Guitar Album In The World… Ever! (CD1) (18)
The Troggs / The Best Air Guitar Album In The World… Ever! (CD1) (19)
Thin Lizzy / The Best Air Guitar Album In The World… Ever! (CD1) (20)
––––––––––––––––––––––––––––––––––––––––

DR Peak RMS Duration Track
––––––––––––––––––––––––––––––––––––––––
DR8 -0.09 dB -10.02 dB 2:47 17-Paranoid
DR8 -0.27 dB -10.60 dB 2:01 03-Song 2
DR10 -0.17 dB -11.49 dB 4:30 10-Rebel Rebel
DR9 -0.03 dB -10.23 dB 5:20 02-Smoke On The Water
DR9 -0.11 dB -10.33 dB 4:06 08-Photograph
DR8 -0.17 dB -9.35 dB 2:44 05-Layla
DR11 -0.10 dB -11.66 dB 5:45 13-Sultans Of Swing
DR6 -0.95 dB -8.75 dB 3:52 15-Monkey Wrench
DR10 -0.18 dB -13.66 dB 3:16 11-Where Were You
DR8 -0.16 dB -9.75 dB 4:22 18-Surfing With The Alien
DR11 -0.17 dB -13.62 dB 5:14 12-Rocky Mountain Way
DR8 -1.34 dB -10.22 dB 4:20 20-Free Bird
DR7 -0.48 dB -9.48 dB 4:01 01-Tie Your Mother Down (Air Guitar Edit)
DR8 -0.08 dB -10.25 dB 3:15 07-Since You've Been Gone
DR11 -0.15 dB -12.79 dB 3:38 04-Walk This Way
DR9 -0.14 dB -11.69 dB 3:49 19-Whatever You Want
DR8 -0.11 dB -9.73 dB 2:13 06-You Really Got Me
DR10 -0.07 dB -11.64 dB 2:38 14-Wipe Out
DR10 -0.17 dB -12.14 dB 2:35 09-Wild Thing
DR9 -0.13 dB -10.80 dB 4:24 16-The Boys Are Back In Town
––––––––––––––––––––––––––––––––––––––––

Number of tracks: 20
Official DR value: DR9

Samplerate: 44100 Hz
Channels: 2
Bits per sample: 16
Bitrate: 945 kbps
Codec: FLAC
================================================================================


Exact Audio Copy V1.0 beta 4 from 7. December 2014

EAC extraction logfile from 5. August 2017, 9:46

Various Artists / The Best Air Guitar Album In The World… Ever! (CD2)

Used drive : TSSTcorpCDDVDW SH-224DB Adapter: 1 ID: 0

Read mode : Secure
Utilize accurate stream : Yes
Defeat audio cache : Yes
Make use of C2 pointers : No

Read offset correction : 6
Overread into Lead-In and Lead-Out : No
Fill up missing offset samples with silence : Yes
Delete leading and trailing silent blocks : No
Null samples used in CRC calculations : Yes
Used interface : Native Win32 interface for Win NT & 2000
Gap handling : Appended to previous track

Used output format : User Defined Encoder
Selected bitrate : 896 kBit/s
Quality : High
Add ID3 tag : No
Command line compressor : C:\Program Files\Exact Audio Copy\Flac\flac.exe
Additional command line options : -5 -V -T "ARTIST=%artist%" -T "TITLE=%title%" -T "ALBUM=%albumtitle%" -T "DATE=%year%" -T "TRACKNUMBER=%tracknr%" -T "GENRE=%genre%" -T "COMMENT=%comment%" %source% -o %dest%


TOC of the extracted CD

Track | Start | Length | Start sector | End sector
––––––––––––––––––––––––––––-
1 | 0:00.00 | 5:11.22 | 0 | 23346
2 | 5:11.22 | 3:16.38 | 23347 | 38084
3 | 8:27.60 | 3:37.73 | 38085 | 54432
4 | 12:05.58 | 2:05.72 | 54433 | 63879
5 | 14:11.55 | 2:39.25 | 63880 | 75829
6 | 16:51.05 | 3:07.15 | 75830 | 89869
7 | 19:58.20 | 2:54.20 | 89870 | 102939
8 | 22:52.40 | 2:45.58 | 102940 | 115372
9 | 25:38.23 | 1:56.50 | 115373 | 124122
10 | 27:34.73 | 4:14.10 | 124123 | 143182
11 | 31:49.08 | 3:44.55 | 143183 | 160037
12 | 35:33.63 | 3:24.35 | 160038 | 175372
13 | 38:58.23 | 5:09.12 | 175373 | 198559
14 | 44:07.35 | 3:58.18 | 198560 | 216427
15 | 48:05.53 | 3:21.50 | 216428 | 231552
16 | 51:27.28 | 4:06.62 | 231553 | 250064
17 | 55:34.15 | 3:42.68 | 250065 | 266782
18 | 59:17.08 | 3:27.07 | 266783 | 282314
19 | 62:44.15 | 3:54.03 | 282315 | 299867
20 | 66:38.18 | 4:01.47 | 299868 | 317989
21 | 70:39.65 | 5:53.68 | 317990 | 344532


Track 1

Filename C:\New Folder\01 - The Jimi Hendrix Experience - Voodoo Chile.wav

Pre-gap length 0:00:02.00

Peak level 98.0 %
Extraction speed 5.1 X
Track quality 100.0 %
Test CRC 95D8A9DB
Copy CRC 95D8A9DB
Accurately ripped (confidence 41) [8B202B4A] (AR v2)
Copy OK

Track 2

Filename C:\New Folder\02 - The Who - My Generation.wav

Pre-gap length 0:00:01.00

Peak level 98.0 %
Extraction speed 4.0 X
Track quality 99.9 %
Test CRC BD465A15
Copy CRC BD465A15
Accurately ripped (confidence 42) [73028B62] (AR v2)
Copy OK

Track 3

Filename C:\New Folder\03 - T-Rex - 20th Century Boy.wav

Peak level 98.0 %
Extraction speed 5.6 X
Track quality 100.0 %
Test CRC 19A63802
Copy CRC 19A63802
Accurately ripped (confidence 42) [3D7A594A] (AR v2)
Copy OK

Track 4

Filename C:\New Folder\04 - Paul McCartney - All Shook Up.wav

Pre-gap length 0:00:00.53

Peak level 78.1 %
Extraction speed 5.3 X
Track quality 100.0 %
Test CRC 6B0FB010
Copy CRC 6B0FB010
Accurately ripped (confidence 42) [14F35807] (AR v2)
Copy OK

Track 5

Filename C:\New Folder\05 - Chuck Berry - Johnny B Goode.wav

Pre-gap length 0:00:00.40

Peak level 98.0 %
Extraction speed 4.1 X
Track quality 99.9 %
Test CRC 3AFA12A2
Copy CRC 3AFA12A2
Accurately ripped (confidence 42) [F24EBA6B] (AR v2)
Copy OK

Track 6

Filename C:\New Folder\06 - Weezer - Hash Pipe.wav

Pre-gap length 0:00:01.07

Peak level 87.2 %
Extraction speed 4.5 X
Track quality 99.9 %
Test CRC 3521D184
Copy CRC 3521D184
Accurately ripped (confidence 43) [B192F300] (AR v2)
Copy OK

Track 7

Filename C:\New Folder\07 - The Shadows - Apache.wav

Pre-gap length 0:00:00.27

Peak level 98.0 %
Extraction speed 4.5 X
Track quality 99.9 %
Test CRC 0B9C6514
Copy CRC 0B9C6514
Accurately ripped (confidence 43) [4D3A89E0] (AR v2)
Copy OK

Track 8

Filename C:\New Folder\08 - Motorhead - Ace Of Spades.wav

Peak level 98.2 %
Extraction speed 6.4 X
Track quality 100.0 %
Test CRC 0E80FE9D
Copy CRC 0E80FE9D
Accurately ripped (confidence 42) [4AD9D471] (AR v2)
Copy OK

Track 9

Filename C:\New Folder\09 - Eddie Cochran - Summertime Blues.wav

Pre-gap length 0:00:00.08

Peak level 92.7 %
Extraction speed 6.0 X
Track quality 100.0 %
Test CRC F399262E
Copy CRC F399262E
Accurately ripped (confidence 42) [D409D7E9] (AR v2)
Copy OK

Track 10

Filename C:\New Folder\10 - Free - All Right Now.wav

Pre-gap length 0:00:00.45

Peak level 89.2 %
Extraction speed 7.1 X
Track quality 100.0 %
Test CRC 0B2E3A60
Copy CRC 0B2E3A60
Accurately ripped (confidence 42) [17E2A612] (AR v2)
Copy OK

Track 11

Filename C:\New Folder\11 - Robbie Williams - Let Me Entertain You.wav

Pre-gap length 0:00:00.40

Peak level 67.3 %
Extraction speed 5.6 X
Track quality 99.9 %
Test CRC A6E0AB24
Copy CRC A6E0AB24
Accurately ripped (confidence 42) [AE66C882] (AR v2)
Copy OK

Track 12

Filename C:\New Folder\12 - Fleetwood Mac - Oh Well.wav

Pre-gap length 0:00:01.18

Peak level 98.3 %
Extraction speed 7.3 X
Track quality 100.0 %
Test CRC 601AA7B8
Copy CRC 601AA7B8
Accurately ripped (confidence 41) [81D8013B] (AR v2)
Copy OK

Track 13

Filename C:\New Folder\13 - Metallica - For Whom The Bell Tolls.wav

Pre-gap length 0:00:00.68

Peak level 88.5 %
Extraction speed 8.0 X
Track quality 100.0 %
Test CRC 8DFD04DB
Copy CRC 8DFD04DB
Accurately ripped (confidence 41) [AAC08CBD] (AR v2)
Copy OK

Track 14

Filename C:\New Folder\14 - ZZ Top - Gimme All Your Lovin'.wav

Pre-gap length 0:00:00.65

Peak level 98.0 %
Extraction speed 8.1 X
Track quality 100.0 %
Test CRC 2B0BBF6F
Copy CRC 2B0BBF6F
Accurately ripped (confidence 41) [B87C54D8] (AR v2)
Copy OK

Track 15

Filename C:\New Folder\15 - Boston - More Than A Feeling.wav

Pre-gap length 0:00:00.68

Peak level 98.0 %
Extraction speed 7.9 X
Track quality 100.0 %
Test CRC DE43845B
Copy CRC DE43845B
Accurately ripped (confidence 42) [7487C70A] (AR v2)
Copy OK

Track 16

Filename C:\New Folder\16 - Cream - Crossroads.wav

Pre-gap length 0:00:00.43

Peak level 98.0 %
Extraction speed 8.4 X
Track quality 100.0 %
Test CRC E1ADAC52
Copy CRC E1ADAC52
Accurately ripped (confidence 42) [D3323F63] (AR v2)
Copy OK

Track 17

Filename C:\New Folder\17 - Status Quo - Down Down.wav

Peak level 98.4 %
Extraction speed 8.5 X
Track quality 100.0 %
Test CRC 93033FF5
Copy CRC 93033FF5
Accurately ripped (confidence 41) [7BFD1C60] (AR v2)
Copy OK

Track 18

Filename C:\New Folder\18 - Bad Company - Can't Get Enough.wav

Pre-gap length 0:00:01.20

Peak level 99.6 %
Extraction speed 8.7 X
Track quality 100.0 %
Test CRC 5F00080C
Copy CRC 5F00080C
Accurately ripped (confidence 41) [11B714DB] (AR v2)
Copy OK

Track 19

Filename C:\New Folder\19 - Whitesnake - Here I Go Again ('87 Remix).wav

Pre-gap length 0:00:00.52

Peak level 98.0 %
Extraction speed 6.9 X
Track quality 99.9 %
Test CRC 09AF9571
Copy CRC 09AF9571
Accurately ripped (confidence 41) [BA6B4C84] (AR v2)
Copy OK

Track 20

Filename C:\New Folder\20 - Wheatus - Teenage Dirtbag.wav

Pre-gap length 0:00:00.35

Peak level 94.3 %
Extraction speed 9.3 X
Track quality 100.0 %
Test CRC C3D06A15
Copy CRC C3D06A15
Accurately ripped (confidence 41) [E0C7CDCC] (AR v2)
Copy OK

Track 21

Filename C:\New Folder\21 - Queen - Bohemian Rhapsody.wav

Pre-gap length 0:00:00.20

Peak level 99.2 %
Extraction speed 8.2 X
Track quality 99.9 %
Test CRC 9D364D6C
Copy CRC 9D364D6C
Accurately ripped (confidence 38) [DB522A4F] (AR v2)
Copy OK


All tracks accurately ripped

No errors occurred

End of status report

–– CUETools DB Plugin V2.1.4

[CTDB TOCID: D3xSu_zjdrws.izq2db7eAsGJvM-] found
Submit result: D3xSu_zjdrws.izq2db7eAsGJvM- has been confirmed
Track | CTDB Status
1 | (94/97) Accurately ripped
2 | (97/97) Accurately ripped
3 | (94/97) Accurately ripped
4 | (95/97) Accurately ripped
5 | (95/97) Accurately ripped
6 | (94/97) Accurately ripped
7 | (96/97) Accurately ripped
8 | (95/97) Accurately ripped
9 | (93/97) Accurately ripped
10 | (94/97) Accurately ripped
11 | (94/97) Accurately ripped
12 | (93/97) Accurately ripped
13 | (91/97) Accurately ripped, or (2/97) differs in 607 samples @05:07:33-05:07:34,05:08:12-05:08:14
14 | (93/97) Accurately ripped
15 | (94/97) Accurately ripped
16 | (92/97) Accurately ripped
17 | (91/97) Accurately ripped, or (2/97) differs in 3 samples @02:33:14
18 | (93/97) Accurately ripped
19 | (92/97) Accurately ripped, or (2/97) differs in 199 samples @03:50:57-03:50:58,03:51:36-03:51:37
20 | (91/97) Accurately ripped, or (2/97) differs in 642 samples @04:00:09-04:00:11
21 | (92/97) Accurately ripped, or (2/97) differs in 8048 samples @00:00:53-00:00:54,00:08:24-00:08:27,00:12:51-00:12:52,00:15:37-00:15:38,00:35:01-00:35:04,03:04:31-03:04:32,03:05:03-03:05:05,03:05:14-03:05:16,03:06:10-03:06:13,03:12:48,03:35:27-03:35:28,05:12:39-05:12:40,05:19:32-05:19:35


==== Log checksum 9B3E95E8AFDEC58D63378B4A44240A3462FAE1434E7E509C8E10AA75F295ADEB ====

foobar2000 1.2 / Dynamic Range Meter 1.1.1
log date: 2017-10-01 18:38:18

––––––––––––––––––––––––––––––––––––––––
Analyzed: Bad Company / The Best Air Guitar Album In The World… Ever! (CD2) (1)
Boston / The Best Air Guitar Album In The World… Ever! (CD2) (2)
Chuck Berry / The Best Air Guitar Album In The World… Ever! (CD2) (3)
Cream / The Best Air Guitar Album In The World… Ever! (CD2) (4)
Eddie Cochran / The Best Air Guitar Album In The World… Ever! (CD2) (5)
Fleetwood Mac / The Best Air Guitar Album In The World… Ever! (CD2) (6)
Free / The Best Air Guitar Album In The World… Ever! (CD2) (7)
Metallica / The Best Air Guitar Album In The World… Ever! (CD2) (8)
Motorhead / The Best Air Guitar Album In The World… Ever! (CD2) (9)
Paul McCartney / The Best Air Guitar Album In The World… Ever! (CD2) (10)
Queen / The Best Air Guitar Album In The World… Ever! (CD2) (11)
Robbie Williams / The Best Air Guitar Album In The World… Ever! (CD2) (12)
Status Quo / The Best Air Guitar Album In The World… Ever! (CD2) (13)
The Jimi Hendrix Experience / The Best Air Guitar Album In The World… Ever! (CD2) (14)
The Shadows / The Best Air Guitar Album In The World… Ever! (CD2) (15)
The Who / The Best Air Guitar Album In The World… Ever! (CD2) (16)
T-Rex / The Best Air Guitar Album In The World… Ever! (CD2) (17)
Weezer / The Best Air Guitar Album In The World… Ever! (CD2) (18)
Wheatus / The Best Air Guitar Album In The World… Ever! (CD2) (19)
Whitesnake / The Best Air Guitar Album In The World… Ever! (CD2) (20)
ZZ Top / The Best Air Guitar Album In The World… Ever! (CD2) (21)
––––––––––––––––––––––––––––––––––––––––

DR Peak RMS Duration Track
––––––––––––––––––––––––––––––––––––––––
DR12 -0.03 dB -13.61 dB 3:27 18-Can't Get Enough
DR9 -0.17 dB -11.71 dB 3:22 15-More Than A Feeling
DR10 -0.17 dB -12.03 dB 2:39 05-Johnny B Goode
DR8 -0.17 dB -9.04 dB 4:07 16-Crossroads
DR10 -0.65 dB -12.11 dB 1:57 09-Summertime Blues
DR10 -0.14 dB -13.41 dB 3:24 12-Oh Well
DR9 -0.99 dB -12.08 dB 4:14 10-All Right Now
DR9 -1.05 dB -10.56 dB 5:09 13-For Whom The Bell Tolls
DR9 -0.16 dB -10.22 dB 2:46 08-Ace Of Spades
DR7 -2.14 dB -10.41 dB 2:06 04-All Shook Up
DR8 -0.06 dB -12.04 dB 5:54 21-Bohemian Rhapsody
DR6 -3.43 dB -10.94 dB 3:45 11-Let Me Entertain You
DR10 -0.14 dB -12.82 dB 3:43 17-Down Down
DR10 -0.17 dB -12.20 dB 5:11 01-Voodoo Chile
DR8 -0.17 dB -11.36 dB 2:54 07-Apache
DR9 -0.17 dB -10.03 dB 3:17 02-My Generation
DR11 -0.17 dB -12.33 dB 3:38 03-20th Century Boy
DR7 -1.19 dB -9.58 dB 3:07 06-Hash Pipe
DR8 -0.51 dB -10.98 dB 4:02 20-Teenage Dirtbag
DR11 -0.17 dB -11.94 dB 3:54 19-Here I Go Again ('87 Remix)
DR12 -0.17 dB -13.65 dB 3:58 14-Gimme All Your Lovin'
––––––––––––––––––––––––––––––––––––––––

Number of tracks: 21
Official DR value: DR9

Samplerate: 44100 Hz
Channels: 2
Bits per sample: 16
Bitrate: 953 kbps
Codec: FLAC
================================================================================

VA - The Best Air Guitar Album In The World... Ever! (2001) 2CDs

VA - The Best Air Guitar Album In The World... Ever! (2001) 2CDs

All thanks to original releaser - alekow

More interesting music in My Blog