Subcategories

VA - The Real... Bossa Nova, The Ultimate Collection (2014) 3CDs [Re-Up]

Posted By: Designol
VA - The Real... Bossa Nova, The Ultimate Collection (2014) 3CDs [Re-Up]

VA - The Real… Bossa Nova, The Ultimate Collection (2014) 3CDs
EAC | FLAC | Tracks (Cue&Log) ~ 906 Mb | Mp3 (CBR320) ~ 396 Mb | Scans included | 02:34:53
Bossa Nova, Latin Jazz, Brazilian Jazz, MPB | Label: Columbia/Sony | # 88843058712

44 original recordings from iconic Brazilian artists and American jazz & pop legends: Antonio Carlos Jobim, Stan Getz, Astrud Gilberto, João Gilberto, Flora Purim, Nacho Méndez, Dave Brubeck, Charlie Byrd, George Benson, Sarah Vaughan, Miles Davis, Dextor Gordon, George Duke, and many many more… 3CDs, housed in a fold out card digipack case.

VA - The Real... Bossa Nova, The Ultimate Collection (2014) 3CDs [Re-Up]



Tracklist:

CD1:

01. Antonio Carlos Jobim - Brazil (5:28)
02. Stan Getz (feat. João Gilberto) - Aguas de Marco (4:45)
03. Charlie Byrd - The Girl From Ipanema (2:50)
04. Astrud Gilberto - Ponteio (3:54)
05. Gal Costa - Wave (Ao Vivo) (3:22)
06. Os Cariocas - Vou Te Contar (Wave) (2:11)
07. Mario Castro Neves - Nana (2:30)
08. Sonia Y Myriam - Desafinado (1:59)
09. Mario Ruiz Armengol - All The Things You Are (1:47)
10. Quinteto Fantasia - Sally's Tomato (2:58)
11. Daniel Riolobos - El Barquito (2:25)
12. Mario Ruiz Armengol - Dia Nublado (2:34)
13. Pablo Beltran Ruiz Y Su Oequesta - Sol De Media Noche (2:19)
14. Nacho Mendez - El Corrousel (2:22)
15. Fabricio - Se Vive Solo Una Vez (2:29)

CD2:

01. The Dave Brubeck Quartet - Bossa Nova U.S.A. (2:27)
02. Wayne Shorter - Ana Maria (5:09)
03. George Benson - Little Train (5:49)
04. Charlie Byrd - Dindi (3:56)
05. Miles Davis - Aos Pes Da Cruz (4:17)
06. Astrud Gilberto with Stanley Turrentine - Brazilian Tapestry (5:15)
07. Sarah Vaughan - Love and Passion (4:00)
08. Stanley Turrentine - Vera Cruz (5:14)
09. Dextor Gordon - How Insensitive (4:55)
10. George Duke - Summer Breezin' (4:51)
11. Grover Washington Jr. - E Preciso Perdoar (One Must Forgive) (8:57)
12. Astrud Gilberto with Stanley Turrentine - Zazueira (3:47)
13. Miles Davis with Gil Evans & His Orchestra - Corcovado (Quiet Nights of Quiet Stars) (2:45)
14. Stan Getz - Retrato Em Branco E Preto (4:03)

CD3:

01. Tamba Trio - Mas Que Nada (3:24)
02. Emilio Santiago - Rio (2:48)
03. Flora Purim - Samba do Carioca (2:07)
04. Leny Andrade - Batida Diferente (2:02)
05. Johnny Alf - Little Boat (O Barquinho) (2:51)
06. Carlos Lyra feat. Marcos Valle - Voce e Eu (2:53)
07. Raulzinho - A Vontade Mesmo (4:44)
08. Pablo Beltran Ruiz Y Su Orquesta - Una Sola Nota (Una Nota So) (2:04)
09. Antonio Carlos Jobim - Sabia (3:59)
10. Pablo Beltran Ruiz Y Su Orquesta - Meditacion (Meditacao) (2:11)
11. Flora Purim - Preciso Aprender a Ser So (3:15)
12. Tamba Trio - Jogo da Vida (3:16)
13. Milton Banana Trio - Chega De Saudade; Desafinado; Corcovado (1:59)
14. Yana Purim - Querendo Voce (I Apologize) (4:39)
15. Antonio Carlos Jobim - Stone Flower (3:22)


Exact Audio Copy V1.3 from 2. September 2016

EAC extraction logfile from 21. June 2017, 17:30

Various Artists / The Real Bossa Nova (CD1)

Used drive : TSSTcorpCDDVDW SE-208AB Adapter: 2 ID: 0

Read mode : Secure
Utilize accurate stream : Yes
Defeat audio cache : Yes
Make use of C2 pointers : No

Read offset correction : 6
Overread into Lead-In and Lead-Out : No
Fill up missing offset samples with silence : Yes
Delete leading and trailing silent blocks : No
Null samples used in CRC calculations : Yes
Used interface : Installed external ASPI interface
Gap handling : Appended to previous track

Used output format : User Defined Encoder
Selected bitrate : 768 kBit/s
Quality : High
Add ID3 tag : No
Command line compressor : C:\Program Files (x86)\Exact Audio Copy\Flac\flac.exe
Additional command line options : -8 -V -T "ARTIST=%artist%" -T "TITLE=%title%" -T "ALBUM=%albumtitle%" -T "DATE=%year%" -T "TRACKNUMBER=%tracknr%" -T "GENRE=%genre%" -T "COMMENT=%comment%" -T "BAND=%albuminterpret%" -T "ALBUMARTIST=%albuminterpret%" -T "COMPOSER=%composer%" %haslyrics%–tag-from-file=LYRICS="%lyricsfile%"%haslyrics% -T "DISCNUMBER=%cdnumber%" -T "TOTALDISCS=%totalcds%" -T "TOTALTRACKS=%numtracks%" %hascover%–picture="%coverfile%"%hascover% %source% -o %dest%


TOC of the extracted CD

Track | Start | Length | Start sector | End sector
––––––––––––––––––––––––––––-
1 | 0:00.00 | 5:28.11 | 0 | 24610
2 | 5:28.11 | 4:44.58 | 24611 | 45968
3 | 10:12.69 | 2:50.13 | 45969 | 58731
4 | 13:03.07 | 3:54.37 | 58732 | 76318
5 | 16:57.44 | 3:21.40 | 76319 | 91433
6 | 20:19.09 | 2:10.53 | 91434 | 101236
7 | 22:29.62 | 2:30.05 | 101237 | 112491
8 | 24:59.67 | 1:59.25 | 112492 | 121441
9 | 26:59.17 | 1:46.66 | 121442 | 129457
10 | 28:46.08 | 2:58.32 | 129458 | 142839
11 | 31:44.40 | 2:24.59 | 142840 | 153698
12 | 34:09.24 | 2:34.10 | 153699 | 165258
13 | 36:43.34 | 2:19.01 | 165259 | 175684
14 | 39:02.35 | 2:22.03 | 175685 | 186337
15 | 41:24.38 | 2:28.66 | 186338 | 197503


Track 1

Filename C:\Program Files (x86)\Exact Audio Copy\Flac\01. Brazil.wav

Pre-gap length 0:00:02.00

Peak level 99.8 %
Extraction speed 1.1 X
Track quality 100.0 %
Test CRC 322B966B
Copy CRC 322B966B
Accurately ripped (confidence 4) [22FC3BB4] (AR v2)
Copy OK

Track 2

Filename C:\Program Files (x86)\Exact Audio Copy\Flac\02. Aguas de Marco.wav

Pre-gap length 0:00:01.58

Peak level 97.7 %
Extraction speed 1.3 X
Track quality 100.0 %
Test CRC 50E74B23
Copy CRC 50E74B23
Accurately ripped (confidence 4) [220E4196] (AR v2)
Copy OK

Track 3

Filename C:\Program Files (x86)\Exact Audio Copy\Flac\03. The Girl From Ipanema.wav

Pre-gap length 0:00:01.58

Peak level 74.9 %
Extraction speed 1.3 X
Track quality 100.0 %
Test CRC FC733416
Copy CRC FC733416
Accurately ripped (confidence 4) [2A074F89] (AR v2)
Copy OK

Track 4

Filename C:\Program Files (x86)\Exact Audio Copy\Flac\04. Ponteio.wav

Pre-gap length 0:00:01.58

Peak level 99.2 %
Extraction speed 1.4 X
Track quality 100.0 %
Test CRC 03E1CF43
Copy CRC 03E1CF43
Accurately ripped (confidence 4) [48D096F3] (AR v2)
Copy OK

Track 5

Filename C:\Program Files (x86)\Exact Audio Copy\Flac\05. Wave (Ao Vivo).wav

Pre-gap length 0:00:01.58

Peak level 99.7 %
Extraction speed 1.3 X
Track quality 99.9 %
Test CRC 050CFDA5
Copy CRC 050CFDA5
Accurately ripped (confidence 4) [710874F6] (AR v2)
Copy OK

Track 6

Filename C:\Program Files (x86)\Exact Audio Copy\Flac\06. Vou Te Contar (Wave).wav

Pre-gap length 0:00:01.58

Peak level 83.6 %
Extraction speed 1.4 X
Track quality 100.0 %
Test CRC CA9B7C5C
Copy CRC CA9B7C5C
Accurately ripped (confidence 4) [3EBB2440] (AR v2)
Copy OK

Track 7

Filename C:\Program Files (x86)\Exact Audio Copy\Flac\07. Nana.wav

Pre-gap length 0:00:01.58

Peak level 62.5 %
Extraction speed 1.2 X
Track quality 99.9 %
Test CRC A2A4308E
Copy CRC A2A4308E
Accurately ripped (confidence 4) [4724AF34] (AR v2)
Copy OK

Track 8

Filename C:\Program Files (x86)\Exact Audio Copy\Flac\08. Desafinado.wav

Pre-gap length 0:00:01.56

Peak level 99.2 %
Extraction speed 1.5 X
Track quality 100.0 %
Test CRC 40768586
Copy CRC 40768586
Accurately ripped (confidence 4) [D5D92489] (AR v2)
Copy OK

Track 9

Filename C:\Program Files (x86)\Exact Audio Copy\Flac\09. All The Things You Are.wav

Pre-gap length 0:00:01.59

Peak level 99.2 %
Extraction speed 1.1 X
Track quality 99.9 %
Test CRC 461D5230
Copy CRC 461D5230
Accurately ripped (confidence 4) [0FCC7F4B] (AR v2)
Copy OK

Track 10

Filename C:\Program Files (x86)\Exact Audio Copy\Flac\10. Sally's Tomato.wav

Pre-gap length 0:00:01.58

Peak level 99.2 %
Extraction speed 1.7 X
Track quality 100.0 %
Test CRC 52E139AA
Copy CRC 52E139AA
Accurately ripped (confidence 4) [ECA9E8A0] (AR v2)
Copy OK

Track 11

Filename C:\Program Files (x86)\Exact Audio Copy\Flac\11. El Barquito.wav

Pre-gap length 0:00:01.58

Peak level 99.2 %
Extraction speed 1.6 X
Track quality 100.0 %
Test CRC FD2C97C6
Copy CRC FD2C97C6
Accurately ripped (confidence 4) [B9369E3E] (AR v2)
Copy OK

Track 12

Filename C:\Program Files (x86)\Exact Audio Copy\Flac\12. Dia Nublado.wav

Pre-gap length 0:00:01.58

Peak level 99.1 %
Extraction speed 1.7 X
Track quality 100.0 %
Test CRC AB0D8BDB
Copy CRC AB0D8BDB
Accurately ripped (confidence 4) [5CE9F9C7] (AR v2)
Copy OK

Track 13

Filename C:\Program Files (x86)\Exact Audio Copy\Flac\13. Sol De Media Noche.wav

Pre-gap length 0:00:01.58

Peak level 99.1 %
Extraction speed 1.7 X
Track quality 100.0 %
Test CRC 60109387
Copy CRC 60109387
Accurately ripped (confidence 4) [E56B6D9B] (AR v2)
Copy OK

Track 14

Filename C:\Program Files (x86)\Exact Audio Copy\Flac\14. El Corrousel.wav

Pre-gap length 0:00:01.58

Peak level 91.5 %
Extraction speed 1.7 X
Track quality 100.0 %
Test CRC E370E1ED
Copy CRC E370E1ED
Accurately ripped (confidence 4) [0320BCFD] (AR v2)
Copy OK

Track 15

Filename C:\Program Files (x86)\Exact Audio Copy\Flac\15. Se Vive Solo Una Vez.wav

Pre-gap length 0:00:01.58

Peak level 98.9 %
Extraction speed 1.8 X
Track quality 100.0 %
Test CRC 7105515A
Copy CRC 7105515A
Accurately ripped (confidence 4) [659729C8] (AR v2)
Copy OK


All tracks accurately ripped

No errors occurred

End of status report

–– CUETools DB Plugin V2.1.6

[CTDB TOCID: EkiDG0U_YNADT35TqzALvlKN838-] found
Submit result: EkiDG0U_YNADT35TqzALvlKN838- has been confirmed
Track | CTDB Status
1 | (19/19) Accurately ripped
2 | (19/19) Accurately ripped
3 | (19/19) Accurately ripped
4 | (19/19) Accurately ripped
5 | (19/19) Accurately ripped
6 | (19/19) Accurately ripped
7 | (19/19) Accurately ripped
8 | (19/19) Accurately ripped
9 | (19/19) Accurately ripped
10 | (19/19) Accurately ripped
11 | (19/19) Accurately ripped
12 | (19/19) Accurately ripped
13 | (19/19) Accurately ripped
14 | (19/19) Accurately ripped
15 | (19/19) Accurately ripped


==== Log checksum 42E3F53DA68A9E15509CE61597E658DF6AE319A233EFCA9CA9627A8E47F59B67 ====

foobar2000 1.2 / Dynamic Range Meter 1.1.1
log date: 2017-06-22 01:00:56

––––––––––––––––––––––––––––––––––––––––
Analyzed: Antonio Carlos Jobim / The Real Bossa Nova (CD1) (1)
Astrud Gilberto / The Real Bossa Nova (CD1) (2)
Charlie Byrd / The Real Bossa Nova (CD1) (3)
Daniel Riolobos / The Real Bossa Nova (CD1) (4)
Fabricio / The Real Bossa Nova (CD1) (5)
Gal Costa / The Real Bossa Nova (CD1) (6)
Mario Castro Neves / The Real Bossa Nova (CD1) (7)
Mario Ruiz Armengol / The Real Bossa Nova (CD1) (8-9)
Nacho Mendez / The Real Bossa Nova (CD1) (10)
Os Cariocas / The Real Bossa Nova (CD1) (11)
Pablo Beltran Ruiz Y Su Oequesta / The Real Bossa Nova (CD1) (12)
Quinteto Fantasia / The Real Bossa Nova (CD1) (13)
Sonia Y Myriam / The Real Bossa Nova (CD1) (14)
Stan Getz (feat. Joao Gilberto) / The Real Bossa Nova (CD1) (15)
––––––––––––––––––––––––––––––––––––––––

DR Peak RMS Duration Track
––––––––––––––––––––––––––––––––––––––––
DR12 -0.01 dB -15.55 dB 5:28 01-Brazil
DR11 -0.07 dB -12.98 dB 3:54 04-Ponteio
DR10 -2.50 dB -16.55 dB 2:50 03-The Girl From Ipanema
DR9 -0.07 dB -10.96 dB 2:25 11-El Barquito
DR10 -0.09 dB -11.99 dB 2:29 15-Se Vive Solo Una Vez
DR9 -0.02 dB -11.21 dB 3:22 05-Wave (Ao Vivo)
DR5 -4.07 dB -10.38 dB 2:30 07-Nana
DR9 -0.07 dB -10.56 dB 1:47 09-All The Things You Are
DR8 -0.07 dB -10.65 dB 2:34 12-Dia Nublado
DR9 -0.77 dB -12.46 dB 2:22 14-El Corrousel
DR9 -1.55 dB -12.37 dB 2:11 06-Vou Te Contar (Wave)
DR9 -0.07 dB -10.86 dB 2:19 13-Sol De Media Noche
DR9 -0.07 dB -10.60 dB 2:58 10-Sally's Tomato
DR9 -0.07 dB -11.36 dB 1:59 08-Desafinado
DR11 -0.20 dB -14.55 dB 4:45 02-Aguas de Marco
––––––––––––––––––––––––––––––––––––––––

Number of tracks: 15
Official DR value: DR9

Samplerate: 44100 Hz
Channels: 2
Bits per sample: 16
Bitrate: 769 kbps
Codec: FLAC
================================================================================


Exact Audio Copy V1.3 from 2. September 2016

EAC extraction logfile from 21. June 2017, 18:49

Various Artists / The Real Bossa Nova (CD2)

Used drive : TSSTcorpCDDVDW SE-208AB Adapter: 2 ID: 0

Read mode : Secure
Utilize accurate stream : Yes
Defeat audio cache : Yes
Make use of C2 pointers : No

Read offset correction : 6
Overread into Lead-In and Lead-Out : No
Fill up missing offset samples with silence : Yes
Delete leading and trailing silent blocks : No
Null samples used in CRC calculations : Yes
Used interface : Installed external ASPI interface
Gap handling : Appended to previous track

Used output format : User Defined Encoder
Selected bitrate : 768 kBit/s
Quality : High
Add ID3 tag : No
Command line compressor : C:\Program Files (x86)\Exact Audio Copy\Flac\flac.exe
Additional command line options : -8 -V -T "ARTIST=%artist%" -T "TITLE=%title%" -T "ALBUM=%albumtitle%" -T "DATE=%year%" -T "TRACKNUMBER=%tracknr%" -T "GENRE=%genre%" -T "COMMENT=%comment%" -T "BAND=%albuminterpret%" -T "ALBUMARTIST=%albuminterpret%" -T "COMPOSER=%composer%" %haslyrics%–tag-from-file=LYRICS="%lyricsfile%"%haslyrics% -T "DISCNUMBER=%cdnumber%" -T "TOTALDISCS=%totalcds%" -T "TOTALTRACKS=%numtracks%" %hascover%–picture="%coverfile%"%hascover% %source% -o %dest%


TOC of the extracted CD

Track | Start | Length | Start sector | End sector
––––––––––––––––––––––––––––-
1 | 0:00.00 | 2:27.35 | 0 | 11059
2 | 2:27.35 | 5:09.01 | 11060 | 34235
3 | 7:36.36 | 5:48.62 | 34236 | 60397
4 | 13:25.23 | 3:56.18 | 60398 | 78115
5 | 17:21.41 | 4:17.16 | 78116 | 97406
6 | 21:38.57 | 5:14.48 | 97407 | 121004
7 | 26:53.30 | 3:59.62 | 121005 | 138991
8 | 30:53.17 | 5:13.73 | 138992 | 162539
9 | 36:07.15 | 4:54.47 | 162540 | 184636
10 | 41:01.62 | 4:51.17 | 184637 | 206478
11 | 45:53.04 | 8:56.48 | 206479 | 246726
12 | 54:49.52 | 3:47.01 | 246727 | 263752
13 | 58:36.53 | 2:44.46 | 263753 | 276098
14 | 61:21.24 | 4:03.30 | 276099 | 294353


Track 1

Filename C:\Program Files (x86)\Exact Audio Copy\Flac\01. Bossa Nova U.S.A..wav

Pre-gap length 0:00:02.00

Peak level 98.8 %
Extraction speed 1.1 X
Track quality 100.0 %
Test CRC AD52BCB8
Copy CRC AD52BCB8
Accurately ripped (confidence 5) [A667EF43] (AR v2)
Copy OK

Track 2

Filename C:\Program Files (x86)\Exact Audio Copy\Flac\02. Ana Maria.wav

Pre-gap length 0:00:01.58

Peak level 98.9 %
Extraction speed 1.4 X
Track quality 100.0 %
Test CRC 38D11BFA
Copy CRC 38D11BFA
Accurately ripped (confidence 5) [1E2A6CF4] (AR v2)
Copy OK

Track 3

Filename C:\Program Files (x86)\Exact Audio Copy\Flac\03. Little Train.wav

Pre-gap length 0:00:01.58

Peak level 98.8 %
Extraction speed 1.5 X
Track quality 100.0 %
Test CRC EED3871C
Copy CRC EED3871C
Accurately ripped (confidence 5) [239DF934] (AR v2)
Copy OK

Track 4

Filename C:\Program Files (x86)\Exact Audio Copy\Flac\04. Dindi.wav

Pre-gap length 0:00:01.58

Peak level 98.8 %
Extraction speed 1.6 X
Track quality 100.0 %
Test CRC E08C729B
Copy CRC E08C729B
Accurately ripped (confidence 5) [6AC0CB92] (AR v2)
Copy OK

Track 5

Filename C:\Program Files (x86)\Exact Audio Copy\Flac\05. Aos Pes Da Cruz.wav

Pre-gap length 0:00:01.58

Peak level 98.9 %
Extraction speed 1.7 X
Track quality 100.0 %
Test CRC D8C3B383
Copy CRC D8C3B383
Accurately ripped (confidence 5) [8244A57A] (AR v2)
Copy OK

Track 6

Filename C:\Program Files (x86)\Exact Audio Copy\Flac\06. Brazilian Tapestry.wav

Pre-gap length 0:00:01.58

Peak level 98.8 %
Extraction speed 1.8 X
Track quality 100.0 %
Test CRC F01A1AF8
Copy CRC F01A1AF8
Accurately ripped (confidence 5) [F7300786] (AR v2)
Copy OK

Track 7

Filename C:\Program Files (x86)\Exact Audio Copy\Flac\07. Love and Passion.wav

Pre-gap length 0:00:01.58

Peak level 98.9 %
Extraction speed 1.9 X
Track quality 100.0 %
Test CRC ACB6C9F2
Copy CRC ACB6C9F2
Accurately ripped (confidence 5) [58D77598] (AR v2)
Copy OK

Track 8

Filename C:\Program Files (x86)\Exact Audio Copy\Flac\08. Vera Cruz.wav

Pre-gap length 0:00:01.58

Peak level 98.7 %
Extraction speed 2.0 X
Track quality 100.0 %
Test CRC 7CDB8FCD
Copy CRC 7CDB8FCD
Accurately ripped (confidence 5) [10E4445D] (AR v2)
Copy OK

Track 9

Filename C:\Program Files (x86)\Exact Audio Copy\Flac\09. How Insensitive.wav

Pre-gap length 0:00:01.58

Peak level 98.8 %
Extraction speed 2.1 X
Track quality 100.0 %
Test CRC 3314C8BF
Copy CRC 3314C8BF
Accurately ripped (confidence 5) [52C9B9D9] (AR v2)
Copy OK

Track 10

Filename C:\Program Files (x86)\Exact Audio Copy\Flac\10. Summer Breezin'.wav

Pre-gap length 0:00:01.58

Peak level 98.8 %
Extraction speed 2.2 X
Track quality 100.0 %
Test CRC 05EC43BA
Copy CRC 05EC43BA
Accurately ripped (confidence 5) [55A369C2] (AR v2)
Copy OK

Track 11

Filename C:\Program Files (x86)\Exact Audio Copy\Flac\11. E Preciso Perdoar (One Must Forgive).wav

Pre-gap length 0:00:01.58

Peak level 98.9 %
Extraction speed 2.4 X
Track quality 100.0 %
Test CRC 8EE9E5B5
Copy CRC 8EE9E5B5
Accurately ripped (confidence 5) [20A1183E] (AR v2)
Copy OK

Track 12

Filename C:\Program Files (x86)\Exact Audio Copy\Flac\12. Zazueira.wav

Pre-gap length 0:00:01.58

Peak level 88.1 %
Extraction speed 2.3 X
Track quality 100.0 %
Test CRC 2D2518F8
Copy CRC 2D2518F8
Accurately ripped (confidence 5) [6BF867A6] (AR v2)
Copy OK

Track 13

Filename C:\Program Files (x86)\Exact Audio Copy\Flac\13. Corcovado (Quiet Nights of Quiet Stars).wav

Pre-gap length 0:00:01.58

Peak level 98.9 %
Extraction speed 2.2 X
Track quality 100.0 %
Test CRC EB60AD8D
Copy CRC EB60AD8D
Accurately ripped (confidence 5) [D5286AAC] (AR v2)
Copy OK

Track 14

Filename C:\Program Files (x86)\Exact Audio Copy\Flac\14. Retrato Em Branco E Preto.wav

Pre-gap length 0:00:01.58

Peak level 98.9 %
Extraction speed 2.4 X
Track quality 100.0 %
Test CRC 62601474
Copy CRC 62601474
Accurately ripped (confidence 5) [E0CABB56] (AR v2)
Copy OK


All tracks accurately ripped

No errors occurred

End of status report

–– CUETools DB Plugin V2.1.6

[CTDB TOCID: ueK3qLaKz4iUJITrqW_lmKj9bSo-] found
Submit result: ueK3qLaKz4iUJITrqW_lmKj9bSo- has been confirmed
Track | CTDB Status
1 | (17/17) Accurately ripped
2 | (17/17) Accurately ripped
3 | (17/17) Accurately ripped
4 | (17/17) Accurately ripped
5 | (17/17) Accurately ripped
6 | (17/17) Accurately ripped
7 | (17/17) Accurately ripped
8 | (17/17) Accurately ripped
9 | (17/17) Accurately ripped
10 | (17/17) Accurately ripped
11 | (17/17) Accurately ripped
12 | (17/17) Accurately ripped
13 | (17/17) Accurately ripped
14 | (17/17) Accurately ripped


==== Log checksum 03869F85867C15D18C9A989548F6D377A4279A12D1B615B3DD1E986254FC8BD4 ====

foobar2000 1.2 / Dynamic Range Meter 1.1.1
log date: 2017-06-22 01:01:24

––––––––––––––––––––––––––––––––––––––––
Analyzed: Astrud Gilberto with Stanley Turrentine / The Real Bossa Nova (CD2) (1-2)
Charlie Byrd / The Real Bossa Nova (CD2) (3)
Dextor Gordon / The Real Bossa Nova (CD2) (4)
George Benson / The Real Bossa Nova (CD2) (5)
George Duke / The Real Bossa Nova (CD2) (6)
Grover Washington Jr. / The Real Bossa Nova (CD2) (7)
Miles Davis with Gil Evans & His Orchestra / The Real Bossa Nova (CD2) (8)
Miles Davis / The Real Bossa Nova (CD2) (9)
Sarah Vaughan / The Real Bossa Nova (CD2) (10)
Stan Getz / The Real Bossa Nova (CD2) (11)
Stanley Turrentine / The Real Bossa Nova (CD2) (12)
The Dave Brubeck Quartet / The Real Bossa Nova (CD2) (13)
Wayne Shorter / The Real Bossa Nova (CD2) (14)
––––––––––––––––––––––––––––––––––––––––

DR Peak RMS Duration Track
––––––––––––––––––––––––––––––––––––––––
DR9 -0.10 dB -10.87 dB 5:15 06-Brazilian Tapestry
DR8 -1.10 dB -11.24 dB 3:47 12-Zazueira
DR9 -0.10 dB -12.21 dB 3:56 04-Dindi
DR11 -0.10 dB -12.97 dB 4:55 09-How Insensitive
DR9 -0.10 dB -11.83 dB 5:49 03-Little Train
DR12 -0.10 dB -13.65 dB 4:51 10-Summer Breezin'
DR8 -0.09 dB -10.49 dB 8:57 11-E Preciso Perdoar (One Must Forgive)
DR9 -0.10 dB -11.91 dB 2:45 13-Corcovado (Quiet Nights of Quiet Stars)
DR9 -0.10 dB -11.66 dB 4:17 05-Aos Pes Da Cruz
DR10 -0.10 dB -12.34 dB 4:00 07-Love and Passion
DR9 -0.10 dB -11.39 dB 4:03 14-Retrato Em Branco E Preto
DR12 -0.11 dB -14.78 dB 5:14 08-Vera Cruz
DR10 -0.10 dB -11.91 dB 2:27 01-Bossa Nova U.S.A.
DR9 -0.10 dB -11.65 dB 5:09 02-Ana Maria
––––––––––––––––––––––––––––––––––––––––

Number of tracks: 14
Official DR value: DR10

Samplerate: 44100 Hz
Channels: 2
Bits per sample: 16
Bitrate: 824 kbps
Codec: FLAC
================================================================================


Exact Audio Copy V1.3 from 2. September 2016

EAC extraction logfile from 21. June 2017, 20:02

Various / The Real Bossa Nova (CD3)

Used drive : TSSTcorpCDDVDW SE-208AB Adapter: 2 ID: 0

Read mode : Secure
Utilize accurate stream : Yes
Defeat audio cache : Yes
Make use of C2 pointers : No

Read offset correction : 6
Overread into Lead-In and Lead-Out : No
Fill up missing offset samples with silence : Yes
Delete leading and trailing silent blocks : No
Null samples used in CRC calculations : Yes
Used interface : Installed external ASPI interface
Gap handling : Appended to previous track

Used output format : User Defined Encoder
Selected bitrate : 768 kBit/s
Quality : High
Add ID3 tag : No
Command line compressor : C:\Program Files (x86)\Exact Audio Copy\Flac\flac.exe
Additional command line options : -8 -V -T "ARTIST=%artist%" -T "TITLE=%title%" -T "ALBUM=%albumtitle%" -T "DATE=%year%" -T "TRACKNUMBER=%tracknr%" -T "GENRE=%genre%" -T "COMMENT=%comment%" -T "BAND=%albuminterpret%" -T "ALBUMARTIST=%albuminterpret%" -T "COMPOSER=%composer%" %haslyrics%–tag-from-file=LYRICS="%lyricsfile%"%haslyrics% -T "DISCNUMBER=%cdnumber%" -T "TOTALDISCS=%totalcds%" -T "TOTALTRACKS=%numtracks%" %hascover%–picture="%coverfile%"%hascover% %source% -o %dest%


TOC of the extracted CD

Track | Start | Length | Start sector | End sector
––––––––––––––––––––––––––––-
1 | 0:00.00 | 3:23.64 | 0 | 15288
2 | 3:23.64 | 2:47.71 | 15289 | 27884
3 | 6:11.60 | 2:07.25 | 27885 | 37434
4 | 8:19.10 | 2:01.57 | 37435 | 46566
5 | 10:20.67 | 2:50.53 | 46567 | 59369
6 | 13:11.45 | 2:52.47 | 59370 | 72316
7 | 16:04.17 | 4:44.16 | 72317 | 93632
8 | 20:48.33 | 2:03.49 | 93633 | 102906
9 | 22:52.07 | 3:59.02 | 102907 | 120833
10 | 26:51.09 | 2:11.35 | 120834 | 130693
11 | 29:02.44 | 3:15.26 | 130694 | 145344
12 | 32:17.70 | 3:16.22 | 145345 | 160066
13 | 35:34.17 | 1:59.33 | 160067 | 169024
14 | 37:33.50 | 4:39.23 | 169025 | 189972
15 | 42:12.73 | 3:21.50 | 189973 | 205097


Track 1

Filename C:\Program Files (x86)\Exact Audio Copy\Flac\01. Mas Que Nada.wav

Pre-gap length 0:00:02.00

Peak level 97.7 %
Extraction speed 0.9 X
Track quality 99.9 %
Test CRC DD42C698
Copy CRC DD42C698
Cannot be verified as accurate (confidence 5) [6E383456], AccurateRip returned [D5B7F974] (AR v2)
Copy OK

Track 2

Filename C:\Program Files (x86)\Exact Audio Copy\Flac\02. Rio.wav

Pre-gap length 0:00:01.58

Peak level 99.0 %
Extraction speed 0.9 X
Track quality 99.9 %
Test CRC FE250B53
Copy CRC FE250B53
Cannot be verified as accurate (confidence 5) [8E4FD750], AccurateRip returned [BEDE03BF] (AR v2)
Copy OK

Track 3

Filename C:\Program Files (x86)\Exact Audio Copy\Flac\03. Samba do Carioca.wav

Pre-gap length 0:00:01.58

Peak level 93.9 %
Extraction speed 1.1 X
Track quality 100.0 %
Test CRC 2122F367
Copy CRC 2122F367
Cannot be verified as accurate (confidence 5) [AF78D4E3], AccurateRip returned [BB337DB3] (AR v2)
Copy OK

Track 4

Filename C:\Program Files (x86)\Exact Audio Copy\Flac\04. Batida Diferente.wav

Pre-gap length 0:00:01.58

Peak level 96.4 %
Extraction speed 1.1 X
Track quality 100.0 %
Test CRC 6579DB1B
Copy CRC 6579DB1B
Cannot be verified as accurate (confidence 5) [6726705F], AccurateRip returned [3A953EDA] (AR v2)
Copy OK

Track 5

Filename C:\Program Files (x86)\Exact Audio Copy\Flac\05. Little Boat (O Barquinho).wav

Pre-gap length 0:00:01.58

Peak level 86.0 %
Extraction speed 1.3 X
Track quality 100.0 %
Test CRC 81E2B35B
Copy CRC 81E2B35B
Cannot be verified as accurate (confidence 5) [95587979], AccurateRip returned [CB76D169] (AR v2)
Copy OK

Track 6

Filename C:\Program Files (x86)\Exact Audio Copy\Flac\06. Voce e Eu.wav

Pre-gap length 0:00:01.58

Peak level 96.4 %
Extraction speed 1.2 X
Track quality 99.9 %
Test CRC F6E4F677
Copy CRC F6E4F677
Cannot be verified as accurate (confidence 5) [38894D50], AccurateRip returned [40452E78] (AR v2)
Copy OK

Track 7

Filename C:\Program Files (x86)\Exact Audio Copy\Flac\07. A Vontade Mesmo.wav

Pre-gap length 0:00:01.58

Peak level 96.4 %
Extraction speed 1.4 X
Track quality 99.9 %
Test CRC 822E589E
Copy CRC 822E589E
Cannot be verified as accurate (confidence 5) [39C862DC], AccurateRip returned [D49C38E1] (AR v2)
Copy OK

Track 8

Filename C:\Program Files (x86)\Exact Audio Copy\Flac\08. Una Sola Nota (Una Nota So).wav

Pre-gap length 0:00:01.58

Peak level 96.4 %
Extraction speed 1.4 X
Track quality 100.0 %
Test CRC 4643682F
Copy CRC 4643682F
Cannot be verified as accurate (confidence 5) [71A6CAFC], AccurateRip returned [EF9F8E6D] (AR v2)
Copy OK

Track 9

Filename C:\Program Files (x86)\Exact Audio Copy\Flac\09. Sabia.wav

Pre-gap length 0:00:01.58

Peak level 96.4 %
Extraction speed 1.5 X
Track quality 99.9 %
Test CRC 28240AAC
Copy CRC 28240AAC
Cannot be verified as accurate (confidence 5) [DD909679], AccurateRip returned [A36091BC] (AR v2)
Copy OK

Track 10

Filename C:\Program Files (x86)\Exact Audio Copy\Flac\10. Meditacion (Meditacao).wav

Pre-gap length 0:00:01.58

Peak level 96.4 %
Extraction speed 1.3 X
Track quality 99.9 %
Test CRC A1D525E7
Copy CRC A1D525E7
Cannot be verified as accurate (confidence 5) [43BE7D97], AccurateRip returned [740AB6D3] (AR v2)
Copy OK

Track 11

Filename C:\Program Files (x86)\Exact Audio Copy\Flac\11. Preciso Aprender a Ser So.wav

Pre-gap length 0:00:01.58

Peak level 96.4 %
Extraction speed 1.8 X
Track quality 100.0 %
Test CRC 44AC7F78
Copy CRC 44AC7F78
Cannot be verified as accurate (confidence 5) [0003DD5A], AccurateRip returned [ABECEB1B] (AR v2)
Copy OK

Track 12

Filename C:\Program Files (x86)\Exact Audio Copy\Flac\12. Jogo da Vida.wav

Pre-gap length 0:00:01.58

Peak level 96.4 %
Extraction speed 1.8 X
Track quality 100.0 %
Test CRC C6F6646D
Copy CRC C6F6646D
Cannot be verified as accurate (confidence 5) [10F6ED5B], AccurateRip returned [CE38A513] (AR v2)
Copy OK

Track 13

Filename C:\Program Files (x86)\Exact Audio Copy\Flac\13. Chega De Saudade; Desafinado; Corcovado.wav

Pre-gap length 0:00:01.58

Peak level 83.6 %
Extraction speed 1.7 X
Track quality 100.0 %
Test CRC 5F019098
Copy CRC 5F019098
Cannot be verified as accurate (confidence 5) [11E3A208], AccurateRip returned [0B9DCF5C] (AR v2)
Copy OK

Track 14

Filename C:\Program Files (x86)\Exact Audio Copy\Flac\14. Querendo Voce (I Apologize).wav

Pre-gap length 0:00:01.58

Peak level 63.6 %
Extraction speed 2.0 X
Track quality 100.0 %
Test CRC A6D80747
Copy CRC A6D80747
Cannot be verified as accurate (confidence 5) [36162FC5], AccurateRip returned [597B9986] (AR v2)
Copy OK

Track 15

Filename C:\Program Files (x86)\Exact Audio Copy\Flac\15. Stone Flower.wav

Pre-gap length 0:00:01.58

Peak level 89.0 %
Extraction speed 2.0 X
Track quality 100.0 %
Test CRC F67F8217
Copy CRC F67F8217
Cannot be verified as accurate (confidence 5) [356E416C], AccurateRip returned [4B5FCBB2] (AR v2)
Copy OK


No tracks could be verified as accurate
You may have a different pressing from the one(s) in the database

No errors occurred

End of status report

–– CUETools DB Plugin V2.1.6

[CTDB TOCID: j1HPkUHcH3_Xf.u.QN4YigiiAzo-] found
Submit result: j1HPkUHcH3_Xf.u.QN4YigiiAzo- has been confirmed
Track | CTDB Status
1 | ( 5/19) Accurately ripped
2 | ( 5/19) Accurately ripped
3 | ( 5/19) Accurately ripped
4 | ( 5/19) Accurately ripped
5 | ( 5/19) Accurately ripped
6 | ( 5/19) Accurately ripped
7 | ( 5/19) Accurately ripped
8 | ( 5/19) Accurately ripped
9 | ( 5/19) Accurately ripped
10 | ( 5/19) Accurately ripped
11 | ( 5/19) Accurately ripped
12 | ( 5/19) Accurately ripped
13 | ( 5/19) Accurately ripped
14 | ( 5/19) Accurately ripped
15 | ( 5/19) Accurately ripped


==== Log checksum 4D2E3B313C064DAD44AD60DD7DA698375570031D579425F38EE0C972CC001265 ====

foobar2000 1.2 / Dynamic Range Meter 1.1.1
log date: 2017-06-22 01:01:43

––––––––––––––––––––––––––––––––––––––––
Analyzed: Antonio Carlos Jobim / The Real Bossa Nova (CD3) (1-2)
Carlos Lyra feat. Marcos Valle / The Real Bossa Nova (CD3) (3)
Emilio Santiago / The Real Bossa Nova (CD3) (4)
Flora Purim / The Real Bossa Nova (CD3) (5-6)
Johnny Alf / The Real Bossa Nova (CD3) (7)
Leny Andrade / The Real Bossa Nova (CD3) (8)
Milton Banana Trio / The Real Bossa Nova (CD3) (9)
Pablo Beltran Ruiz Y Su Orquesta / The Real Bossa Nova (CD3) (10-11)
Raulzinho / The Real Bossa Nova (CD3) (12)
Tamba Trio / The Real Bossa Nova (CD3) (13-14)
Yana Purim / The Real Bossa Nova (CD3) (15)
––––––––––––––––––––––––––––––––––––––––

DR Peak RMS Duration Track
––––––––––––––––––––––––––––––––––––––––
DR5 -0.31 dB -7.77 dB 3:59 09-Sabia
DR9 -1.01 dB -13.15 dB 3:22 15-Stone Flower
DR6 -0.31 dB -7.96 dB 2:53 06-Voce e Eu
DR7 -0.08 dB -10.23 dB 2:48 02-Rio
DR10 -0.55 dB -13.23 dB 2:07 03-Samba do Carioca
DR6 -0.31 dB -8.39 dB 3:15 11-Preciso Aprender a Ser So
DR5 -1.30 dB -7.82 dB 2:51 05-Little Boat (O Barquinho)
DR6 -0.31 dB -8.37 dB 2:02 04-Batida Diferente
DR11 -1.55 dB -13.62 dB 1:59 13-Chega De Saudade; Desafinado; Corcovado
DR6 -0.31 dB -7.04 dB 2:04 08-Una Sola Nota (Una Nota So)
DR5 -0.31 dB -7.17 dB 2:11 10-Meditacion (Meditacao)
DR6 -0.31 dB -7.71 dB 4:44 07-A Vontade Mesmo
DR8 -0.20 dB -9.98 dB 3:24 01-Mas Que Nada
DR7 -0.31 dB -8.88 dB 3:16 12-Jogo da Vida
DR5 -3.92 dB -11.38 dB 4:39 14-Querendo Voce (I Apologize)
––––––––––––––––––––––––––––––––––––––––

Number of tracks: 15
Official DR value: DR7

Samplerate: 44100 Hz
Channels: 2
Bits per sample: 16
Bitrate: 824 kbps
Codec: FLAC
================================================================================

VA - The Real... Bossa Nova, The Ultimate Collection (2014) 3CDs [Re-Up]

All thanks to original releaser - Olivierito

More interesting music in My Blog