Subcategories

VA - The Ultimate Christmas Album, WCBS-FM 101.1, Vol. 3 (1996)

Posted By: Designol
VA - The Ultimate Christmas Album, WCBS-FM 101.1, Vol. 3 (1996)

VA - The Ultimate Christmas Album, WCBS-FM 101.1, Vol. 3 (1996)
25 MORE Great Songs for the 25th of December

EAC | FLAC | Tracks (Cue&Log) ~ 447 Mb | Mp3 (CBR320) ~ 177 Mb | Scans ~ 60 Mb
Label: Collectables Records | # COL-CD-2513 | Time: 01:17:23
Holidays, Vocal Pop, R&B, Pop/Rock, Swing, Vocal Jazz, Soul

Another installment in Collectables' The Ultimate Christmas Album series, volume 3 gathers a mix of well-known and offbeat holiday tunes, including Nat King Cole's "The Christmas Song", The Singing Dogs' "Jingle Bells", The Supremes' "Twinkle Twinkle Little Me", The Ventures' "Sleigh Ride", Johnny Mathis' "Winter Wonderland", Perry Como's "Home For The Holidays", Burt Bacharach' "The Bell That Couldn't Jingle", Paul Anka's "It's Christmas Everywhere", Percy Faith's "We Need A Little Christmas", Andy Williams' "Happy Holidays", Ray Charles' "Christmas Time", Eartha Kitt's "Santa Baby".

Tracklist:

01. Nat King Cole - The Christmas Song (03:08)
02. Darlene Love - All Alone On Christmas (04:09)
03. Larry Chance & The Earls - I'll Be Home For Christmas (04:13)
04. Bobby Vinton - Santa Claus Is Coming To Town (02:44)
05. The Singing Dogs - Jingle Bells (01:41)
06. The Supremes - Twinkle Twinkle Little Me (03:03)
07. Johnny Mathis - Winter Wonderland (03:17)
08. The Ventures - Sleigh Ride (02:20)
09. Perry Como - Home For The Holidays (02:54)
10. Mavis Staples - Christmas Vacation (03:21)
11. Burt Bacharach - The Bell That Couldn't Jingle (02:33)
12. Jose Feliciano - Feliz Navidad (03:04)
13. Lou Christie (with University of Pittsburgh Men's Glee Club) - O Holy Night (02:57)
14. Bing Crosby - White Christmas (03:03)
15. Paul Anka - It's Christmas Everywhere (03:05)
16. Donald O'Connor & Debbie Reynolds - Chrissy The Christmas Mouse (03:11)
17. Dion - Rockin' Aroudn The Christmas Tree (02:31)
18. Andy Williams - Happy Holidays (02:36)
19. The Impressions - Amen (03:29)
20. Percy Faith - We Need A Little Christmas (02:09)
21. Eartha Kitt - Santa Baby (03:25)
22. Santa's Doo Wop Helpers (Larry Chance, Johnny Maestro, Bobby Jay, & Joel Katz) - All I Want For Christmas Is You (04:26)
23. Spike Jones - All I Want For Christmas Is My Two Front Teeth (03:08)
24. Ray Charles - Christmas Time (04:26)
25. Fred Waring - The Night Before Christmas (02:18)


Exact Audio Copy V1.0 beta 6 from 9. April 2015

EAC extraction logfile from 3. December 2015, 19:36

Various Artists / The Ultimate Christmas Album Volume 3

Used drive : hp DVD-RAM GH82N Adapter: 1 ID: 0

Read mode : Secure
Utilize accurate stream : Yes
Defeat audio cache : Yes
Make use of C2 pointers : No

Read offset correction : 667
Overread into Lead-In and Lead-Out : No
Fill up missing offset samples with silence : Yes
Delete leading and trailing silent blocks : No
Null samples used in CRC calculations : Yes
Used interface : Native Win32 interface for Win NT & 2000
Gap handling : Appended to previous track

Used output format : User Defined Encoder
Selected bitrate : 1024 kBit/s
Quality : High
Add ID3 tag : No
Command line compressor : C:\Program Files (x86)\Exact Audio Copy\Flac\flac.exe
Additional command line options : -8 -V -T "ARTIST=%artist%" -T "TITLE=%title%" -T "ALBUM=%albumtitle%" -T "DATE=%year%" -T "TRACKNUMBER=%tracknr%" -T "TOTALTRACKS=%numtracks%" -T "GENRE=%genre%" -T "ALBUMARTIST=%albumartist%" -T "ALBUM ARTIST=%albumartist%" -T "COMMENT=EAC Secure Mode, Test & Copy, AccurateRip, FLAC -8" %source%


TOC of the extracted CD

Track | Start | Length | Start sector | End sector
––––––––––––––––––––––––––––-
1 | 0:00.00 | 3:08.67 | 0 | 14166
2 | 3:08.67 | 4:09.50 | 14167 | 32891
3 | 7:18.42 | 4:13.53 | 32892 | 51919
4 | 11:32.20 | 2:44.25 | 51920 | 64244
5 | 14:16.45 | 1:41.60 | 64245 | 71879
6 | 15:58.30 | 3:03.05 | 71880 | 85609
7 | 19:01.35 | 3:17.12 | 85610 | 100396
8 | 22:18.47 | 2:20.05 | 100397 | 110901
9 | 24:38.52 | 2:54.10 | 110902 | 123961
10 | 27:32.62 | 3:21.08 | 123962 | 139044
11 | 30:53.70 | 2:33.70 | 139045 | 150589
12 | 33:27.65 | 3:04.44 | 150590 | 164433
13 | 36:32.34 | 2:57.51 | 164434 | 177759
14 | 39:30.10 | 3:03.70 | 177760 | 191554
15 | 42:34.05 | 3:05.50 | 191555 | 205479
16 | 45:39.55 | 3:11.25 | 205480 | 219829
17 | 48:51.05 | 2:31.70 | 219830 | 231224
18 | 51:23.00 | 2:36.62 | 231225 | 242986
19 | 53:59.62 | 3:29.20 | 242987 | 258681
20 | 57:29.07 | 2:09.13 | 258682 | 268369
21 | 59:38.20 | 3:25.02 | 268370 | 283746
22 | 63:03.22 | 4:26.03 | 283747 | 303699
23 | 67:29.25 | 3:08.05 | 303700 | 317804
24 | 70:37.30 | 4:26.47 | 317805 | 337801
25 | 75:04.02 | 2:18.63 | 337802 | 348214


Track 1

Filename C:\EAC\01 - Nat King Cole - The Christmas Song.wav

Pre-gap length 0:00:02.00

Peak level 99.9 %
Extraction speed 1.5 X
Track quality 99.9 %
Test CRC A192F2F7
Copy CRC A192F2F7
Accurately ripped (confidence 8) [DEEB83AA] (AR v2)
Copy OK

Track 2

Filename C:\EAC\02 - Darlene Love - All Alone On Christmas.wav

Peak level 99.9 %
Extraction speed 1.7 X
Track quality 99.9 %
Test CRC 7DE1474C
Copy CRC 7DE1474C
Accurately ripped (confidence 7) [2BFA233D] (AR v2)
Copy OK

Track 3

Filename C:\EAC\03 - Larry Chance & The Earls - I'll Be Home For Christmas.wav

Peak level 99.9 %
Extraction speed 2.2 X
Track quality 100.0 %
Test CRC 987042E4
Copy CRC 987042E4
Accurately ripped (confidence 7) [84136BC6] (AR v2)
Copy OK

Track 4

Filename C:\EAC\04 - Bobby Vinton - Santa Claus Is Coming To Town.wav

Peak level 99.9 %
Extraction speed 1.8 X
Track quality 99.9 %
Test CRC 2BB84753
Copy CRC 2BB84753
Accurately ripped (confidence 7) [B9058AC3] (AR v2)
Copy OK

Track 5

Filename C:\EAC\05 - The Singing Dogs - Jingle Bells.wav

Peak level 82.1 %
Extraction speed 1.9 X
Track quality 100.0 %
Test CRC E6FC156C
Copy CRC E6FC156C
Accurately ripped (confidence 7) [37D51FAD] (AR v2)
Copy OK

Track 6

Filename C:\EAC\06 - The Supremes - Twinkle Twinkle Little Me.wav

Peak level 99.9 %
Extraction speed 2.3 X
Track quality 100.0 %
Test CRC 3E22D97F
Copy CRC 3E22D97F
Accurately ripped (confidence 7) [AFF1FE51] (AR v2)
Copy OK

Track 7

Filename C:\EAC\07 - Johnny Mathis - Winter Wonderland.wav

Peak level 99.9 %
Extraction speed 2.4 X
Track quality 100.0 %
Test CRC 213CAD3C
Copy CRC 213CAD3C
Accurately ripped (confidence 8) [E9D5670A] (AR v2)
Copy OK

Track 8

Filename C:\EAC\08 - The Ventures - Sleigh Ride.wav

Peak level 99.9 %
Extraction speed 1.9 X
Track quality 99.9 %
Test CRC C8A4481D
Copy CRC C8A4481D
Accurately ripped (confidence 7) [B7EE6D55] (AR v2)
Copy OK

Track 9

Filename C:\EAC\09 - Perry Como - Home For The Holidays.wav

Peak level 99.9 %
Extraction speed 2.5 X
Track quality 100.0 %
Test CRC 83F14AFD
Copy CRC 83F14AFD
Accurately ripped (confidence 7) [CFA7A0DE] (AR v2)
Copy OK

Track 10

Filename C:\EAC\10 - Mavis Staples - Christmas Vacation.wav

Peak level 99.9 %
Extraction speed 2.7 X
Track quality 100.0 %
Test CRC C707E4E2
Copy CRC C707E4E2
Accurately ripped (confidence 7) [9A9FCD5F] (AR v2)
Copy OK

Track 11

Filename C:\EAC\11 - Burt Bacharach - The Bell That Couldn't Jingle.wav

Peak level 99.9 %
Extraction speed 2.6 X
Track quality 100.0 %
Test CRC E6894BAA
Copy CRC E6894BAA
Accurately ripped (confidence 7) [35D93DCE] (AR v2)
Copy OK

Track 12

Filename C:\EAC\12 - Jose Feliciano - Feliz Navidad.wav

Peak level 99.9 %
Extraction speed 2.4 X
Track quality 99.9 %
Test CRC 9ABC9617
Copy CRC 9ABC9617
Accurately ripped (confidence 8) [FB52C251] (AR v2)
Copy OK

Track 13

Filename C:\EAC\13 - Lou Christie (with University of Pittsburgh Men's Glee Club) - O Holy Night.wav

Peak level 99.9 %
Extraction speed 2.9 X
Track quality 100.0 %
Test CRC F7FD0C69
Copy CRC F7FD0C69
Accurately ripped (confidence 7) [D437EBDF] (AR v2)
Copy OK

Track 14

Filename C:\EAC\14 - Bing Crosby - White Christmas.wav

Peak level 99.9 %
Extraction speed 2.5 X
Track quality 99.9 %
Test CRC C4A060B3
Copy CRC C4A060B3
Accurately ripped (confidence 8) [03EEE480] (AR v2)
Copy OK

Track 15

Filename C:\EAC\15 - Paul Anka - It's Christmas Everywhere.wav

Peak level 99.9 %
Extraction speed 3.1 X
Track quality 100.0 %
Test CRC C90FC5BC
Copy CRC C90FC5BC
Accurately ripped (confidence 7) [EA415B19] (AR v2)
Copy OK

Track 16

Filename C:\EAC\16 - Donald O'Connor & Debbie Reynolds - Chrissy The Christmas Mouse.wav

Peak level 99.9 %
Extraction speed 3.1 X
Track quality 100.0 %
Test CRC 6CF7CD1D
Copy CRC 6CF7CD1D
Accurately ripped (confidence 7) [390BAD8D] (AR v2)
Copy OK

Track 17

Filename C:\EAC\17 - Dion - Rockin' Aroudn The Christmas Tree.wav

Peak level 99.9 %
Extraction speed 3.0 X
Track quality 100.0 %
Test CRC D573A332
Copy CRC D573A332
Accurately ripped (confidence 7) [5D49CE9E] (AR v2)
Copy OK

Track 18

Filename C:\EAC\18 - Andy Williams - Happy Holidays.wav

Peak level 99.9 %
Extraction speed 3.2 X
Track quality 100.0 %
Test CRC 4F5D8699
Copy CRC 4F5D8699
Accurately ripped (confidence 7) [FB76FCCB] (AR v2)
Copy OK

Track 19

Filename C:\EAC\19 - The Impressions - Amen.wav

Peak level 99.9 %
Extraction speed 3.4 X
Track quality 100.0 %
Test CRC 796AA615
Copy CRC 796AA615
Accurately ripped (confidence 7) [38F7DAEE] (AR v2)
Copy OK

Track 20

Filename C:\EAC\20 - Percy Faith - We Need A Little Christmas.wav

Peak level 99.9 %
Extraction speed 3.1 X
Track quality 100.0 %
Test CRC AA62013F
Copy CRC AA62013F
Accurately ripped (confidence 7) [C01AA9A2] (AR v2)
Copy OK

Track 21

Filename C:\EAC\21 - Eartha Kitt - Santa Baby.wav

Peak level 99.9 %
Extraction speed 3.4 X
Track quality 100.0 %
Test CRC A6F2746D
Copy CRC A6F2746D
Accurately ripped (confidence 7) [00EA78D9] (AR v2)
Copy OK

Track 22

Filename C:\EAC\22 - Santa's Doo Wop Helpers (Larry Chance, Johnny Maestro, Bobby Jay, & Joel Katz) - All I Want For Christmas Is You.wav

Peak level 99.9 %
Extraction speed 3.7 X
Track quality 100.0 %
Test CRC 93FED707
Copy CRC 93FED707
Accurately ripped (confidence 7) [A2173D09] (AR v2)
Copy OK

Track 23

Filename C:\EAC\23 - Spike Jones - All I Want For Christmas Is My Two Front Teeth.wav

Peak level 99.9 %
Extraction speed 3.6 X
Track quality 100.0 %
Test CRC E6815BCA
Copy CRC E6815BCA
Accurately ripped (confidence 7) [8246693D] (AR v2)
Copy OK

Track 24

Filename C:\EAC\24 - Ray Charles - Christmas Time.wav

Peak level 99.9 %
Extraction speed 3.9 X
Track quality 100.0 %
Test CRC 1C45F701
Copy CRC 1C45F701
Accurately ripped (confidence 7) [190A4490] (AR v2)
Copy OK

Track 25

Filename C:\EAC\25 - Fred Waring - The Night Before Christmas.wav

Peak level 100.0 %
Extraction speed 3.5 X
Track quality 100.0 %
Test CRC 378DB4E3
Copy CRC 378DB4E3
Accurately ripped (confidence 7) [C2D6B676] (AR v2)
Copy OK


All tracks accurately ripped

No errors occurred

End of status report

–– CUETools DB Plugin V2.1.6

[CTDB TOCID: 4QRcUPRLJzmjsOBXveirYqzLPTU-] found
Submit result: 4QRcUPRLJzmjsOBXveirYqzLPTU- has been confirmed
Track | CTDB Status
1 | (24/24) Accurately ripped
2 | (24/24) Accurately ripped
3 | (24/24) Accurately ripped
4 | (24/24) Accurately ripped
5 | (24/24) Accurately ripped
6 | (24/24) Accurately ripped
7 | (24/24) Accurately ripped
8 | (24/24) Accurately ripped
9 | (24/24) Accurately ripped
10 | (23/24) Accurately ripped
11 | (24/24) Accurately ripped
12 | (24/24) Accurately ripped
13 | (23/24) Accurately ripped
14 | (24/24) Accurately ripped
15 | (23/24) Accurately ripped
16 | (24/24) Accurately ripped
17 | (24/24) Accurately ripped
18 | (24/24) Accurately ripped
19 | (23/24) Accurately ripped
20 | (23/24) Accurately ripped
21 | (24/24) Accurately ripped
22 | (24/24) Accurately ripped
23 | (22/24) Accurately ripped
24 | (22/24) Accurately ripped
25 | (24/24) Accurately ripped


==== Log checksum 7B5CC80206DDD100090E2920346F9112A9E6D60767EA8F5510C8D06519507344 ====

foobar2000 1.2 / Dynamic Range Meter 1.1.1
log date: 2016-11-22 21:08:44

––––––––––––––––––––––––––––––––––––––––
Analyzed: Andy Williams / The Ultimate Christmas Album Volume 3 (1)
Bing Crosby / The Ultimate Christmas Album Volume 3 (2)
Bobby Vinton / The Ultimate Christmas Album Volume 3 (3)
Burt Bacharach / The Ultimate Christmas Album Volume 3 (4)
Darlene Love / The Ultimate Christmas Album Volume 3 (5)
Dion / The Ultimate Christmas Album Volume 3 (6)
Donald O'Connor & Debbie Reynolds / The Ultimate Christmas Album Volume 3 (7)
Eartha Kitt / The Ultimate Christmas Album Volume 3 (8)
Fred Waring / The Ultimate Christmas Album Volume 3 (9)
Johnny Mathis / The Ultimate Christmas Album Volume 3 (10)
Jose Feliciano / The Ultimate Christmas Album Volume 3 (11)
Larry Chance & The Earls / The Ultimate Christmas Album Volume 3 (12)
Lou Christie (with University of Pittsburgh Men's Glee Club) / The Ultimate Christmas Album Volume 3 (13)
Mavis Staples / The Ultimate Christmas Album Volume 3 (14)
Nat King Cole / The Ultimate Christmas Album Volume 3 (15)
Paul Anka / The Ultimate Christmas Album Volume 3 (16)
Percy Faith / The Ultimate Christmas Album Volume 3 (17)
Perry Como / The Ultimate Christmas Album Volume 3 (18)
Ray Charles / The Ultimate Christmas Album Volume 3 (19)
Santa's Doo Wop Helpers (Larry Chance, Johnny Maestro, Bobby Jay, & Joel Katz) / The Ultimate Christmas Album Volume 3 (20)
Spike Jones / The Ultimate Christmas Album Volume 3 (21)
The Impressions / The Ultimate Christmas Album Volume 3 (22)
The Singing Dogs / The Ultimate Christmas Album Volume 3 (23)
The Supremes / The Ultimate Christmas Album Volume 3 (24)
The Ventures / The Ultimate Christmas Album Volume 3 (25)
––––––––––––––––––––––––––––––––––––––––

DR Peak RMS Duration Track
––––––––––––––––––––––––––––––––––––––––
DR10 0.00 dB -12.90 dB 2:37 18-Happy Holidays
DR11 0.00 dB -13.00 dB 3:04 14-White Christmas
DR10 0.00 dB -13.41 dB 2:44 04-Santa Claus Is Coming To Town
DR12 0.00 dB -14.66 dB 2:34 11-The Bell That Couldn't Jingle
DR12 0.00 dB -14.09 dB 4:10 02-All Alone On Christmas
DR12 0.00 dB -13.43 dB 2:32 17-Rockin' Aroudn The Christmas Tree
DR12 0.00 dB -14.70 dB 3:11 16-Chrissy The Christmas Mouse
DR13 0.00 dB -15.55 dB 3:25 21-Santa Baby
DR10 0.00 dB -12.90 dB 2:19 25-The Night Before Christmas
DR11 0.00 dB -14.28 dB 3:17 07-Winter Wonderland
DR11 0.00 dB -13.22 dB 3:05 12-Feliz Navidad
DR13 0.00 dB -15.51 dB 4:14 03-I'll Be Home For Christmas
DR12 0.00 dB -16.34 dB 2:58 13-O Holy Night
DR13 0.00 dB -15.86 dB 3:21 10-Christmas Vacation
DR9 0.00 dB -11.13 dB 3:09 01-The Christmas Song
DR10 0.00 dB -12.84 dB 3:06 15-It's Christmas Everywhere
DR10 0.00 dB -12.15 dB 2:09 20-We Need A Little Christmas
DR10 0.00 dB -12.36 dB 2:54 09-Home For The Holidays
DR11 0.00 dB -13.39 dB 4:27 24-Christmas Time
DR11 0.00 dB -15.60 dB 4:26 22-All I Want For Christmas Is You
DR13 0.00 dB -15.80 dB 3:08 23-All I Want For Christmas Is My Two Front Teeth
DR12 0.00 dB -14.01 dB 3:29 19-Amen
DR12 -1.71 dB -15.22 dB 1:42 05-Jingle Bells
DR12 0.00 dB -13.92 dB 3:03 06-Twinkle Twinkle Little Me
DR12 0.00 dB -13.92 dB 2:20 08-Sleigh Ride
––––––––––––––––––––––––––––––––––––––––

Number of tracks: 25
Official DR value: DR11

Samplerate: 44100 Hz
Channels: 2
Bits per sample: 16
Bitrate: 911 kbps
Codec: FLAC
================================================================================

VA - The Ultimate Christmas Album, WCBS-FM 101.1, Vol. 3 (1996)

VA - The Ultimate Christmas Album, WCBS-FM 101.1, Vol. 3 (1996)