Subcategories

VA - Ultimate Eighties The Classics (5CD, 2019)

Posted By: ciklon5
VA - Ultimate Eighties The Classics (5CD, 2019)

VA - Ultimate Eighties The Classics (5CD, 2019)
Flac tracks+cue+log+scans | 6:25:13 | 2,6 Gb
Genre: Pop, Rock, Soul, Disco / Label: Ultimate Collection

Ultimate Eighties – The Classics presents 100 of the best-loved songs of the decade that defined a generation and catapulted pop music into the stratosphere, with high-tech production methods and the rise of the music video. Revel in ‘80s classics from Duran Duran, Roxette, The B-52’s, Kylie Minogue, Sister Sledge, Thompson Twins and many more.

Track List:
Disc: 1
1. Rio - Duran Duran
2. Take on Me - a-ha
3. Imagination - Belouis Some
4. Mirror in the Bathroom - The Beat
5. Baggy Trousers - Madness
6. Too Shy - Kajagoogoo
7. Broken Land - The Adventures
8. Party Fears Two (2016 Remaster) - The Associates
9. Good Tradition - Tanita Tikaram
10. All Day and All of the Night - The Stranglers
11. Just Like Honey - The Jesus And Mary Chain
12. Rapper's Delight (Single Version) - The Sugarhill Gang
13. A Night To Remember - Shalamar
14. You Gave Me Love (7" Single Edit) - Crown Heights Affair
15. Suspicious Minds - Candi Staton
16. Sweet Love - Anita Baker
17. Every Kinda People - Mint Juleps
18. Don't Get Me Wrong - Pretenders
19. Too Many Broken Hearts - Jason Donovan
20. You'll Never Stop Me Loving You - Sonia
21. Call Me - Spagna

Disc: 2
1. Respectable - Mel & Kim
2. The Look - Roxette
3. I Want To Wake Up With You - Boris Gardiner
4. Girlie Girlie - Sophia George
5. True (Single Edit) - Spandau Ballet
6. Making Your Mind Up - Bucks Fizz
7. Life in a Northern Town - The Dream Academy
8. I Keep Forgettin' (Every Time You're Near) - Michael McDonald
9. Casanova (Single Version) - Coffee
10. Never Ending Story - Limahl
11. Big in Japan - Alphaville
12. Nothing Can Divide Us - Jason Donovan
13. Kayleigh - Marillion
14. Lean on Me (Ah-li-ayo) - Red Box
15. Cry Boy Cry - Blue Zoo
16. Doctor Doctor - Thompson Twins
17. Shake Your Love - Debbie Gibson
18. Wait (feat. Kym Mazelle) - The Blow Monkeys
19. Feel so Real - Steve Arrington
20. Special Brew - Bad Manners

Disc: 3
1. The Loco-Motion - Kylie Minogue
2. Frankie - Sister Sledge
3. Digging Your Scene - The Blow Monkeys
4. Somewhere in My Heart - Aztec Camera
5. This Ole House - Shakin' Stevens
6. Rock This Town - Stray Cats
7. Heartache Avenue - The Maisonettes
8. What's the Colour of Money - Hollywood Beyond
9. People Hold On - Coldcut & Lisa Stansfield
10. Never Gonna Give You Up - Rick Astley
11. I'm Gonna Be (500 Miles) - The Proclaimers
12. Touch Me (I Want Your Body) - Samantha Fox
13. I Want Her - Keith Sweat
14. It's A Love Thing - The Whispers
15. Suddenly (7" Mix) - Angry Anderson
16. Life's What You Make It - Talk Talk
17. The Killing Moon - Echo And The Bunnymen
18. Owner of a Lonely Heart - Yes
19. Do It To The Music - Raw Silk
20. Doctorin' the House (feat. Yazz & The Plastic Population) - Coldcut

Disc: 4
1. Love Shack - The B-52's
2. I Feel for You - Chaka Khan
3. The Land Of Make Believe - Bucks Fizz
4. All Cried Out - Alison Moyet
5. Hold Me Now - Thompson Twins
6. Hungry Like the Wolf - Duran Duran
7. Geno - Dexys Midnight Runners
8. Duel - Propaganda
9. Love Changes (Everything) - Climie Fisher
10. Self Control - Laura Branigan
11. Midas Touch - Midnight Star
12. 99 Red Balloons - Nena
13. You To Me Are Everything - The Real Thing
14. Quiet Life - Japan
15. White Lines (Don't Do It) - Grandmaster Flash
16. House of Fun - Madness
17. Move Over Darling - Tracey Ullman
18. Kokomo - The Beach Boys
19. Nellie the Elephant (Stereo Version) - Toy Dolls
20. You'll Always Find Me In the Kitchen at Parties - Jona Lewie

Disc: 5
1. The Message - Grandmaster Flash & The Furious Five
2. Please Don't Go - KC & The Sunshine Band
3. One Day I'll Fly Away - Randy Crawford
4. Superwoman - Karyn White
5. I'd Rather Jack - The Reynolds Girls
6. Yeh Yeh - Matt Bianco
7. Say I'm Your No. 1 - Princess
8. My Camera Never Lies - Bucks Fizz
9. Only in My Dreams - Debbie Gibson
10. Everybody's Got To Learn Sometime - The Korgis
11. Casanova (Vocal-Edit) - Levert
12. Each Time You Break My Heart - Nick Kamen
13. I Can't Wait - Nu Shooz
14. Ain't Nobody - Rufus and Chaka Khan
15. Weak in the Presence of Beauty (2009 Remastered) - Alison Moyet
16. Is It a Dream - Classix Nouveaux
17. Golden Brown - The Stranglers
18. You Take Me Up - Thompson Twins
19. Wishing (I Had a Photograph of You) - A Flock of Seagulls

Exact Audio Copy V1.3 from 2. September 2016

EAC extraction logfile from 13. June 2019, 20:48

Various / Ultimate Eighties - The Classics - CD1

Used drive : ATAPI iHAS124 Y Adapter: 1 ID: 0

Read mode : Secure
Utilize accurate stream : Yes
Defeat audio cache : No
Make use of C2 pointers : Yes

Read offset correction : 48
Overread into Lead-In and Lead-Out : No
Fill up missing offset samples with silence : Yes
Delete leading and trailing silent blocks : No
Null samples used in CRC calculations : Yes
Used interface : Native Win32 interface for Win NT & 2000
Gap handling : Not detected, thus appended to previous track

Used output format : User Defined Encoder
Selected bitrate : 896 kBit/s
Quality : High
Add ID3 tag : No
Command line compressor : C:\Program Files (x86)\Exact Audio Copy\FLAC\FLAC.EXE
Additional command line options : -6 -V -T "ARTIST=%artist%" -T "TITLE=%title%" -T "ALBUM=%albumtitle%" -T "DATE=%year%" -T "TRACKNUMBER=%tracknr%" -T "GENRE=%genre%" -T "COMMENT=%comment%" -T "BAND=%albuminterpret%" -T "ALBUMARTIST=%albuminterpret%" -T "COMPOSER=%composer%" %haslyrics%–tag-from-file=LYRICS="%lyricsfile%"%haslyrics% -T "DISCNUMBER=%cdnumber%" -T "TOTALDISCS=%totalcds%" -T "TOTALTRACKS=%numtracks%" %hascover%–picture="%coverfile%"%hascover% %source% -o %dest%


TOC of the extracted CD

Track | Start | Length | Start sector | End sector
––––––––––––––––––––––––––––-
1 | 0:00.00 | 5:12.65 | 0 | 23464
2 | 5:12.65 | 3:46.27 | 23465 | 40441
3 | 8:59.17 | 3:34.21 | 40442 | 56512
4 | 12:33.38 | 3:05.45 | 56513 | 70432
5 | 15:39.08 | 2:46.69 | 70433 | 82951
6 | 18:26.02 | 3:42.64 | 82952 | 99665
7 | 22:08.66 | 5:01.70 | 99666 | 122310
8 | 27:10.61 | 4:07.05 | 122311 | 140840
9 | 31:17.66 | 2:50.31 | 140841 | 153621
10 | 34:08.22 | 2:30.73 | 153622 | 164944
11 | 36:39.20 | 3:02.66 | 164945 | 178660
12 | 39:42.11 | 3:56.30 | 178661 | 196390
13 | 43:38.41 | 3:31.18 | 196391 | 212233
14 | 47:09.59 | 3:41.38 | 212234 | 228846
15 | 50:51.22 | 3:50.45 | 228847 | 246141
16 | 54:41.67 | 4:22.51 | 246142 | 265842
17 | 59:04.43 | 4:19.11 | 265843 | 285278
18 | 63:23.54 | 3:47.34 | 285279 | 302337
19 | 67:11.13 | 3:25.29 | 302338 | 317741
20 | 70:36.42 | 3:24.23 | 317742 | 333064
21 | 74:00.65 | 4:05.24 | 333065 | 351463


Track 1

Filename A:\PsPBuRnOuT's MUSIC\SORTED BY YEAR\1980s\ULTIMATE EIGHTIES - THE CLASSICS\ULTIMATE EIGHTIES - THE CLASSICS - CD1\01.Duran Duran - Rio.wav

Peak level 86.0 %
Extraction speed 15.7 X
Track quality 100.0 %
Copy CRC AD2298CB
Track not present in AccurateRip database
Copy OK

Track 2

Filename A:\PsPBuRnOuT's MUSIC\SORTED BY YEAR\1980s\ULTIMATE EIGHTIES - THE CLASSICS\ULTIMATE EIGHTIES - THE CLASSICS - CD1\02.A-Ha - Take On Me.wav

Peak level 95.8 %
Extraction speed 21.7 X
Track quality 100.0 %
Copy CRC 7D338085
Track not present in AccurateRip database
Copy OK

Track 3

Filename A:\PsPBuRnOuT's MUSIC\SORTED BY YEAR\1980s\ULTIMATE EIGHTIES - THE CLASSICS\ULTIMATE EIGHTIES - THE CLASSICS - CD1\03.Belouis Some - Imagination.wav

Peak level 100.0 %
Extraction speed 23.3 X
Track quality 100.0 %
Copy CRC FAD902F8
Track not present in AccurateRip database
Copy OK

Track 4

Filename A:\PsPBuRnOuT's MUSIC\SORTED BY YEAR\1980s\ULTIMATE EIGHTIES - THE CLASSICS\ULTIMATE EIGHTIES - THE CLASSICS - CD1\04.The Beat - Mirror In The Bathroom.wav

Peak level 100.0 %
Extraction speed 24.6 X
Track quality 100.0 %
Copy CRC E908E05F
Track not present in AccurateRip database
Copy OK

Track 5

Filename A:\PsPBuRnOuT's MUSIC\SORTED BY YEAR\1980s\ULTIMATE EIGHTIES - THE CLASSICS\ULTIMATE EIGHTIES - THE CLASSICS - CD1\05.Madness - Baggy Trousers.wav

Peak level 82.2 %
Extraction speed 24.2 X
Track quality 100.0 %
Copy CRC 9AA39F7B
Track not present in AccurateRip database
Copy OK

Track 6

Filename A:\PsPBuRnOuT's MUSIC\SORTED BY YEAR\1980s\ULTIMATE EIGHTIES - THE CLASSICS\ULTIMATE EIGHTIES - THE CLASSICS - CD1\06.Kajagoogoo - Too Shy.wav

Peak level 100.0 %
Extraction speed 26.6 X
Track quality 100.0 %
Copy CRC ED166C07
Track not present in AccurateRip database
Copy OK

Track 7

Filename A:\PsPBuRnOuT's MUSIC\SORTED BY YEAR\1980s\ULTIMATE EIGHTIES - THE CLASSICS\ULTIMATE EIGHTIES - THE CLASSICS - CD1\07.The Adventures - Broken Land.wav

Peak level 100.0 %
Extraction speed 27.1 X
Track quality 100.0 %
Copy CRC FECB161C
Track not present in AccurateRip database
Copy OK

Track 8

Filename A:\PsPBuRnOuT's MUSIC\SORTED BY YEAR\1980s\ULTIMATE EIGHTIES - THE CLASSICS\ULTIMATE EIGHTIES - THE CLASSICS - CD1\08.The Associates - Party Fears Two.wav

Peak level 97.7 %
Extraction speed 29.6 X
Track quality 100.0 %
Copy CRC E81ECE5A
Track not present in AccurateRip database
Copy OK

Track 9

Filename A:\PsPBuRnOuT's MUSIC\SORTED BY YEAR\1980s\ULTIMATE EIGHTIES - THE CLASSICS\ULTIMATE EIGHTIES - THE CLASSICS - CD1\09.Tanita Tikaram - Good Tradition.wav

Peak level 92.3 %
Extraction speed 28.8 X
Track quality 100.0 %
Copy CRC 6AE0CB3A
Track not present in AccurateRip database
Copy OK

Track 10

Filename A:\PsPBuRnOuT's MUSIC\SORTED BY YEAR\1980s\ULTIMATE EIGHTIES - THE CLASSICS\ULTIMATE EIGHTIES - THE CLASSICS - CD1\10.The Stranglers - All Day And All Of The Night.wav

Peak level 100.0 %
Extraction speed 29.4 X
Track quality 100.0 %
Copy CRC 88A3E8B7
Track not present in AccurateRip database
Copy OK

Track 11

Filename A:\PsPBuRnOuT's MUSIC\SORTED BY YEAR\1980s\ULTIMATE EIGHTIES - THE CLASSICS\ULTIMATE EIGHTIES - THE CLASSICS - CD1\11.Jesus And Mary Chain - Just Like Honey.wav

Peak level 96.9 %
Extraction speed 30.2 X
Track quality 100.0 %
Copy CRC 93F8755E
Track not present in AccurateRip database
Copy OK

Track 12

Filename A:\PsPBuRnOuT's MUSIC\SORTED BY YEAR\1980s\ULTIMATE EIGHTIES - THE CLASSICS\ULTIMATE EIGHTIES - THE CLASSICS - CD1\12.The Sugar Hill Gang - Rapper's Delight.wav

Peak level 84.8 %
Extraction speed 29.8 X
Track quality 100.0 %
Copy CRC 6B54105A
Track not present in AccurateRip database
Copy OK

Track 13

Filename A:\PsPBuRnOuT's MUSIC\SORTED BY YEAR\1980s\ULTIMATE EIGHTIES - THE CLASSICS\ULTIMATE EIGHTIES - THE CLASSICS - CD1\13.Shalamar - A Night To Remember.wav

Peak level 91.5 %
Extraction speed 27.1 X
Track quality 99.8 %
Copy CRC C3230564
Track not present in AccurateRip database
Copy OK

Track 14

Filename A:\PsPBuRnOuT's MUSIC\SORTED BY YEAR\1980s\ULTIMATE EIGHTIES - THE CLASSICS\ULTIMATE EIGHTIES - THE CLASSICS - CD1\14.Crown Heights Affair - You Gave Me Love.wav

Peak level 100.0 %
Extraction speed 27.4 X
Track quality 100.0 %
Copy CRC 40EFABF7
Track not present in AccurateRip database
Copy OK

Track 15

Filename A:\PsPBuRnOuT's MUSIC\SORTED BY YEAR\1980s\ULTIMATE EIGHTIES - THE CLASSICS\ULTIMATE EIGHTIES - THE CLASSICS - CD1\15.Candi Staton - Suspicious Minds.wav

Peak level 100.0 %
Extraction speed 33.7 X
Track quality 100.0 %
Copy CRC 9A70C91E
Track not present in AccurateRip database
Copy OK

Track 16

Filename A:\PsPBuRnOuT's MUSIC\SORTED BY YEAR\1980s\ULTIMATE EIGHTIES - THE CLASSICS\ULTIMATE EIGHTIES - THE CLASSICS - CD1\16.Anita Baker - Sweet Love.wav

Peak level 93.8 %
Extraction speed 37.0 X
Track quality 100.0 %
Copy CRC 99CB8A06
Track not present in AccurateRip database
Copy OK

Track 17

Filename A:\PsPBuRnOuT's MUSIC\SORTED BY YEAR\1980s\ULTIMATE EIGHTIES - THE CLASSICS\ULTIMATE EIGHTIES - THE CLASSICS - CD1\17.Mint Juleps - Every Kinda People.wav

Peak level 92.2 %
Extraction speed 37.7 X
Track quality 100.0 %
Copy CRC 17902A07
Track not present in AccurateRip database
Copy OK

Track 18

Filename A:\PsPBuRnOuT's MUSIC\SORTED BY YEAR\1980s\ULTIMATE EIGHTIES - THE CLASSICS\ULTIMATE EIGHTIES - THE CLASSICS - CD1\18.Pretenders - Don't Get Me Wrong.wav

Peak level 89.1 %
Extraction speed 35.3 X
Track quality 100.0 %
Copy CRC 1FD393DA
Track not present in AccurateRip database
Copy OK

Track 19

Filename A:\PsPBuRnOuT's MUSIC\SORTED BY YEAR\1980s\ULTIMATE EIGHTIES - THE CLASSICS\ULTIMATE EIGHTIES - THE CLASSICS - CD1\19.Jason Donovan - Too Many Broken Hearts.wav

Peak level 84.0 %
Extraction speed 36.4 X
Track quality 100.0 %
Copy CRC DDEF50AA
Track not present in AccurateRip database
Copy OK

Track 20

Filename A:\PsPBuRnOuT's MUSIC\SORTED BY YEAR\1980s\ULTIMATE EIGHTIES - THE CLASSICS\ULTIMATE EIGHTIES - THE CLASSICS - CD1\20.Sonia - You'll Never Stop Me Loving You.wav

Peak level 85.3 %
Extraction speed 39.7 X
Track quality 100.0 %
Copy CRC 00856690
Track not present in AccurateRip database
Copy OK

Track 21

Filename A:\PsPBuRnOuT's MUSIC\SORTED BY YEAR\1980s\ULTIMATE EIGHTIES - THE CLASSICS\ULTIMATE EIGHTIES - THE CLASSICS - CD1\21.Spagna - Call Me.wav

Peak level 91.2 %
Extraction speed 39.5 X
Track quality 100.0 %
Copy CRC 587B0A88
Track not present in AccurateRip database
Copy OK


None of the tracks are present in the AccurateRip database

No errors occurred

End of status report

–– CUETools DB Plugin V2.1.6

[CTDB TOCID: g4cXztBcFYerYmQJDmyjWVzWTRQ-] disk not present in database
Submit result: g4cXztBcFYerYmQJDmyjWVzWTRQ- has been uploaded

Exact Audio Copy V1.3 from 2. September 2016

EAC extraction logfile from 14. June 2019, 7:26

Various / Ultimate Eighties - The Classics - CD2

Used drive : ATAPI iHAS124 Y Adapter: 1 ID: 0

Read mode : Secure
Utilize accurate stream : Yes
Defeat audio cache : No
Make use of C2 pointers : Yes

Read offset correction : 48
Overread into Lead-In and Lead-Out : No
Fill up missing offset samples with silence : Yes
Delete leading and trailing silent blocks : No
Null samples used in CRC calculations : Yes
Used interface : Native Win32 interface for Win NT & 2000
Gap handling : Not detected, thus appended to previous track

Used output format : User Defined Encoder
Selected bitrate : 896 kBit/s
Quality : High
Add ID3 tag : No
Command line compressor : C:\Program Files (x86)\Exact Audio Copy\FLAC\FLAC.EXE
Additional command line options : -6 -V -T "ARTIST=%artist%" -T "TITLE=%title%" -T "ALBUM=%albumtitle%" -T "DATE=%year%" -T "TRACKNUMBER=%tracknr%" -T "GENRE=%genre%" -T "COMMENT=%comment%" -T "BAND=%albuminterpret%" -T "ALBUMARTIST=%albuminterpret%" -T "COMPOSER=%composer%" %haslyrics%–tag-from-file=LYRICS="%lyricsfile%"%haslyrics% -T "DISCNUMBER=%cdnumber%" -T "TOTALDISCS=%totalcds%" -T "TOTALTRACKS=%numtracks%" %hascover%–picture="%coverfile%"%hascover% %source% -o %dest%


TOC of the extracted CD

Track | Start | Length | Start sector | End sector
––––––––––––––––––––––––––––-
1 | 0:00.00 | 3:22.06 | 0 | 15155
2 | 3:22.06 | 3:57.42 | 15156 | 32972
3 | 7:19.48 | 2:55.29 | 32973 | 46126
4 | 10:15.02 | 3:04.70 | 46127 | 59996
5 | 13:19.72 | 5:30.32 | 59997 | 84778
6 | 18:50.29 | 2:38.26 | 84779 | 96654
7 | 21:28.55 | 4:17.62 | 96655 | 115991
8 | 25:46.42 | 3:40.41 | 115992 | 132532
9 | 29:27.08 | 4:00.53 | 132533 | 150585
10 | 33:27.61 | 3:30.69 | 150586 | 166404
11 | 36:58.55 | 3:51.11 | 166405 | 183740
12 | 40:49.66 | 3:45.66 | 183741 | 200681
13 | 44:35.57 | 4:01.06 | 200682 | 218762
14 | 48:36.63 | 4:24.45 | 218763 | 238607
15 | 53:01.33 | 4:25.08 | 238608 | 258490
16 | 57:26.41 | 4:38.37 | 258491 | 279377
17 | 62:05.03 | 3:42.14 | 279378 | 296041
18 | 65:47.17 | 3:08.52 | 296042 | 310193
19 | 68:55.69 | 5:07.38 | 310194 | 333256
20 | 74:03.32 | 3:34.70 | 333257 | 349376


Track 1

Filename A:\PsPBuRnOuT's MUSIC\SORTED BY YEAR\1980s\ULTIMATE EIGHTIES - THE CLASSICS\ULTIMATE EIGHTIES - THE CLASSICS - CD2\01.Mel & Kim - Respectable.wav

Peak level 89.1 %
Extraction speed 12.2 X
Track quality 100.0 %
Copy CRC BE743ADF
Track not present in AccurateRip database
Copy OK

Track 2

Filename A:\PsPBuRnOuT's MUSIC\SORTED BY YEAR\1980s\ULTIMATE EIGHTIES - THE CLASSICS\ULTIMATE EIGHTIES - THE CLASSICS - CD2\02.Roxette - The Look.wav

Peak level 88.1 %
Extraction speed 19.9 X
Track quality 100.0 %
Copy CRC 1BB89990
Track not present in AccurateRip database
Copy OK

Track 3

Filename A:\PsPBuRnOuT's MUSIC\SORTED BY YEAR\1980s\ULTIMATE EIGHTIES - THE CLASSICS\ULTIMATE EIGHTIES - THE CLASSICS - CD2\03.Boris Gardiner - I Want To Wake Up With You.wav

Peak level 89.1 %
Extraction speed 22.6 X
Track quality 100.0 %
Copy CRC E0B429E2
Track not present in AccurateRip database
Copy OK

Track 4

Filename A:\PsPBuRnOuT's MUSIC\SORTED BY YEAR\1980s\ULTIMATE EIGHTIES - THE CLASSICS\ULTIMATE EIGHTIES - THE CLASSICS - CD2\04.Sophia George - Girlie, Girlie.wav

Peak level 89.0 %
Extraction speed 23.8 X
Track quality 100.0 %
Copy CRC 00705F45
Track not present in AccurateRip database
Copy OK

Track 5

Filename A:\PsPBuRnOuT's MUSIC\SORTED BY YEAR\1980s\ULTIMATE EIGHTIES - THE CLASSICS\ULTIMATE EIGHTIES - THE CLASSICS - CD2\05.Spandau Ballet - True.wav

Peak level 100.0 %
Extraction speed 24.3 X
Track quality 100.0 %
Copy CRC DA036E60
Track not present in AccurateRip database
Copy OK

Track 6

Filename A:\PsPBuRnOuT's MUSIC\SORTED BY YEAR\1980s\ULTIMATE EIGHTIES - THE CLASSICS\ULTIMATE EIGHTIES - THE CLASSICS - CD2\06.Bucks Fizz - Making Your Mind Up.wav

Peak level 81.2 %
Extraction speed 25.0 X
Track quality 100.0 %
Copy CRC ECBCDA29
Track not present in AccurateRip database
Copy OK

Track 7

Filename A:\PsPBuRnOuT's MUSIC\SORTED BY YEAR\1980s\ULTIMATE EIGHTIES - THE CLASSICS\ULTIMATE EIGHTIES - THE CLASSICS - CD2\07.The Dream Academy - Life In A Northern Town.wav

Peak level 100.0 %
Extraction speed 27.9 X
Track quality 100.0 %
Copy CRC 34C365F5
Track not present in AccurateRip database
Copy OK

Track 8

Filename A:\PsPBuRnOuT's MUSIC\SORTED BY YEAR\1980s\ULTIMATE EIGHTIES - THE CLASSICS\ULTIMATE EIGHTIES - THE CLASSICS - CD2\08.Michael McDonald - I Keep Forgettin' (Every Time You're Near).wav

Peak level 100.0 %
Extraction speed 29.2 X
Track quality 100.0 %
Copy CRC 2858AAA4
Track not present in AccurateRip database
Copy OK

Track 9

Filename A:\PsPBuRnOuT's MUSIC\SORTED BY YEAR\1980s\ULTIMATE EIGHTIES - THE CLASSICS\ULTIMATE EIGHTIES - THE CLASSICS - CD2\09.Coffee - Casanova.wav

Peak level 100.0 %
Extraction speed 30.3 X
Track quality 100.0 %
Copy CRC E9537E94
Track not present in AccurateRip database
Copy OK

Track 10

Filename A:\PsPBuRnOuT's MUSIC\SORTED BY YEAR\1980s\ULTIMATE EIGHTIES - THE CLASSICS\ULTIMATE EIGHTIES - THE CLASSICS - CD2\10.Limahl - Never Ending Story.wav

Peak level 100.0 %
Extraction speed 25.0 X
Track quality 99.8 %
Copy CRC DF177E55
Track not present in AccurateRip database
Copy OK

Track 11

Filename A:\PsPBuRnOuT's MUSIC\SORTED BY YEAR\1980s\ULTIMATE EIGHTIES - THE CLASSICS\ULTIMATE EIGHTIES - THE CLASSICS - CD2\11.Alphaville - Big In Japan.wav

Peak level 100.0 %
Extraction speed 24.8 X
Track quality 100.0 %
Copy CRC 7E8875EF
Track not present in AccurateRip database
Copy OK

Track 12

Filename A:\PsPBuRnOuT's MUSIC\SORTED BY YEAR\1980s\ULTIMATE EIGHTIES - THE CLASSICS\ULTIMATE EIGHTIES - THE CLASSICS - CD2\12.Jason Donovan - Nothing Can Divide Us.wav

Peak level 84.2 %
Extraction speed 30.5 X
Track quality 100.0 %
Copy CRC 1E3F7E2D
Track not present in AccurateRip database
Copy OK

Track 13

Filename A:\PsPBuRnOuT's MUSIC\SORTED BY YEAR\1980s\ULTIMATE EIGHTIES - THE CLASSICS\ULTIMATE EIGHTIES - THE CLASSICS - CD2\13.Marillion - Kayleigh.wav

Peak level 94.1 %
Extraction speed 33.2 X
Track quality 100.0 %
Copy CRC 3C72B7E5
Track not present in AccurateRip database
Copy OK

Track 14

Filename A:\PsPBuRnOuT's MUSIC\SORTED BY YEAR\1980s\ULTIMATE EIGHTIES - THE CLASSICS\ULTIMATE EIGHTIES - THE CLASSICS - CD2\14.Red Box - Lean On Me (Ah-Li-Ayo).wav

Peak level 100.0 %
Extraction speed 34.7 X
Track quality 100.0 %
Copy CRC B6678620
Track not present in AccurateRip database
Copy OK

Track 15

Filename A:\PsPBuRnOuT's MUSIC\SORTED BY YEAR\1980s\ULTIMATE EIGHTIES - THE CLASSICS\ULTIMATE EIGHTIES - THE CLASSICS - CD2\15.Blue Zoo - Cry Boy Cry.wav

Peak level 79.4 %
Extraction speed 29.1 X
Track quality 99.9 %
Copy CRC 29D632A0
Track not present in AccurateRip database
Copy OK

Track 16

Filename A:\PsPBuRnOuT's MUSIC\SORTED BY YEAR\1980s\ULTIMATE EIGHTIES - THE CLASSICS\ULTIMATE EIGHTIES - THE CLASSICS - CD2\16.Thompson Twins - Doctor! Doctor!.wav

Peak level 100.0 %
Extraction speed 24.9 X
Track quality 99.9 %
Copy CRC C3FEA5A4
Track not present in AccurateRip database
Copy OK

Track 17

Filename A:\PsPBuRnOuT's MUSIC\SORTED BY YEAR\1980s\ULTIMATE EIGHTIES - THE CLASSICS\ULTIMATE EIGHTIES - THE CLASSICS - CD2\17.Debbie Gibson - Shake Your Love.wav

Peak level 100.0 %
Extraction speed 29.5 X
Track quality 100.0 %
Copy CRC EEED4A2F
Track not present in AccurateRip database
Copy OK

Track 18

Filename A:\PsPBuRnOuT's MUSIC\SORTED BY YEAR\1980s\ULTIMATE EIGHTIES - THE CLASSICS\ULTIMATE EIGHTIES - THE CLASSICS - CD2\18.The Blow Monkeys Feat. Kym Mazelle - Wait.wav

Peak level 100.0 %
Extraction speed 39.9 X
Track quality 100.0 %
Copy CRC 650FBCC9
Track not present in AccurateRip database
Copy OK

Track 19

Filename A:\PsPBuRnOuT's MUSIC\SORTED BY YEAR\1980s\ULTIMATE EIGHTIES - THE CLASSICS\ULTIMATE EIGHTIES - THE CLASSICS - CD2\19.Steve Arrington - Feel So Real.wav

Peak level 100.0 %
Extraction speed 31.9 X
Track quality 99.9 %
Copy CRC 3D893182
Track not present in AccurateRip database
Copy OK

Track 20

Filename A:\PsPBuRnOuT's MUSIC\SORTED BY YEAR\1980s\ULTIMATE EIGHTIES - THE CLASSICS\ULTIMATE EIGHTIES - THE CLASSICS - CD2\20.Bad Manners - Special Brew.wav

Peak level 100.0 %
Extraction speed 16.7 X
Track quality 99.8 %
Copy CRC B392209A
Track not present in AccurateRip database
Copy OK


None of the tracks are present in the AccurateRip database

No errors occurred

End of status report

–– CUETools DB Plugin V2.1.6

[CTDB TOCID: ZkshFQPmYnTEbS.sDzxDzZjz99Q-] disk not present in database
Submit result: ZkshFQPmYnTEbS.sDzxDzZjz99Q- has been uploaded

Exact Audio Copy V1.3 from 2. September 2016

EAC extraction logfile from 14. June 2019, 7:57

Various / Ultimate Eighties - The Classics - CD3

Used drive : ATAPI iHAS124 Y Adapter: 1 ID: 0

Read mode : Secure
Utilize accurate stream : Yes
Defeat audio cache : No
Make use of C2 pointers : Yes

Read offset correction : 48
Overread into Lead-In and Lead-Out : No
Fill up missing offset samples with silence : Yes
Delete leading and trailing silent blocks : No
Null samples used in CRC calculations : Yes
Used interface : Native Win32 interface for Win NT & 2000
Gap handling : Not detected, thus appended to previous track

Used output format : User Defined Encoder
Selected bitrate : 896 kBit/s
Quality : High
Add ID3 tag : No
Command line compressor : C:\Program Files (x86)\Exact Audio Copy\FLAC\FLAC.EXE
Additional command line options : -6 -V -T "ARTIST=%artist%" -T "TITLE=%title%" -T "ALBUM=%albumtitle%" -T "DATE=%year%" -T "TRACKNUMBER=%tracknr%" -T "GENRE=%genre%" -T "COMMENT=%comment%" -T "BAND=%albuminterpret%" -T "ALBUMARTIST=%albuminterpret%" -T "COMPOSER=%composer%" %haslyrics%–tag-from-file=LYRICS="%lyricsfile%"%haslyrics% -T "DISCNUMBER=%cdnumber%" -T "TOTALDISCS=%totalcds%" -T "TOTALTRACKS=%numtracks%" %hascover%–picture="%coverfile%"%hascover% %source% -o %dest%


TOC of the extracted CD

Track | Start | Length | Start sector | End sector
––––––––––––––––––––––––––––-
1 | 0:00.00 | 3:13.60 | 0 | 14534
2 | 3:13.60 | 4:16.01 | 14535 | 33735
3 | 7:29.61 | 4:04.55 | 33736 | 52090
4 | 11:34.41 | 3:56.68 | 52091 | 69858
5 | 15:31.34 | 3:05.44 | 69859 | 83777
6 | 18:37.03 | 2:39.41 | 83778 | 95743
7 | 21:16.44 | 2:54.33 | 95744 | 108826
8 | 24:11.02 | 3:25.69 | 108827 | 124270
9 | 27:36.71 | 3:57.62 | 124271 | 142107
10 | 31:34.58 | 3:33.24 | 142108 | 158106
11 | 35:08.07 | 3:36.70 | 158107 | 174376
12 | 38:45.02 | 3:43.18 | 174377 | 191119
13 | 42:28.20 | 3:40.72 | 191120 | 207691
14 | 46:09.17 | 3:47.32 | 207692 | 224748
15 | 49:56.49 | 3:52.30 | 224749 | 242178
16 | 53:49.04 | 3:40.17 | 242179 | 258695
17 | 57:29.21 | 5:46.33 | 258696 | 284678
18 | 63:15.54 | 4:24.65 | 284679 | 304543
19 | 67:40.44 | 3:33.41 | 304544 | 320559
20 | 71:14.10 | 3:45.56 | 320560 | 337490


Track 1

Filename A:\PsPBuRnOuT's MUSIC\SORTED BY YEAR\1980s\ULTIMATE EIGHTIES - THE CLASSICS\ULTIMATE EIGHTIES - THE CLASSICS - CD3\01.Kylie Minogue - The Loco-Motion.wav

Peak level 89.1 %
Extraction speed 14.4 X
Track quality 100.0 %
Copy CRC B865F9C1
Track not present in AccurateRip database
Copy OK

Track 2

Filename A:\PsPBuRnOuT's MUSIC\SORTED BY YEAR\1980s\ULTIMATE EIGHTIES - THE CLASSICS\ULTIMATE EIGHTIES - THE CLASSICS - CD3\02.Sister Sledge - Frankie.wav

Peak level 94.4 %
Extraction speed 21.0 X
Track quality 100.0 %
Copy CRC E925F672
Track not present in AccurateRip database
Copy OK

Track 3

Filename A:\PsPBuRnOuT's MUSIC\SORTED BY YEAR\1980s\ULTIMATE EIGHTIES - THE CLASSICS\ULTIMATE EIGHTIES - THE CLASSICS - CD3\03.The Blow Monkeys - Digging Your Scene.wav

Peak level 100.0 %
Extraction speed 19.5 X
Track quality 99.9 %
Copy CRC 828AAA79
Track not present in AccurateRip database
Copy OK

Track 4

Filename A:\PsPBuRnOuT's MUSIC\SORTED BY YEAR\1980s\ULTIMATE EIGHTIES - THE CLASSICS\ULTIMATE EIGHTIES - THE CLASSICS - CD3\04.Aztec Camera - Somewhere In My Heart.wav

Peak level 100.0 %
Extraction speed 19.1 X
Track quality 100.0 %
Copy CRC 641FE02C
Track not present in AccurateRip database
Copy OK

Track 5

Filename A:\PsPBuRnOuT's MUSIC\SORTED BY YEAR\1980s\ULTIMATE EIGHTIES - THE CLASSICS\ULTIMATE EIGHTIES - THE CLASSICS - CD3\05.Shakin' Stevens - This Ole House.wav

Peak level 74.4 %
Extraction speed 25.9 X
Track quality 100.0 %
Copy CRC 56E221D2
Track not present in AccurateRip database
Copy OK

Track 6

Filename A:\PsPBuRnOuT's MUSIC\SORTED BY YEAR\1980s\ULTIMATE EIGHTIES - THE CLASSICS\ULTIMATE EIGHTIES - THE CLASSICS - CD3\06.Stray Cats - Rock This Town.wav

Peak level 100.0 %
Extraction speed 25.1 X
Track quality 100.0 %
Copy CRC EDC31294
Track not present in AccurateRip database
Copy OK

Track 7

Filename A:\PsPBuRnOuT's MUSIC\SORTED BY YEAR\1980s\ULTIMATE EIGHTIES - THE CLASSICS\ULTIMATE EIGHTIES - THE CLASSICS - CD3\07.The Maisonettes - Heartache Avenue.wav

Peak level 78.6 %
Extraction speed 26.6 X
Track quality 100.0 %
Copy CRC 1A84497C
Track not present in AccurateRip database
Copy OK

Track 8

Filename A:\PsPBuRnOuT's MUSIC\SORTED BY YEAR\1980s\ULTIMATE EIGHTIES - THE CLASSICS\ULTIMATE EIGHTIES - THE CLASSICS - CD3\08.Hollywood Beyond - What's The Colour Of Money.wav

Peak level 94.1 %
Extraction speed 29.0 X
Track quality 100.0 %
Copy CRC CDE9DA1C
Track not present in AccurateRip database
Copy OK

Track 9

Filename A:\PsPBuRnOuT's MUSIC\SORTED BY YEAR\1980s\ULTIMATE EIGHTIES - THE CLASSICS\ULTIMATE EIGHTIES - THE CLASSICS - CD3\09.Coldcut Feat. Lisa Stansfield - People Hold On.wav

Peak level 100.0 %
Extraction speed 30.0 X
Track quality 100.0 %
Copy CRC 52356173
Track not present in AccurateRip database
Copy OK

Track 10

Filename A:\PsPBuRnOuT's MUSIC\SORTED BY YEAR\1980s\ULTIMATE EIGHTIES - THE CLASSICS\ULTIMATE EIGHTIES - THE CLASSICS - CD3\10.Rick Astley - Never Gonna Give You Up.wav

Peak level 99.2 %
Extraction speed 18.8 X
Track quality 99.9 %
Copy CRC 6ED7861B
Track not present in AccurateRip database
Copy OK

Track 11

Filename A:\PsPBuRnOuT's MUSIC\SORTED BY YEAR\1980s\ULTIMATE EIGHTIES - THE CLASSICS\ULTIMATE EIGHTIES - THE CLASSICS - CD3\11.The Proclaimers - I'm Gonna Be (5000 Miles).wav

Peak level 84.0 %
Extraction speed 30.4 X
Track quality 100.0 %
Copy CRC 0B255FC6
Track not present in AccurateRip database
Copy OK

Track 12

Filename A:\PsPBuRnOuT's MUSIC\SORTED BY YEAR\1980s\ULTIMATE EIGHTIES - THE CLASSICS\ULTIMATE EIGHTIES - THE CLASSICS - CD3\12.Samantha Fox - Touch Me (I Want Your Body).wav

Peak level 79.4 %
Extraction speed 31.9 X
Track quality 100.0 %
Copy CRC 1A4FF4C0
Track not present in AccurateRip database
Copy OK

Track 13

Filename A:\PsPBuRnOuT's MUSIC\SORTED BY YEAR\1980s\ULTIMATE EIGHTIES - THE CLASSICS\ULTIMATE EIGHTIES - THE CLASSICS - CD3\13.Keith Sweat - I Want Her.wav

Peak level 83.0 %
Extraction speed 33.4 X
Track quality 100.0 %
Copy CRC DF3C91D5
Track not present in AccurateRip database
Copy OK

Track 14

Filename A:\PsPBuRnOuT's MUSIC\SORTED BY YEAR\1980s\ULTIMATE EIGHTIES - THE CLASSICS\ULTIMATE EIGHTIES - THE CLASSICS - CD3\14.The Whispers - It's A Love Thing.wav

Peak level 91.4 %
Extraction speed 33.2 X
Track quality 100.0 %
Copy CRC E9578EFA
Track not present in AccurateRip database
Copy OK

Track 15

Filename A:\PsPBuRnOuT's MUSIC\SORTED BY YEAR\1980s\ULTIMATE EIGHTIES - THE CLASSICS\ULTIMATE EIGHTIES - THE CLASSICS - CD3\15.Angry Anderson - Suddenly.wav

Peak level 100.0 %
Extraction speed 35.3 X
Track quality 100.0 %
Copy CRC 1128898E
Track not present in AccurateRip database
Copy OK

Track 16

Filename A:\PsPBuRnOuT's MUSIC\SORTED BY YEAR\1980s\ULTIMATE EIGHTIES - THE CLASSICS\ULTIMATE EIGHTIES - THE CLASSICS - CD3\16.Talk Talk - Life's What you Make It.wav

Peak level 94.2 %
Extraction speed 36.8 X
Track quality 100.0 %
Copy CRC FA9D9B2F
Track not present in AccurateRip database
Copy OK

Track 17

Filename A:\PsPBuRnOuT's MUSIC\SORTED BY YEAR\1980s\ULTIMATE EIGHTIES - THE CLASSICS\ULTIMATE EIGHTIES - THE CLASSICS - CD3\17.Echo & The Bunnymen - The Killing Moon.wav

Peak level 100.0 %
Extraction speed 36.8 X
Track quality 100.0 %
Copy CRC 8813E7B1
Track not present in AccurateRip database
Copy OK

Track 18

Filename A:\PsPBuRnOuT's MUSIC\SORTED BY YEAR\1980s\ULTIMATE EIGHTIES - THE CLASSICS\ULTIMATE EIGHTIES - THE CLASSICS - CD3\18.Yes - Owner Of A Lonely Heart.wav

Peak level 93.3 %
Extraction speed 38.4 X
Track quality 100.0 %
Copy CRC 1F1455EB
Track not present in AccurateRip database
Copy OK

Track 19

Filename A:\PsPBuRnOuT's MUSIC\SORTED BY YEAR\1980s\ULTIMATE EIGHTIES - THE CLASSICS\ULTIMATE EIGHTIES - THE CLASSICS - CD3\19.Raw Silk - Do It To The Music.wav

Peak level 84.5 %
Extraction speed 37.8 X
Track quality 100.0 %
Copy CRC 4536AB95
Track not present in AccurateRip database
Copy OK

Track 20

Filename A:\PsPBuRnOuT's MUSIC\SORTED BY YEAR\1980s\ULTIMATE EIGHTIES - THE CLASSICS\ULTIMATE EIGHTIES - THE CLASSICS - CD3\20.Coldcut Feat. Yazz & The Plastic Population - Doctorin' The House.wav

Peak level 88.8 %
Extraction speed 40.1 X
Track quality 100.0 %
Copy CRC D40D1B58
Track not present in AccurateRip database
Copy OK


None of the tracks are present in the AccurateRip database

No errors occurred

End of status report

–– CUETools DB Plugin V2.1.6

[CTDB TOCID: GD5Z2X0nFnC1Muat2VkUSNqoKwk-] disk not present in database
Submit result: GD5Z2X0nFnC1Muat2VkUSNqoKwk- has been uploaded

Exact Audio Copy V1.3 from 2. September 2016

EAC extraction logfile from 14. June 2019, 11:25

Various / Ultimate Eighties - The Classics - CD4

Used drive : ATAPI iHAS124 Y Adapter: 1 ID: 0

Read mode : Secure
Utilize accurate stream : Yes
Defeat audio cache : No
Make use of C2 pointers : Yes

Read offset correction : 48
Overread into Lead-In and Lead-Out : No
Fill up missing offset samples with silence : Yes
Delete leading and trailing silent blocks : No
Null samples used in CRC calculations : Yes
Used interface : Native Win32 interface for Win NT & 2000
Gap handling : Not detected, thus appended to previous track

Used output format : User Defined Encoder
Selected bitrate : 896 kBit/s
Quality : High
Add ID3 tag : No
Command line compressor : C:\Program Files (x86)\Exact Audio Copy\FLAC\FLAC.EXE
Additional command line options : -6 -V -T "ARTIST=%artist%" -T "TITLE=%title%" -T "ALBUM=%albumtitle%" -T "DATE=%year%" -T "TRACKNUMBER=%tracknr%" -T "GENRE=%genre%" -T "COMMENT=%comment%" -T "BAND=%albuminterpret%" -T "ALBUMARTIST=%albuminterpret%" -T "COMPOSER=%composer%" %haslyrics%–tag-from-file=LYRICS="%lyricsfile%"%haslyrics% -T "DISCNUMBER=%cdnumber%" -T "TOTALDISCS=%totalcds%" -T "TOTALTRACKS=%numtracks%" %hascover%–picture="%coverfile%"%hascover% %source% -o %dest%


TOC of the extracted CD

Track | Start | Length | Start sector | End sector
––––––––––––––––––––––––––––-
1 | 0:00.00 | 5:22.53 | 0 | 24202
2 | 5:22.53 | 5:44.02 | 24203 | 50004
3 | 11:06.55 | 3:49.05 | 50005 | 67184
4 | 14:55.60 | 3:39.54 | 67185 | 83663
5 | 18:35.39 | 4:45.25 | 83664 | 105063
6 | 23:20.64 | 3:27.37 | 105064 | 120625
7 | 26:48.26 | 3:27.69 | 120626 | 136219
8 | 30:16.20 | 4:45.05 | 136220 | 157599
9 | 35:01.25 | 4:27.05 | 157600 | 177629
10 | 39:28.30 | 4:04.28 | 177630 | 195957
11 | 43:32.58 | 3:54.43 | 195958 | 213550
12 | 47:27.26 | 3:50.31 | 213551 | 230831
13 | 51:17.57 | 3:29.24 | 230832 | 246530
14 | 54:47.06 | 3:35.15 | 246531 | 262670
15 | 58:22.21 | 4:27.08 | 262671 | 282703
16 | 62:49.29 | 2:45.69 | 282704 | 295147
17 | 65:35.23 | 2:35.32 | 295148 | 306804
18 | 68:10.55 | 3:35.22 | 306805 | 322951
19 | 71:46.02 | 2:58.63 | 322952 | 336364
20 | 74:44.65 | 3:02.20 | 336365 | 350034


Track 1

Filename A:\PsPBuRnOuT's MUSIC\SORTED BY YEAR\1980s\ULTIMATE EIGHTIES - THE CLASSICS\ULTIMATE EIGHTIES - THE CLASSICS - CD4\01.The B-52's - Love Shack.wav

Peak level 100.0 %
Extraction speed 13.7 X
Track quality 100.0 %
Copy CRC E506F16B
Track not present in AccurateRip database
Copy OK

Track 2

Filename A:\PsPBuRnOuT's MUSIC\SORTED BY YEAR\1980s\ULTIMATE EIGHTIES - THE CLASSICS\ULTIMATE EIGHTIES - THE CLASSICS - CD4\02.Chaka Khan - I Feel For You.wav

Peak level 96.3 %
Extraction speed 21.4 X
Track quality 100.0 %
Copy CRC 1A545674
Track not present in AccurateRip database
Copy OK

Track 3

Filename A:\PsPBuRnOuT's MUSIC\SORTED BY YEAR\1980s\ULTIMATE EIGHTIES - THE CLASSICS\ULTIMATE EIGHTIES - THE CLASSICS - CD4\03.Bucks Fizz - The Land Of Make Believe.wav

Peak level 86.1 %
Extraction speed 23.1 X
Track quality 100.0 %
Copy CRC DD2DCA94
Track not present in AccurateRip database
Copy OK

Track 4

Filename A:\PsPBuRnOuT's MUSIC\SORTED BY YEAR\1980s\ULTIMATE EIGHTIES - THE CLASSICS\ULTIMATE EIGHTIES - THE CLASSICS - CD4\04.Alison Moyet - All Cried Out.wav

Peak level 95.6 %
Extraction speed 24.6 X
Track quality 100.0 %
Copy CRC 6B14718D
Track not present in AccurateRip database
Copy OK

Track 5

Filename A:\PsPBuRnOuT's MUSIC\SORTED BY YEAR\1980s\ULTIMATE EIGHTIES - THE CLASSICS\ULTIMATE EIGHTIES - THE CLASSICS - CD4\05.Thompson Twins - Hold Me Now.wav

Peak level 93.3 %
Extraction speed 26.7 X
Track quality 100.0 %
Copy CRC 5008004A
Track not present in AccurateRip database
Copy OK

Track 6

Filename A:\PsPBuRnOuT's MUSIC\SORTED BY YEAR\1980s\ULTIMATE EIGHTIES - THE CLASSICS\ULTIMATE EIGHTIES - THE CLASSICS - CD4\06.Duran Duran - Hungry Like The Wolf.wav

Peak level 80.1 %
Extraction speed 28.5 X
Track quality 100.0 %
Copy CRC 0D64F275
Track not present in AccurateRip database
Copy OK

Track 7

Filename A:\PsPBuRnOuT's MUSIC\SORTED BY YEAR\1980s\ULTIMATE EIGHTIES - THE CLASSICS\ULTIMATE EIGHTIES - THE CLASSICS - CD4\07.Dexy's Midnight Runners - Geno.wav

Peak level 97.9 %
Extraction speed 27.1 X
Track quality 100.0 %
Copy CRC 67AA3769
Track not present in AccurateRip database
Copy OK

Track 8

Filename A:\PsPBuRnOuT's MUSIC\SORTED BY YEAR\1980s\ULTIMATE EIGHTIES - THE CLASSICS\ULTIMATE EIGHTIES - THE CLASSICS - CD4\08.Propaganda - Duel.wav

Peak level 97.7 %
Extraction speed 29.0 X
Track quality 100.0 %
Copy CRC C10860D2
Track not present in AccurateRip database
Copy OK

Track 9

Filename A:\PsPBuRnOuT's MUSIC\SORTED BY YEAR\1980s\ULTIMATE EIGHTIES - THE CLASSICS\ULTIMATE EIGHTIES - THE CLASSICS - CD4\09.Climie Fisher - Love Changes (Everything).wav

Peak level 88.1 %
Extraction speed 25.6 X
Track quality 99.9 %
Copy CRC 38B87F7D
Track not present in AccurateRip database
Copy OK

Track 10

Filename A:\PsPBuRnOuT's MUSIC\SORTED BY YEAR\1980s\ULTIMATE EIGHTIES - THE CLASSICS\ULTIMATE EIGHTIES - THE CLASSICS - CD4\10.Laura Branigan - Self Control.wav

Peak level 93.9 %
Extraction speed 24.4 X
Track quality 100.0 %
Copy CRC ECB429FD
Track not present in AccurateRip database
Copy OK

Track 11

Filename A:\PsPBuRnOuT's MUSIC\SORTED BY YEAR\1980s\ULTIMATE EIGHTIES - THE CLASSICS\ULTIMATE EIGHTIES - THE CLASSICS - CD4\11.Midnight Star - Midas Touch.wav

Peak level 100.0 %
Extraction speed 33.6 X
Track quality 100.0 %
Copy CRC 7D4CF227
Track not present in AccurateRip database
Copy OK

Track 12

Filename A:\PsPBuRnOuT's MUSIC\SORTED BY YEAR\1980s\ULTIMATE EIGHTIES - THE CLASSICS\ULTIMATE EIGHTIES - THE CLASSICS - CD4\12.Nena - 99 Red Balloons.wav

Peak level 93.0 %
Extraction speed 34.8 X
Track quality 100.0 %
Copy CRC DB6AE889
Track not present in AccurateRip database
Copy OK

Track 13

Filename A:\PsPBuRnOuT's MUSIC\SORTED BY YEAR\1980s\ULTIMATE EIGHTIES - THE CLASSICS\ULTIMATE EIGHTIES - THE CLASSICS - CD4\13.The Real Thing - You To Me Are Everything.wav

Peak level 81.2 %
Extraction speed 33.7 X
Track quality 100.0 %
Copy CRC 4A4783C5
Track not present in AccurateRip database
Copy OK

Track 14

Filename A:\PsPBuRnOuT's MUSIC\SORTED BY YEAR\1980s\ULTIMATE EIGHTIES - THE CLASSICS\ULTIMATE EIGHTIES - THE CLASSICS - CD4\14.Japan - Quite Life.wav

Peak level 100.0 %
Extraction speed 36.4 X
Track quality 100.0 %
Copy CRC 0B69D180
Track not present in AccurateRip database
Copy OK

Track 15

Filename A:\PsPBuRnOuT's MUSIC\SORTED BY YEAR\1980s\ULTIMATE EIGHTIES - THE CLASSICS\ULTIMATE EIGHTIES - THE CLASSICS - CD4\15.Grandmaster Flash & Melle Mel - White Lines (Don't Do It).wav

Peak level 99.7 %
Extraction speed 37.6 X
Track quality 100.0 %
Copy CRC D056DA5B
Track not present in AccurateRip database
Copy OK

Track 16

Filename A:\PsPBuRnOuT's MUSIC\SORTED BY YEAR\1980s\ULTIMATE EIGHTIES - THE CLASSICS\ULTIMATE EIGHTIES - THE CLASSICS - CD4\16.Madness - House Of Fun.wav

Peak level 78.9 %
Extraction speed 36.1 X
Track quality 100.0 %
Copy CRC E67206B0
Track not present in AccurateRip database
Copy OK

Track 17

Filename A:\PsPBuRnOuT's MUSIC\SORTED BY YEAR\1980s\ULTIMATE EIGHTIES - THE CLASSICS\ULTIMATE EIGHTIES - THE CLASSICS - CD4\17.Tracey Ullman - Move Over Darling.wav

Peak level 100.0 %
Extraction speed 36.6 X
Track quality 100.0 %
Copy CRC C3E1A860
Track not present in AccurateRip database
Copy OK

Track 18

Filename A:\PsPBuRnOuT's MUSIC\SORTED BY YEAR\1980s\ULTIMATE EIGHTIES - THE CLASSICS\ULTIMATE EIGHTIES - THE CLASSICS - CD4\18.The Beach Boys - Kokomo.wav

Peak level 100.0 %
Extraction speed 38.1 X
Track quality 100.0 %
Copy CRC E7E2CCD0
Track not present in AccurateRip database
Copy OK

Track 19

Filename A:\PsPBuRnOuT's MUSIC\SORTED BY YEAR\1980s\ULTIMATE EIGHTIES - THE CLASSICS\ULTIMATE EIGHTIES - THE CLASSICS - CD4\19.Toy Dolls - Nellie The Elephant.wav

Peak level 76.7 %
Extraction speed 40.2 X
Track quality 100.0 %
Copy CRC 6D79178D
Track not present in AccurateRip database
Copy OK

Track 20

Filename A:\PsPBuRnOuT's MUSIC\SORTED BY YEAR\1980s\ULTIMATE EIGHTIES - THE CLASSICS\ULTIMATE EIGHTIES - THE CLASSICS - CD4\20.Jona Lewie - You'll Alwasy Find Me In The Kitchen At Parties.wav

Peak level 100.0 %
Extraction speed 30.1 X
Track quality 99.8 %
Copy CRC B3C96F95
Track not present in AccurateRip database
Copy OK


None of the tracks are present in the AccurateRip database

No errors occurred

End of status report

–– CUETools DB Plugin V2.1.6

[CTDB TOCID: bEnEgem7lsP0vcfzdGX0o9Sk9NQ-] disk not present in database
Submit result: bEnEgem7lsP0vcfzdGX0o9Sk9NQ- has been uploaded

Exact Audio Copy V1.3 from 2. September 2016

EAC extraction logfile from 14. June 2019, 16:58

Various / Ultimate Eighties - The Classics - CD5

Used drive : ATAPI iHAS124 Y Adapter: 1 ID: 0

Read mode : Secure
Utilize accurate stream : Yes
Defeat audio cache : No
Make use of C2 pointers : Yes

Read offset correction : 48
Overread into Lead-In and Lead-Out : No
Fill up missing offset samples with silence : Yes
Delete leading and trailing silent blocks : No
Null samples used in CRC calculations : Yes
Used interface : Native Win32 interface for Win NT & 2000
Gap handling : Not detected, thus appended to previous track

Used output format : User Defined Encoder
Selected bitrate : 896 kBit/s
Quality : High
Add ID3 tag : No
Command line compressor : C:\Program Files (x86)\Exact Audio Copy\FLAC\FLAC.EXE
Additional command line options : -6 -V -T "ARTIST=%artist%" -T "TITLE=%title%" -T "ALBUM=%albumtitle%" -T "DATE=%year%" -T "TRACKNUMBER=%tracknr%" -T "GENRE=%genre%" -T "COMMENT=%comment%" -T "BAND=%albuminterpret%" -T "ALBUMARTIST=%albuminterpret%" -T "COMPOSER=%composer%" %haslyrics%–tag-from-file=LYRICS="%lyricsfile%"%haslyrics% -T "DISCNUMBER=%cdnumber%" -T "TOTALDISCS=%totalcds%" -T "TOTALTRACKS=%numtracks%" %hascover%–picture="%coverfile%"%hascover% %source% -o %dest%


TOC of the extracted CD

Track | Start | Length | Start sector | End sector
––––––––––––––––––––––––––––-
1 | 0:00.00 | 3:13.21 | 0 | 14495
2 | 3:13.21 | 3:49.15 | 14496 | 31685
3 | 7:02.36 | 4:53.04 | 31686 | 53664
4 | 11:55.40 | 5:48.16 | 53665 | 79780
5 | 17:43.56 | 3:32.29 | 79781 | 95709
6 | 21:16.10 | 3:15.38 | 95710 | 110372
7 | 24:31.48 | 3:38.49 | 110373 | 126771
8 | 28:10.22 | 4:03.47 | 126772 | 145043
9 | 32:13.69 | 3:50.25 | 145044 | 162318
10 | 36:04.19 | 4:10.53 | 162319 | 181121
11 | 40:14.72 | 4:11.63 | 181122 | 200009
12 | 44:26.60 | 4:31.18 | 200010 | 220352
13 | 48:58.03 | 3:38.65 | 220353 | 236767
14 | 52:36.68 | 4:40.24 | 236768 | 257791
15 | 57:17.17 | 3:43.61 | 257792 | 274577
16 | 61:01.03 | 3:37.66 | 274578 | 290918
17 | 64:38.69 | 3:29.03 | 290919 | 306596
18 | 68:07.72 | 4:25.59 | 306597 | 326530
19 | 72:33.56 | 4:08.50 | 326531 | 345180


Track 1

Filename A:\PsPBuRnOuT's MUSIC\SORTED BY YEAR\1980s\ULTIMATE EIGHTIES - THE CLASSICS\ULTIMATE EIGHTIES - THE CLASSICS - CD5\01.Grandmaster Flash & The Furious Five - The Message.wav

Peak level 77.6 %
Extraction speed 8.0 X
Track quality 100.0 %
Copy CRC 53E03703
Track not present in AccurateRip database
Copy OK

Track 2

Filename A:\PsPBuRnOuT's MUSIC\SORTED BY YEAR\1980s\ULTIMATE EIGHTIES - THE CLASSICS\ULTIMATE EIGHTIES - THE CLASSICS - CD5\02.KC & The Sunshine Band - Please Don't Go.wav

Peak level 100.0 %
Extraction speed 10.7 X
Track quality 100.0 %
Copy CRC CE0436DA
Track not present in AccurateRip database
Copy OK

Track 3

Filename A:\PsPBuRnOuT's MUSIC\SORTED BY YEAR\1980s\ULTIMATE EIGHTIES - THE CLASSICS\ULTIMATE EIGHTIES - THE CLASSICS - CD5\03.Randy Crawford - One Day I'll Fly Away.wav

Peak level 100.0 %
Extraction speed 11.3 X
Track quality 100.0 %
Copy CRC 601FA9C0
Track not present in AccurateRip database
Copy OK

Track 4

Filename A:\PsPBuRnOuT's MUSIC\SORTED BY YEAR\1980s\ULTIMATE EIGHTIES - THE CLASSICS\ULTIMATE EIGHTIES - THE CLASSICS - CD5\04.Karyn White - Superwoman.wav

Peak level 100.0 %
Extraction speed 12.4 X
Track quality 100.0 %
Copy CRC FD553AE3
Track not present in AccurateRip database
Copy OK

Track 5

Filename A:\PsPBuRnOuT's MUSIC\SORTED BY YEAR\1980s\ULTIMATE EIGHTIES - THE CLASSICS\ULTIMATE EIGHTIES - THE CLASSICS - CD5\05.The Reynolds Girls - I'd Rather Jack.wav

Peak level 99.9 %
Extraction speed 13.3 X
Track quality 100.0 %
Copy CRC 19ABF2CD
Track not present in AccurateRip database
Copy OK

Track 6

Filename A:\PsPBuRnOuT's MUSIC\SORTED BY YEAR\1980s\ULTIMATE EIGHTIES - THE CLASSICS\ULTIMATE EIGHTIES - THE CLASSICS - CD5\06.Matt Bianco - Yeh Yeh.wav

Peak level 94.4 %
Extraction speed 13.8 X
Track quality 100.0 %
Copy CRC 53505FC2
Track not present in AccurateRip database
Copy OK

Track 7

Filename A:\PsPBuRnOuT's MUSIC\SORTED BY YEAR\1980s\ULTIMATE EIGHTIES - THE CLASSICS\ULTIMATE EIGHTIES - THE CLASSICS - CD5\07.Princess - Say I'm Your Number One.wav

Peak level 100.0 %
Extraction speed 15.0 X
Track quality 100.0 %
Copy CRC 9395DC01
Track not present in AccurateRip database
Copy OK

Track 8

Filename A:\PsPBuRnOuT's MUSIC\SORTED BY YEAR\1980s\ULTIMATE EIGHTIES - THE CLASSICS\ULTIMATE EIGHTIES - THE CLASSICS - CD5\08.Bucks Fizz - My Camera Never Lies.wav

Peak level 76.7 %
Extraction speed 15.0 X
Track quality 100.0 %
Copy CRC 7DCB3ABF
Track not present in AccurateRip database
Copy OK

Track 9

Filename A:\PsPBuRnOuT's MUSIC\SORTED BY YEAR\1980s\ULTIMATE EIGHTIES - THE CLASSICS\ULTIMATE EIGHTIES - THE CLASSICS - CD5\09.Debbie Gibson - Only In My Dreams.wav

Peak level 100.0 %
Extraction speed 15.5 X
Track quality 100.0 %
Copy CRC 616CF827
Track not present in AccurateRip database
Copy OK

Track 10

Filename A:\PsPBuRnOuT's MUSIC\SORTED BY YEAR\1980s\ULTIMATE EIGHTIES - THE CLASSICS\ULTIMATE EIGHTIES - THE CLASSICS - CD5\10.The Korgis - Everybody's Got To Learn Sometime.wav

Peak level 100.0 %
Extraction speed 16.2 X
Track quality 100.0 %
Copy CRC 2EAAA78A
Track not present in AccurateRip database
Copy OK

Track 11

Filename A:\PsPBuRnOuT's MUSIC\SORTED BY YEAR\1980s\ULTIMATE EIGHTIES - THE CLASSICS\ULTIMATE EIGHTIES - THE CLASSICS - CD5\11.Levert - Casanova.wav

Peak level 100.0 %
Extraction speed 17.4 X
Track quality 100.0 %
Copy CRC EB648E7E
Track not present in AccurateRip database
Copy OK

Track 12

Filename A:\PsPBuRnOuT's MUSIC\SORTED BY YEAR\1980s\ULTIMATE EIGHTIES - THE CLASSICS\ULTIMATE EIGHTIES - THE CLASSICS - CD5\12.Nick Kamen - Each Time You Break My Heart.wav

Peak level 98.8 %
Extraction speed 18.0 X
Track quality 100.0 %
Copy CRC F069BD5C
Track not present in AccurateRip database
Copy OK

Track 13

Filename A:\PsPBuRnOuT's MUSIC\SORTED BY YEAR\1980s\ULTIMATE EIGHTIES - THE CLASSICS\ULTIMATE EIGHTIES - THE CLASSICS - CD5\13.Nu Shooz - I Can't Wait.wav

Peak level 95.6 %
Extraction speed 17.8 X
Track quality 100.0 %
Copy CRC BE11F59D
Track not present in AccurateRip database
Copy OK

Track 14

Filename A:\PsPBuRnOuT's MUSIC\SORTED BY YEAR\1980s\ULTIMATE EIGHTIES - THE CLASSICS\ULTIMATE EIGHTIES - THE CLASSICS - CD5\14.Rufus Feat. Chaka Khan - Ain't Nobody.wav

Peak level 88.1 %
Extraction speed 18.1 X
Track quality 100.0 %
Copy CRC B34EF545
Track not present in AccurateRip database
Copy OK

Track 15

Filename A:\PsPBuRnOuT's MUSIC\SORTED BY YEAR\1980s\ULTIMATE EIGHTIES - THE CLASSICS\ULTIMATE EIGHTIES - THE CLASSICS - CD5\15.Alison Moyet - Weak In The Presence Of Beauty.wav

Peak level 81.4 %
Extraction speed 19.8 X
Track quality 100.0 %
Copy CRC 35FDAE37
Track not present in AccurateRip database
Copy OK

Track 16

Filename A:\PsPBuRnOuT's MUSIC\SORTED BY YEAR\1980s\ULTIMATE EIGHTIES - THE CLASSICS\ULTIMATE EIGHTIES - THE CLASSICS - CD5\16.Classix Nouveaux - Is It A Dream.wav

Peak level 83.5 %
Extraction speed 19.2 X
Track quality 100.0 %
Copy CRC FB756DA6
Track not present in AccurateRip database
Copy OK

Track 17

Filename A:\PsPBuRnOuT's MUSIC\SORTED BY YEAR\1980s\ULTIMATE EIGHTIES - THE CLASSICS\ULTIMATE EIGHTIES - THE CLASSICS - CD5\17.The Stranglers - Golden Brown.wav

Peak level 83.4 %
Extraction speed 19.2 X
Track quality 99.8 %
Copy CRC 1685099E
Track not present in AccurateRip database
Copy OK

Track 18

Filename A:\PsPBuRnOuT's MUSIC\SORTED BY YEAR\1980s\ULTIMATE EIGHTIES - THE CLASSICS\ULTIMATE EIGHTIES - THE CLASSICS - CD5\18.Thompson Twins - You Take Me Up.wav

Peak level 100.0 %
Extraction speed 20.1 X
Track quality 99.9 %
Copy CRC EE6101AC
Track not present in AccurateRip database
Copy OK

Track 19

Filename A:\PsPBuRnOuT's MUSIC\SORTED BY YEAR\1980s\ULTIMATE EIGHTIES - THE CLASSICS\ULTIMATE EIGHTIES - THE CLASSICS - CD5\19.A Flock Of Seagulls - Wishin (I Had A Photograph Of You).wav

Peak level 87.5 %
Extraction speed 21.6 X
Track quality 100.0 %
Copy CRC E50299B5
Track not present in AccurateRip database
Copy OK


None of the tracks are present in the AccurateRip database

No errors occurred

End of status report

–– CUETools DB Plugin V2.1.6

[CTDB TOCID: sxEBq7W90HpVJfTAyLQyh9ClBIU-] disk not present in database
Submit result: sxEBq7W90HpVJfTAyLQyh9ClBIU- has been uploaded