Subcategories

VA - Woodstock 94 (1994) 2CDs

Posted By: Designol
VA - Woodstock 94 (1994) 2CDs

VA - Woodstock 94 (1994) 2CDs
EAC | FLAC | Image (Cue&Log) ~ 961 Mb | Mp3 (CBR320) ~ 338 Mb | Scans ~ 24 Mb
Genre: Rock | Label: A&M/Polydor | # 540 322-2 | Time: 02:24:24

Woodstock 94 is a two-disc set documenting the Woodstock 1994 festival. It was released during November 1994, nearly three months after the event took place. The album was released on A&M Records. The set features 27 performing artists, one song per artist. It also features the recording of both general stage announcements and some band introductions given at various points during the festival.

In case there was any doubt that Woodstock ’94 said at least something about our times, the proof arrives in Woodstock ’94, the album. Not much in the way of peace and love here; with 27 bands compressed onto two discs (or two cassettes), the second festival comes off as one big, loud frat house bash, with the gnarled sound of ’90s rock as its party tape. The recording quality is terrific — you can practically hear the squishing of mud all around you — and every artist, whether it’s Metallica, Porno for Pyros, or Crosby, Stills & Nash, is accompanied by the roar of a juiced, leering crowd. (At one point, guest emcee Tom Arnold pleads with the crowd not to destroy the grass, and he doesn’t mean marijuana.) Peter Gabriel resuscitates the social consciousness of the first Woodstock when he brings up apartheid during ”Biko,” but, tellingly, it’s the last song on the album. More typical is Henry Rollins telling fans that they’ll have to deal with their problems alone, and then tearing into one of the Rollins Band’s intense, nearly unlistenable, thrash tunes.

As for the rest of the music: The veterans (Traffic, Joe Cocker, Aerosmith) present period re-creations of classic rock; without the mud-pack visuals, festival conquerors Nine Inch Nails sound surprisingly muddled on ”Happiness in Slavery”; and a high number of normally uninspiring acts, including Sheryl Crow, Jackyl, and Live, come off better than they had any right to. Not even an in-your-face sound mix can redeem phonies like Melissa Etheridge and Candlebox, but even the weakest bands seem wired by the event. Nearly free of good vibes and heavy on statements about personal torment and social alienation-and capturing a time when rock is divided into small, rigid camps — Woodstock ’94 is more of a time capsule than anyone could have imagined.

Review by David Browne, Entertainment Weekly, 11.11.1994

VA - Woodstock 94 (1994) 2CDs

VA - Woodstock 94 (1994) 2CDs

VA - Woodstock 94 (1994) 2CDs

VA - Woodstock 94 (1994) 2CDs


Tracklist:

CD1 (1:13:55)

01. Live - Selling The Drama (4:29)
02. Del Amitri - Just Like A Man (5:08)
03. Melissa Etheridge - I'm The Only One (5:33)
04. Joe Cocker - Feelin' Alright (4:57)
05. Stage Announcement - Stage Announcement (1:22)
06. The Cranberries - Dreams (4:25)
07. Blind Melon - Soup (3:20)
08. Green Day - When I Come Around (3:01)
09. Salt'N'Pepa - Shoop (5:18)
10. Stage Announcement - Stage Announcement (0:53)
11. Red Hot Chili Peppers - Blood Sugar Sex Magik (5:21)
12. James - Sometimes (4:43)
13. Porno For Pyros - Porno For Pyros (3:05)
14. Primus - Those Damned Blue-Collar Tweekers (6:37)
15. Aerosmith - Draw The Line - F.I.N.E. (9:44)
16. Stage Announcement - Stage Announcement (0:10)
17. Nine Inch Nails - Happiness In Slavery (5:48)


CD2 (1:12:29)

01. Metallica - For Whom The Bell Tolls (7:18)
02. Neville Brothers, The - Come Together (3:53)
03. Youssou N'dour - Generations (Diamono) (4:00)
04. Zucchero - Mama (7:36)
05. Sheryl Crow - Run, Baby, Run (5:24)
06. Violent Femmes - Dance, M.F., Dance! - Kiss Off (6:30)
07. Collective Soul - Shine (5:58)
08. Candlebox - Arrow (3:35)
09. Cypress Hill - How I Could Just Kill A Man (3:22)
10. Rollins Band - Right Here Too Much (5:18)
11. Bob Dylan - Highway 61 (6:20)
12. Traffic - Pearly Queen (5:07)
13. Peter Gabriel - Biko (8:08)


Exact Audio Copy V0.99 prebeta 5 from 4. May 2009

EAC extraction logfile from 16. September 2011, 16:39

Various / Woodstock 94.(CD1)

Used drive : Optiarc DVD RW AD-7200S Adapter: 3 ID: 0

Read mode : Secure
Utilize accurate stream : Yes
Defeat audio cache : Yes
Make use of C2 pointers : No

Read offset correction : 48
Overread into Lead-In and Lead-Out : No
Fill up missing offset samples with silence : Yes
Delete leading and trailing silent blocks : No
Null samples used in CRC calculations : Yes
Used interface : Installed external ASPI interface

Used output format : Internal WAV Routines
Sample format : 44.100 Hz; 16 Bit; Stereo


TOC of the extracted CD

Track | Start | Length | Start sector | End sector
––––––––––––––––––––––––––––-
1 | 0:00.00 | 4:29.22 | 0 | 20196
2 | 4:29.22 | 5:07.63 | 20197 | 43284
3 | 9:37.10 | 5:33.17 | 43285 | 68276
4 | 15:10.27 | 4:56.70 | 68277 | 90546
5 | 20:07.22 | 1:22.25 | 90547 | 96721
6 | 21:29.47 | 4:25.20 | 96722 | 116616
7 | 25:54.67 | 3:20.23 | 116617 | 131639
8 | 29:15.15 | 3:00.47 | 131640 | 145186
9 | 32:15.62 | 5:17.43 | 145187 | 169004
10 | 37:33.30 | 0:53.17 | 169005 | 172996
11 | 38:26.47 | 5:20.68 | 172997 | 197064
12 | 43:47.40 | 4:43.35 | 197065 | 218324
13 | 48:31.00 | 3:04.70 | 218325 | 232194
14 | 51:35.70 | 6:36.42 | 232195 | 261936
15 | 58:12.37 | 9:44.33 | 261937 | 305769
16 | 67:56.70 | 0:10.12 | 305770 | 306531
17 | 68:07.07 | 5:47.58 | 306532 | 332614


Range status and errors

Selected range

Filename C:\Users\Admin\Desktop\Woodstock 94\Various - Woodstock 94.(CD1).wav

Peak level 100.0 %
Range quality 100.0 %
Test CRC D3F1525C
Copy CRC D3F1525C
Copy OK

No errors occurred


AccurateRip summary

Track 1 accurately ripped (confidence 1) [FC9E2DFE]
Track 2 accurately ripped (confidence 1) [9E55ECD6]
Track 3 accurately ripped (confidence 1) [6503B946]
Track 4 accurately ripped (confidence 1) [53DC5C69]
Track 5 accurately ripped (confidence 1) [546846B4]
Track 6 accurately ripped (confidence 1) [978F2F26]
Track 7 accurately ripped (confidence 1) [DDAF64E9]
Track 8 accurately ripped (confidence 1) [607EF84A]
Track 9 accurately ripped (confidence 1) [5DC9958B]
Track 10 accurately ripped (confidence 1) [514255A7]
Track 11 accurately ripped (confidence 1) [F2A56DD5]
Track 12 accurately ripped (confidence 1) [072CB248]
Track 13 accurately ripped (confidence 1) [6B8BDE86]
Track 14 accurately ripped (confidence 1) [78C88802]
Track 15 accurately ripped (confidence 1) [86439FC4]
Track 16 accurately ripped (confidence 1) [35C1937C]
Track 17 accurately ripped (confidence 1) [8CF20E7F]

All tracks accurately ripped

End of status report

[CUETools log; Date: 02.03.2018 19:21:53; Version: 2.1.4]
[CTDB TOCID: KtQ.PzwXiZnpvu1zrvEOev0LdOA-] found.
Track | CTDB Status
1 | (7/7) Accurately ripped
2 | (7/7) Accurately ripped
3 | (7/7) Accurately ripped
4 | (7/7) Accurately ripped
5 | (7/7) Accurately ripped
6 | (7/7) Accurately ripped
7 | (7/7) Accurately ripped
8 | (7/7) Accurately ripped
9 | (7/7) Accurately ripped
10 | (7/7) Accurately ripped
11 | (7/7) Accurately ripped
12 | (7/7) Accurately ripped
13 | (7/7) Accurately ripped
14 | (7/7) Accurately ripped
15 | (7/7) Accurately ripped
16 | (7/7) Accurately ripped
17 | (7/7) Accurately ripped
[AccurateRip ID: 002c62f1-023048c4-0c115211] found.
Track [ CRC | V2 ] Status
01 [fc9e2dfe|8de7059d] (0+5/5) Accurately ripped
02 [9e55ecd6|7d7902af] (0+5/5) Accurately ripped
03 [6503b946|6c237d0f] (0+5/5) Accurately ripped
04 [53dc5c69|6b9a3a18] (0+5/5) Accurately ripped
05 [546846b4|dc1aea83] (0+5/5) Accurately ripped
06 [978f2f26|a68f2532] (0+5/5) Accurately ripped
07 [ddaf64e9|dcebc3d7] (0+5/5) Accurately ripped
08 [607ef84a|acfcf3f0] (0+5/5) Accurately ripped
09 [5dc9958b|d9edeea0] (0+5/5) Accurately ripped
10 [514255a7|4935732c] (0+5/5) Accurately ripped
11 [f2a56dd5|55ac5c46] (0+5/5) Accurately ripped
12 [072cb248|91138e0e] (0+5/5) Accurately ripped
13 [6b8bde86|96f95a97] (0+5/5) Accurately ripped
14 [78c88802|3bf31284] (0+5/5) Accurately ripped
15 [86439fc4|b7604827] (0+5/5) Accurately ripped
16 [35c1937c|375c1262] (0+5/5) Accurately ripped
17 [8cf20e7f|04345953] (0+5/5) Accurately ripped

Track Peak [ CRC32 ] [W/O NULL] [ LOG ]
– 99,9 [D3F1525C] [8B9BB2C4] CRC32
01 99,9 [35401D2C] [DEE132AB]
02 99,9 [BC4CF065] [730514B7]
03 99,9 [0198DA05] [FDAE2EBD]
04 99,9 [EC10EB58] [46E37263]
05 85,3 [437EC8BE] [59FD352D]
06 99,9 [085AE06D] [F49BF8DA]
07 99,9 [A983FD0F] [C2BD75C6]
08 99,9 [41CB2660] [C678319E]
09 99,9 [0B537307] [A231FF0E]
10 67,0 [1A91B304] [DDFB60C1]
11 99,9 [C26228F2] [01F1C163]
12 96,7 [0ACD91EF] [47523378]
13 99,9 [1C3C7D9C] [B42B8DAA]
14 97,5 [841580AE] [2921829D]
15 99,9 [A9A108E0] [BD14771E]
16 93,4 [28FDDDD5] [015FA31D]
17 99,9 [2FC4670E] [C0F1B01B]

foobar2000 1.2 / Dynamic Range Meter 1.1.1
log date: 2018-03-02 19:41:44

––––––––––––––––––––––––––––––––––––––––
Statistics for: 07-Soup
Number of samples: 8833524
Duration: 3:20
––––––––––––––––––––––––––––––––––––––––

Left Right

Peak Value: 0.00 dB –- 0.00 dB
Avg RMS: -12.49 dB –- -12.87 dB
DR channel: 9.91 dB –- 10.07 dB
––––––––––––––––––––––––––––––––––––––––

Official DR Value: DR10

Samplerate: 44100 Hz
Channels: 2
Bits per sample: 16
Bitrate: 920 kbps
Codec: FLAC
================================================================================
––––––––––––––––––––––––––––––––––––––––
Analyzed: Del Amitri / Woodstock 94.(CD1) (1)
GreenDay / Woodstock 94.(CD1) (2)
James / Woodstock 94.(CD1) (3)
––––––––––––––––––––––––––––––––––––––––

DR Peak RMS Duration Track
––––––––––––––––––––––––––––––––––––––––
DR9 0.00 dB -9.76 dB 5:08 02-Just Like A Man
DR11 0.00 dB -12.85 dB 3:01 08-When I Come Around
DR8 -0.29 dB -10.45 dB 4:43 12-Sometimes
––––––––––––––––––––––––––––––––––––––––

Number of tracks: 3
Official DR value: DR9

Samplerate: 44100 Hz
Channels: 2
Bits per sample: 16
Bitrate: 920 kbps
Codec: FLAC
================================================================================

––––––––––––––––––––––––––––––––––––––––
Statistics for: 04-Feelin' Alright
Number of samples: 13094760
Duration: 4:57
––––––––––––––––––––––––––––––––––––––––

Left Right

Peak Value: 0.00 dB –- 0.00 dB
Avg RMS: -13.01 dB –- -12.66 dB
DR channel: 11.51 dB –- 11.09 dB
––––––––––––––––––––––––––––––––––––––––

Official DR Value: DR11

Samplerate: 44100 Hz
Channels: 2
Bits per sample: 16
Bitrate: 920 kbps
Codec: FLAC
================================================================================
––––––––––––––––––––––––––––––––––––––––
Analyzed: Live / Woodstock 94.(CD1) (1)
Melissa Etheridge / Woodstock 94.(CD1) (2)
Nine Inch Nails / Woodstock 94.(CD1) (3)
––––––––––––––––––––––––––––––––––––––––

DR Peak RMS Duration Track
––––––––––––––––––––––––––––––––––––––––
DR11 0.00 dB -14.29 dB 4:29 01-Selling The Drama
DR8 0.00 dB -10.29 dB 5:33 03-I'm The Only One
DR10 0.00 dB -10.89 dB 5:48 17-Happiness In Slavery
––––––––––––––––––––––––––––––––––––––––

Number of tracks: 3
Official DR value: DR10

Samplerate: 44100 Hz
Channels: 2
Bits per sample: 16
Bitrate: 920 kbps
Codec: FLAC
================================================================================

––––––––––––––––––––––––––––––––––––––––
Analyzed: Porno For Pyros / Woodstock 94.(CD1) (1)
Primus / Woodstock 94.(CD1) (2)
––––––––––––––––––––––––––––––––––––––––

DR Peak RMS Duration Track
––––––––––––––––––––––––––––––––––––––––
DR10 0.00 dB -10.87 dB 3:05 13-Porno For Pyros
DR11 -0.22 dB -12.98 dB 6:37 14-Those Damned Blue-Collar Tweekers
––––––––––––––––––––––––––––––––––––––––

Number of tracks: 2
Official DR value: DR10

Samplerate: 44100 Hz
Channels: 2
Bits per sample: 16
Bitrate: 920 kbps
Codec: FLAC
================================================================================

––––––––––––––––––––––––––––––––––––––––
Statistics for: 11-Blood Sugar Sex Magik
Number of samples: 14151984
Duration: 5:21
––––––––––––––––––––––––––––––––––––––––

Left Right

Peak Value: 0.00 dB –- 0.00 dB
Avg RMS: -11.97 dB –- -11.43 dB
DR channel: 9.67 dB –- 8.72 dB
––––––––––––––––––––––––––––––––––––––––

Official DR Value: DR9

Samplerate: 44100 Hz
Channels: 2
Bits per sample: 16
Bitrate: 920 kbps
Codec: FLAC
================================================================================
––––––––––––––––––––––––––––––––––––––––
Statistics for: 09-Shoop
Number of samples: 14004984
Duration: 5:18
––––––––––––––––––––––––––––––––––––––––

Left Right

Peak Value: 0.00 dB –- 0.00 dB
Avg RMS: -12.77 dB –- -12.15 dB
DR channel: 11.00 dB –- 10.26 dB
––––––––––––––––––––––––––––––––––––––––

Official DR Value: DR11

Samplerate: 44100 Hz
Channels: 2
Bits per sample: 16
Bitrate: 920 kbps
Codec: FLAC
================================================================================
––––––––––––––––––––––––––––––––––––––––
Analyzed: Stage Announcement / Woodstock 94.(CD1)
––––––––––––––––––––––––––––––––––––––––

DR Peak RMS Duration Track
––––––––––––––––––––––––––––––––––––––––
DR15 -1.38 dB -21.11 dB 1:22 05-Stage Announcement
DR14 -3.47 dB -19.18 dB 0:53 10-Stage Announcement
DR12 -0.59 dB -13.77 dB 0:10 16-Stage Announcement
––––––––––––––––––––––––––––––––––––––––

Number of tracks: 3
Official DR value: DR14

Samplerate: 44100 Hz
Channels: 2
Bits per sample: 16
Bitrate: 920 kbps
Codec: FLAC
================================================================================

––––––––––––––––––––––––––––––––––––––––
Statistics for: 06-Dreams
Number of samples: 11698260
Duration: 4:25
––––––––––––––––––––––––––––––––––––––––

Left Right

Peak Value: 0.00 dB –- -0.03 dB
Avg RMS: -9.39 dB –- -10.70 dB
DR channel: 8.42 dB –- 9.24 dB
––––––––––––––––––––––––––––––––––––––––

Official DR Value: DR9

Samplerate: 44100 Hz
Channels: 2
Bits per sample: 16
Bitrate: 920 kbps
Codec: FLAC
================================================================================
foobar2000 1.2 / Dynamic Range Meter 1.1.1
log date: 2018-03-02 19:41:41

––––––––––––––––––––––––––––––––––––––––
Statistics for: 15-Draw The Line - F.I.N.E.
Number of samples: 25773804
Duration: 9:44
––––––––––––––––––––––––––––––––––––––––

Left Right

Peak Value: 0.00 dB –- 0.00 dB
Avg RMS: -12.46 dB –- -10.48 dB
DR channel: 9.83 dB –- 8.47 dB
––––––––––––––––––––––––––––––––––––––––

Official DR Value: DR9

Samplerate: 44100 Hz
Channels: 2
Bits per sample: 16
Bitrate: 920 kbps
Codec: FLAC
================================================================================


Exact Audio Copy V0.99 prebeta 5 from 4. May 2009

EAC extraction logfile from 16. September 2011, 17:19

Various / Woodstock 94.(CD2)

Used drive : Optiarc DVD RW AD-7200S Adapter: 3 ID: 0

Read mode : Secure
Utilize accurate stream : Yes
Defeat audio cache : Yes
Make use of C2 pointers : No

Read offset correction : 48
Overread into Lead-In and Lead-Out : No
Fill up missing offset samples with silence : Yes
Delete leading and trailing silent blocks : No
Null samples used in CRC calculations : Yes
Used interface : Installed external ASPI interface

Used output format : Internal WAV Routines
Sample format : 44.100 Hz; 16 Bit; Stereo


TOC of the extracted CD

Track | Start | Length | Start sector | End sector
––––––––––––––––––––––––––––-
1 | 0:00.00 | 7:17.50 | 0 | 32824
2 | 7:17.50 | 3:53.02 | 32825 | 50301
3 | 11:10.52 | 4:00.15 | 50302 | 68316
4 | 15:10.67 | 7:36.25 | 68317 | 102541
5 | 22:47.17 | 5:24.25 | 102542 | 126866
6 | 28:11.42 | 6:30.08 | 126867 | 156124
7 | 34:41.50 | 5:57.70 | 156125 | 182969
8 | 40:39.45 | 3:34.72 | 182970 | 199091
9 | 44:14.42 | 3:21.53 | 199092 | 214219
10 | 47:36.20 | 5:17.45 | 214220 | 238039
11 | 52:53.65 | 6:19.67 | 238040 | 266531
12 | 59:13.57 | 5:07.23 | 266532 | 289579
13 | 64:21.05 | 8:07.60 | 289580 | 326164


Range status and errors

Selected range

Filename C:\Users\Admin\Desktop\Woodstock 94\CD2\Various - Woodstock 94.(CD2).wav

Peak level 100.0 %
Range quality 100.0 %
Test CRC E5149596
Copy CRC E5149596
Copy OK

No errors occurred


AccurateRip summary

Track 1 accurately ripped (confidence 1) [D2615BC1]
Track 2 accurately ripped (confidence 1) [778D4EBC]
Track 3 accurately ripped (confidence 1) [BD067166]
Track 4 accurately ripped (confidence 1) [6E0E2438]
Track 5 accurately ripped (confidence 1) [48DF3B8D]
Track 6 accurately ripped (confidence 1) [DC049B85]
Track 7 accurately ripped (confidence 1) [2214F04C]
Track 8 accurately ripped (confidence 1) [8D712AA8]
Track 9 accurately ripped (confidence 1) [E9618439]
Track 10 accurately ripped (confidence 1) [7D5EAE5E]
Track 11 accurately ripped (confidence 1) [DD4AB584]
Track 12 accurately ripped (confidence 1) [B75A200A]
Track 13 accurately ripped (confidence 1) [02EED234]

All tracks accurately ripped

End of status report

[CUETools log; Date: 02.03.2018 19:23:07; Version: 2.1.4]
[CTDB TOCID: kmHa1OJy0_GpomMzxt4yOc7CoQE-] found.
Track | CTDB Status
1 | (7/7) Accurately ripped
2 | (7/7) Accurately ripped
3 | (7/7) Accurately ripped
4 | (7/7) Accurately ripped
5 | (7/7) Accurately ripped
6 | (7/7) Accurately ripped
7 | (7/7) Accurately ripped
8 | (7/7) Accurately ripped
9 | (7/7) Accurately ripped
10 | (7/7) Accurately ripped
11 | (7/7) Accurately ripped
12 | (7/7) Accurately ripped
13 | (6/7) Accurately ripped
[AccurateRip ID: 00226309-0155d41a-cb10fc0d] found.
Track [ CRC | V2 ] Status
01 [d2615bc1|fedce08d] (0+5/5) Accurately ripped
02 [778d4ebc|a5bf3f59] (0+5/5) Accurately ripped
03 [bd067166|e9969050] (0+5/5) Accurately ripped
04 [6e0e2438|2a71b85c] (0+5/5) Accurately ripped
05 [48df3b8d|6405409c] (0+5/5) Accurately ripped
06 [dc049b85|46554c2b] (0+5/5) Accurately ripped
07 [2214f04c|063d9b3b] (0+5/5) Accurately ripped
08 [8d712aa8|75e21b14] (0+5/5) Accurately ripped
09 [e9618439|23d07441] (0+5/5) Accurately ripped
10 [7d5eae5e|1caac57e] (0+5/5) Accurately ripped
11 [dd4ab584|b021cdcb] (0+5/5) Accurately ripped
12 [b75a200a|36d4dc59] (0+5/5) Accurately ripped
13 [02eed234|54b47870] (0+5/5) Accurately ripped

Track Peak [ CRC32 ] [W/O NULL] [ LOG ]
– 99,9 [E5149596] [AC422B86] CRC32
01 99,9 [139899C8] [843D8AB3]
02 99,9 [39491B9C] [BBF30F8F]
03 99,9 [CDCAC4D5] [B075A0D9]
04 92,1 [3B169267] [9BBE2CB8]
05 95,4 [0F337F91] [D84A576E]
06 99,9 [C64E3FDA] [47488F42]
07 99,9 [7F380B90] [7FDEE8C3]
08 99,9 [EC88C3A2] [A672D813]
09 99,9 [F2D7CCC8] [439EC2A9]
10 99,9 [424117CA] [2C92D9AE]
11 99,7 [F5722672] [5737A780]
12 91,5 [FCCA1089] [B36677FC]
13 99,9 [15157240] [0E6CE3D6]

foobar2000 1.2 / Dynamic Range Meter 1.1.1
log date: 2018-03-02 19:42:49

––––––––––––––––––––––––––––––––––––––––
Statistics for: 08-Arrow
Number of samples: 9479736
Duration: 3:35
––––––––––––––––––––––––––––––––––––––––

Left Right

Peak Value: 0.00 dB –- 0.00 dB
Avg RMS: -11.42 dB –- -11.34 dB
DR channel: 10.22 dB –- 10.18 dB
––––––––––––––––––––––––––––––––––––––––

Official DR Value: DR10

Samplerate: 44100 Hz
Channels: 2
Bits per sample: 16
Bitrate: 910 kbps
Codec: FLAC
================================================================================
––––––––––––––––––––––––––––––––––––––––
Analyzed: Collective Soul / Woodstock 94.(CD2) (1)
Cypress Hill / Woodstock 94.(CD2) (2)
––––––––––––––––––––––––––––––––––––––––

DR Peak RMS Duration Track
––––––––––––––––––––––––––––––––––––––––
DR10 0.00 dB -11.99 dB 5:58 07-Shine
DR11 0.00 dB -12.18 dB 3:22 09-How I Could Just Kill A Man
––––––––––––––––––––––––––––––––––––––––

Number of tracks: 2
Official DR value: DR10

Samplerate: 44100 Hz
Channels: 2
Bits per sample: 16
Bitrate: 910 kbps
Codec: FLAC
================================================================================

––––––––––––––––––––––––––––––––––––––––
Analyzed: Metallica / Woodstock 94.(CD2) (1)
Neville Brothers, The / Woodstock 94.(CD2) (2)
Peter Gabriel / Woodstock 94.(CD2) (3)
––––––––––––––––––––––––––––––––––––––––

DR Peak RMS Duration Track
––––––––––––––––––––––––––––––––––––––––
DR10 0.00 dB -11.59 dB 7:18 01-For Whom The Bell Tolls
DR9 0.00 dB -10.14 dB 3:53 02-Come Together
DR12 0.00 dB -14.19 dB 8:08 13-Biko
––––––––––––––––––––––––––––––––––––––––

Number of tracks: 3
Official DR value: DR10

Samplerate: 44100 Hz
Channels: 2
Bits per sample: 16
Bitrate: 910 kbps
Codec: FLAC
================================================================================

––––––––––––––––––––––––––––––––––––––––
Statistics for: 10-Right Here Too Much
Number of samples: 14006160
Duration: 5:18
––––––––––––––––––––––––––––––––––––––––

Left Right

Peak Value: 0.00 dB –- 0.00 dB
Avg RMS: -11.50 dB –- -11.64 dB
DR channel: 10.32 dB –- 10.62 dB
––––––––––––––––––––––––––––––––––––––––

Official DR Value: DR10

Samplerate: 44100 Hz
Channels: 2
Bits per sample: 16
Bitrate: 910 kbps
Codec: FLAC
================================================================================
––––––––––––––––––––––––––––––––––––––––
Analyzed: Sheryl Crow / Woodstock 94.(CD2) (1)
Traffic / Woodstock 94.(CD2) (2)
––––––––––––––––––––––––––––––––––––––––

DR Peak RMS Duration Track
––––––––––––––––––––––––––––––––––––––––
DR9 -0.41 dB -10.97 dB 5:24 05-Run, Baby, Run
DR9 -0.76 dB -10.45 dB 5:07 12-Pearly Queen
––––––––––––––––––––––––––––––––––––––––

Number of tracks: 2
Official DR value: DR9

Samplerate: 44100 Hz
Channels: 2
Bits per sample: 16
Bitrate: 910 kbps
Codec: FLAC
================================================================================

––––––––––––––––––––––––––––––––––––––––
Statistics for: 06-Dance, M.F., Dance! - Kiss Off
Number of samples: 17203704
Duration: 6:30
––––––––––––––––––––––––––––––––––––––––

Left Right

Peak Value: -0.06 dB –- 0.00 dB
Avg RMS: -11.17 dB –- -10.71 dB
DR channel: 8.60 dB –- 8.37 dB
––––––––––––––––––––––––––––––––––––––––

Official DR Value: DR8

Samplerate: 44100 Hz
Channels: 2
Bits per sample: 16
Bitrate: 910 kbps
Codec: FLAC
================================================================================
––––––––––––––––––––––––––––––––––––––––
Analyzed: Youssou N'dour / Woodstock 94.(CD2) (1)
Zucchero / Woodstock 94.(CD2) (2)
––––––––––––––––––––––––––––––––––––––––

DR Peak RMS Duration Track
––––––––––––––––––––––––––––––––––––––––
DR11 0.00 dB -12.69 dB 4:00 03-Generations (Diamono)
DR8 -0.71 dB -10.87 dB 7:36 04-Mama
––––––––––––––––––––––––––––––––––––––––

Number of tracks: 2
Official DR value: DR10

Samplerate: 44100 Hz
Channels: 2
Bits per sample: 16
Bitrate: 910 kbps
Codec: FLAC
================================================================================

foobar2000 1.2 / Dynamic Range Meter 1.1.1
log date: 2018-03-02 19:42:47

––––––––––––––––––––––––––––––––––––––––
Statistics for: 11-Highway 61
Number of samples: 16753296
Duration: 6:20
––––––––––––––––––––––––––––––––––––––––

Left Right

Peak Value: -0.20 dB –- -0.02 dB
Avg RMS: -9.82 dB –- -9.57 dB
DR channel: 8.28 dB –- 7.32 dB
––––––––––––––––––––––––––––––––––––––––

Official DR Value: DR8

Samplerate: 44100 Hz
Channels: 2
Bits per sample: 16
Bitrate: 910 kbps
Codec: FLAC
================================================================================

VA - Woodstock 94 (1994) 2CDs

VA - Woodstock 94 (1994) 2CDs