Subcategories

VA - Buddha-Bar IX By Ravin (2007)

Posted By: uff
VA - Buddha-Bar IX By Ravin (2007)

VA - Buddha-Bar IX By Ravin (2007)
Chillout | 2cd | EAC Rip | Flac + Cue + Log | covers
George-V, 3121592 | rel: 2007 | 1180Mb

Likely the only time Grant Lee Buffalo's Grant Lee Phillips and Cirque du Soleil will appear in the same commercial DJ mix, the ninth volume of the Buddha-Bar series is mixed by Ravin, who presents a typically diverse set of tracks that fits into the establishment’s take (relaxed, spiritual) on dance music. Among the standouts here are Kenneth Bager's “Fragment Two…The First Picture” (featuring Julee Cruise), Rocco’s “Roots 4 Acid,” and Carmen Rizzo's “As the Day Breaks (Montreal Remix)” (featuring Phillips). ~Allmusic

Track listing
cd1:
01. Bardo State - Sospiro (5:55)
02. Mystic Diversions - Flight BA0247 (3:36)
03. Amanaska - Sleep (7:40)
04. Hess Is More - Yes Boss (3:32)
05. Koop - Koop Island Blues (4:28)
06. Eccodek - Mongolia On The Line (4:58)
07. Serafim Tsotsonis - Wood Street (3:54)
08. Existence - Heart Beat Of Life (7:00)
09. The Lushlife Project - Essence Of Our Origins (6:03)
10. Michalis Koumbios - Astradeni (2:53)
11. York featuring Asheni - Iceflowers (5:54)
12. David Lowe's Dreamcatcher - I Know Jayne (4:19)
13. Nikonn - Sunday (4:38)
14. Kenneth Bager Ft. Julee Cruise - Fragment Two… The First Picture (5:18)
15. Burhan Ocal - Bugu Jazz (3:48)

cd2:
01. Sunset Blvd. - Mrs Daisy May (5:24)
02. Cosmic Orient - La Pila (4:44)
03. Djuma Soundsystem - Les Djinns (Trentemoller Remix) (4:55)
04. Carmen Rizzo feat. Grant Lee Phillips - As The Day Breaks (Montreal Remix) (4:59)
05. Massivan - Daydream (4:17)
06. Cirque du Soleil - Africa (Quicksound - Alain Vinet Remix) (7:05)
07. Rocco - Roots 4 Acid (5:36)
08. Passion Of Percussion - Last Chance (4:26)
09. Novalima - Machete (3:14)
10. Parov Stelar - Chambermaid Swing (3:01)
11. OMFO - Choban In Space (4:26)
12. Otros Aires - Amor Que Se Baila (4:06)
13. Naked Rhythm - Gypsy Majik (Gypsy Lounge Vocal Remix) (3:55)
14. Blank & Jones - Loneliness (Chill House Mix) (5:20)
15. Bahramji feat. Mashti - Indisufi (6:12)
16. DJ Ravin feat. Karma Sound Collective - Karma Busta Rhythm (5:32)


Exact Audio Copy V1.0 beta 1 from 15. November 2010

EAC extraction logfile from 30. September 2012, 22:12

Various / Royal Victoria CD1

Used drive : ASUS DRW-24B3ST Adapter: 3 ID: 0

Read mode : Secure
Utilize accurate stream : Yes
Defeat audio cache : Yes
Make use of C2 pointers : No

Read offset correction : 6
Overread into Lead-In and Lead-Out : No
Fill up missing offset samples with silence : Yes
Delete leading and trailing silent blocks : No
Null samples used in CRC calculations : Yes
Used interface : Native Win32 interface for Win NT & 2000
Gap handling : Appended to previous track

Used output format : User Defined Encoder
Selected bitrate : 1024 kBit/s
Quality : High
Add ID3 tag : No
Command line compressor : C:\Program Files\Exact Audio Copy\Flac\flac.exe
Additional command line options : -8 -V -T "ARTIST=%a" -T "TITLE=%t" -T "ALBUM=%g" -T "DATE=%y" -T "TRACKNUMBER=%n" -T "GENRE=%m" -T "COMMENT=ripped by Oleandris" %s


TOC of the extracted CD

Track | Start | Length | Start sector | End sector
––––––––––––––––––––––––––––-
1 | 0:00.00 | 5:55.45 | 0 | 26669
2 | 5:55.45 | 3:36.02 | 26670 | 42871
3 | 9:31.47 | 7:40.06 | 42872 | 77377
4 | 17:11.53 | 3:32.29 | 77378 | 93306
5 | 20:44.07 | 4:28.53 | 93307 | 113459
6 | 25:12.60 | 4:58.36 | 113460 | 135845
7 | 30:11.21 | 3:54.71 | 135846 | 153466
8 | 34:06.17 | 7:00.56 | 153467 | 185022
9 | 41:06.73 | 6:03.62 | 185023 | 212309
10 | 47:10.60 | 2:53.44 | 212310 | 225328
11 | 50:04.29 | 5:54.51 | 225329 | 251929
12 | 55:59.05 | 4:19.08 | 251930 | 271362
13 | 60:18.13 | 4:38.00 | 271363 | 292212
14 | 64:56.13 | 5:18.30 | 292213 | 316092
15 | 70:14.43 | 3:48.64 | 316093 | 333256


Track 1

Filename F:\ЗАГРУЗКИ\ Buddha-Bar Collection I-XIV\9. Buddha-Bar IX By Ravin 2CD (2007)\CD1 Royal Victoria\01. Bardo State - Sospiro.wav

Pre-gap length 0:00:02.00

Peak level 100.0 %
Extraction speed 4.1 X
Track quality 100.0 %
Test CRC B66B46FF
Copy CRC B66B46FF
Accurately ripped (confidence 4) [3989E320]
Copy OK

Track 2

Filename F:\ЗАГРУЗКИ\ Buddha-Bar Collection I-XIV\9. Buddha-Bar IX By Ravin 2CD (2007)\CD1 Royal Victoria\02. Mystic Diversions - Flight BA0247.wav

Peak level 100.0 %
Extraction speed 4.3 X
Track quality 100.0 %
Test CRC E4F3EBDF
Copy CRC E4F3EBDF
Accurately ripped (confidence 4) [0173CB9E]
Copy OK

Track 3

Filename F:\ЗАГРУЗКИ\ Buddha-Bar Collection I-XIV\9. Buddha-Bar IX By Ravin 2CD (2007)\CD1 Royal Victoria\03. Amanaska - Sleep.wav

Peak level 100.0 %
Extraction speed 5.2 X
Track quality 100.0 %
Test CRC 142DEE86
Copy CRC 142DEE86
Accurately ripped (confidence 4) [62DB9CFF]
Copy OK

Track 4

Filename F:\ЗАГРУЗКИ\ Buddha-Bar Collection I-XIV\9. Buddha-Bar IX By Ravin 2CD (2007)\CD1 Royal Victoria\04. Hess Is More - Yes Boss.wav

Peak level 100.0 %
Extraction speed 5.1 X
Track quality 100.0 %
Test CRC D6599598
Copy CRC D6599598
Accurately ripped (confidence 4) [7796BA1D]
Copy OK

Track 5

Filename F:\ЗАГРУЗКИ\ Buddha-Bar Collection I-XIV\9. Buddha-Bar IX By Ravin 2CD (2007)\CD1 Royal Victoria\05. Koop - Koop Island Blues.wav

Peak level 100.0 %
Extraction speed 5.5 X
Track quality 100.0 %
Test CRC 23F75AD7
Copy CRC 23F75AD7
Accurately ripped (confidence 4) [E1A1876E]
Copy OK

Track 6

Filename F:\ЗАГРУЗКИ\ Buddha-Bar Collection I-XIV\9. Buddha-Bar IX By Ravin 2CD (2007)\CD1 Royal Victoria\06. Eccodek - Mongolia On The Line.wav

Peak level 100.0 %
Extraction speed 6.0 X
Track quality 100.0 %
Test CRC 60CEE179
Copy CRC 60CEE179
Accurately ripped (confidence 4) [5AC6F453]
Copy OK

Track 7

Filename F:\ЗАГРУЗКИ\ Buddha-Bar Collection I-XIV\9. Buddha-Bar IX By Ravin 2CD (2007)\CD1 Royal Victoria\07. Serafim Tsotsonis - Wood Street.wav

Peak level 100.0 %
Extraction speed 6.0 X
Track quality 100.0 %
Test CRC 8BA21A4C
Copy CRC 8BA21A4C
Accurately ripped (confidence 4) [04B507EA]
Copy OK

Track 8

Filename F:\ЗАГРУЗКИ\ Buddha-Bar Collection I-XIV\9. Buddha-Bar IX By Ravin 2CD (2007)\CD1 Royal Victoria\08. Existence - Heart Beat Of Life.wav

Peak level 94.8 %
Extraction speed 6.8 X
Track quality 100.0 %
Test CRC 8E16B10B
Copy CRC 8E16B10B
Accurately ripped (confidence 4) [81BDBEDE]
Copy OK

Track 9

Filename F:\ЗАГРУЗКИ\ Buddha-Bar Collection I-XIV\9. Buddha-Bar IX By Ravin 2CD (2007)\CD1 Royal Victoria\09. The Lushlife Project - Essence Of Our Origins.wav

Peak level 100.0 %
Extraction speed 7.1 X
Track quality 100.0 %
Test CRC 92706929
Copy CRC 92706929
Accurately ripped (confidence 4) [EF3A9D10]
Copy OK

Track 10

Filename F:\ЗАГРУЗКИ\ Buddha-Bar Collection I-XIV\9. Buddha-Bar IX By Ravin 2CD (2007)\CD1 Royal Victoria\10. Michalis Koumbios - Astradeni.wav

Peak level 100.0 %
Extraction speed 6.6 X
Track quality 100.0 %
Test CRC C3D4C43E
Copy CRC C3D4C43E
Accurately ripped (confidence 4) [47FF5EF9]
Copy OK

Track 11

Filename F:\ЗАГРУЗКИ\ Buddha-Bar Collection I-XIV\9. Buddha-Bar IX By Ravin 2CD (2007)\CD1 Royal Victoria\11. York featuring Asheni - Iceflowers.wav

Peak level 100.0 %
Extraction speed 7.5 X
Track quality 100.0 %
Test CRC 9738FD06
Copy CRC 9738FD06
Accurately ripped (confidence 4) [7265C0C3]
Copy OK

Track 12

Filename F:\ЗАГРУЗКИ\ Buddha-Bar Collection I-XIV\9. Buddha-Bar IX By Ravin 2CD (2007)\CD1 Royal Victoria\12. David Lowe's Dreamcatcher - I Know Jayne.wav

Peak level 100.0 %
Extraction speed 7.4 X
Track quality 100.0 %
Test CRC FD3F8AA8
Copy CRC FD3F8AA8
Accurately ripped (confidence 4) [3D6D509E]
Copy OK

Track 13

Filename F:\ЗАГРУЗКИ\ Buddha-Bar Collection I-XIV\9. Buddha-Bar IX By Ravin 2CD (2007)\CD1 Royal Victoria\13. Nikonn - Sunday.wav

Peak level 100.0 %
Extraction speed 7.8 X
Track quality 100.0 %
Test CRC 64C54CA1
Copy CRC 64C54CA1
Accurately ripped (confidence 4) [B3214233]
Copy OK

Track 14

Filename F:\ЗАГРУЗКИ\ Buddha-Bar Collection I-XIV\9. Buddha-Bar IX By Ravin 2CD (2007)\CD1 Royal Victoria\14. Kenneth Bager Ft. Julee Cruise - Fragment Two… The First Picture.wav

Peak level 100.0 %
Extraction speed 8.1 X
Track quality 100.0 %
Test CRC 15E2E33D
Copy CRC 15E2E33D
Accurately ripped (confidence 4) [37BAA448]
Copy OK

Track 15

Filename F:\ЗАГРУЗКИ\ Buddha-Bar Collection I-XIV\9. Buddha-Bar IX By Ravin 2CD (2007)\CD1 Royal Victoria\15. Burhan Ocal - Bugu Jazz.wav

Peak level 100.0 %
Extraction speed 7.8 X
Track quality 100.0 %
Test CRC AA77E7AD
Copy CRC AA77E7AD
Accurately ripped (confidence 4) [0B43F98C]
Copy OK


All tracks accurately ripped

No errors occurred

End of status report

==== Log checksum BC9B42E4B6DC6D48477840B63DEF78F0A273F2730F862FB4D7F096D13BA15637 ====
––

Exact Audio Copy V1.0 beta 1 from 15. November 2010

EAC extraction logfile from 30. September 2012, 22:53

Various / Barons Court CD2

Used drive : ASUS DRW-24B3ST Adapter: 3 ID: 0

Read mode : Secure
Utilize accurate stream : Yes
Defeat audio cache : Yes
Make use of C2 pointers : No

Read offset correction : 6
Overread into Lead-In and Lead-Out : No
Fill up missing offset samples with silence : Yes
Delete leading and trailing silent blocks : No
Null samples used in CRC calculations : Yes
Used interface : Native Win32 interface for Win NT & 2000
Gap handling : Appended to previous track

Used output format : User Defined Encoder
Selected bitrate : 1024 kBit/s
Quality : High
Add ID3 tag : No
Command line compressor : C:\Program Files\Exact Audio Copy\Flac\flac.exe
Additional command line options : -8 -V -T "ARTIST=%a" -T "TITLE=%t" -T "ALBUM=%g" -T "DATE=%y" -T "TRACKNUMBER=%n" -T "GENRE=%m" -T "COMMENT=ripped by Oleandris" %s


TOC of the extracted CD

Track | Start | Length | Start sector | End sector
––––––––––––––––––––––––––––-
1 | 0:00.00 | 5:24.05 | 0 | 24304
2 | 5:24.05 | 4:44.57 | 24305 | 45661
3 | 10:08.62 | 4:55.67 | 45662 | 67853
4 | 15:04.54 | 4:59.59 | 67854 | 90337
5 | 20:04.38 | 4:17.06 | 90338 | 109618
6 | 24:21.44 | 7:05.46 | 109619 | 141539
7 | 31:27.15 | 5:36.38 | 141540 | 166777
8 | 37:03.53 | 4:26.46 | 166778 | 186773
9 | 41:30.24 | 3:14.74 | 186774 | 201397
10 | 44:45.23 | 3:01.30 | 201398 | 215002
11 | 47:46.53 | 4:26.01 | 215003 | 234953
12 | 52:12.54 | 4:06.13 | 234954 | 253416
13 | 56:18.67 | 3:55.73 | 253417 | 271114
14 | 60:14.65 | 5:20.72 | 271115 | 295186
15 | 65:35.62 | 6:12.73 | 295187 | 323159
16 | 71:48.60 | 5:32.58 | 323160 | 348117


Track 1

Filename F:\ЗАГРУЗКИ\ Buddha-Bar Collection I-XIV\9. Buddha-Bar IX By Ravin 2CD (2007)\CD2 Barons Court\01. Sunset Blvd. - Mrs Daisy May.wav

Pre-gap length 0:00:02.00

Peak level 99.9 %
Extraction speed 4.2 X
Track quality 99.9 %
Test CRC EFF41760
Copy CRC EFF41760
Accurately ripped (confidence 4) [420B8378]
Copy OK

Track 2

Filename F:\ЗАГРУЗКИ\ Buddha-Bar Collection I-XIV\9. Buddha-Bar IX By Ravin 2CD (2007)\CD2 Barons Court\02. Cosmic Orient - La Pila.wav

Peak level 100.0 %
Extraction speed 4.5 X
Track quality 100.0 %
Test CRC 195810A0
Copy CRC 195810A0
Accurately ripped (confidence 4) [B2E2F734]
Copy OK

Track 3

Filename F:\ЗАГРУЗКИ\ Buddha-Bar Collection I-XIV\9. Buddha-Bar IX By Ravin 2CD (2007)\CD2 Barons Court\03. Djuma Soundsystem - Les Djinns (Trentemøller Remix).wav

Peak level 84.1 %
Extraction speed 4.9 X
Track quality 100.0 %
Test CRC DD938B0E
Copy CRC DD938B0E
Accurately ripped (confidence 4) [E078E724]
Copy OK

Track 4

Filename F:\ЗАГРУЗКИ\ Buddha-Bar Collection I-XIV\9. Buddha-Bar IX By Ravin 2CD (2007)\CD2 Barons Court\04. Carmen Rizzo feat. Grant Lee Phillips - As The Day Breaks (Montreal Remix).wav

Peak level 100.0 %
Extraction speed 5.3 X
Track quality 100.0 %
Test CRC 81367685
Copy CRC 81367685
Accurately ripped (confidence 4) [ED2BD9CA]
Copy OK

Track 5

Filename F:\ЗАГРУЗКИ\ Buddha-Bar Collection I-XIV\9. Buddha-Bar IX By Ravin 2CD (2007)\CD2 Barons Court\05. Massivan - Daydream.wav

Peak level 100.0 %
Extraction speed 5.5 X
Track quality 100.0 %
Test CRC 0AD96498
Copy CRC 0AD96498
Accurately ripped (confidence 4) [1846CB2A]
Copy OK

Track 6

Filename F:\ЗАГРУЗКИ\ Buddha-Bar Collection I-XIV\9. Buddha-Bar IX By Ravin 2CD (2007)\CD2 Barons Court\06. Cirque du Soleil - Africa (Quicksound - Alain Vinet Remix).wav

Peak level 100.0 %
Extraction speed 6.2 X
Track quality 100.0 %
Test CRC 794FA16F
Copy CRC 794FA16F
Accurately ripped (confidence 4) [85FDF243]
Copy OK

Track 7

Filename F:\ЗАГРУЗКИ\ Buddha-Bar Collection I-XIV\9. Buddha-Bar IX By Ravin 2CD (2007)\CD2 Barons Court\07. Rocco - Roots 4 Acid.wav

Peak level 100.0 %
Extraction speed 6.4 X
Track quality 100.0 %
Test CRC D549CA76
Copy CRC D549CA76
Accurately ripped (confidence 4) [35A4E4FF]
Copy OK

Track 8

Filename F:\ЗАГРУЗКИ\ Buddha-Bar Collection I-XIV\9. Buddha-Bar IX By Ravin 2CD (2007)\CD2 Barons Court\08. Passion Of Percussion - Last Chance.wav

Peak level 100.0 %
Extraction speed 5.3 X
Track quality 99.9 %
Test CRC EE74F807
Copy CRC EE74F807
Accurately ripped (confidence 4) [143DD520]
Copy OK

Track 9

Filename F:\ЗАГРУЗКИ\ Buddha-Bar Collection I-XIV\9. Buddha-Bar IX By Ravin 2CD (2007)\CD2 Barons Court\09. Novalima - Machete.wav

Peak level 100.0 %
Extraction speed 6.5 X
Track quality 100.0 %
Test CRC 56EE2E5A
Copy CRC 56EE2E5A
Accurately ripped (confidence 4) [421995D5]
Copy OK

Track 10

Filename F:\ЗАГРУЗКИ\ Buddha-Bar Collection I-XIV\9. Buddha-Bar IX By Ravin 2CD (2007)\CD2 Barons Court\10. Parov Stelar - Chambermaid Swing.wav

Peak level 100.0 %
Extraction speed 6.6 X
Track quality 100.0 %
Test CRC F879C48B
Copy CRC F879C48B
Accurately ripped (confidence 4) [28C41A54]
Copy OK

Track 11

Filename F:\ЗАГРУЗКИ\ Buddha-Bar Collection I-XIV\9. Buddha-Bar IX By Ravin 2CD (2007)\CD2 Barons Court\11. OMFO - Choban In Space.wav

Peak level 100.0 %
Extraction speed 7.1 X
Track quality 100.0 %
Test CRC 9E190679
Copy CRC 9E190679
Accurately ripped (confidence 4) [BF4A9BC6]
Copy OK

Track 12

Filename F:\ЗАГРУЗКИ\ Buddha-Bar Collection I-XIV\9. Buddha-Bar IX By Ravin 2CD (2007)\CD2 Barons Court\12. Otros Aires - Amor Que Se Baila.wav

Peak level 100.0 %
Extraction speed 7.2 X
Track quality 100.0 %
Test CRC B67F75E5
Copy CRC B67F75E5
Accurately ripped (confidence 4) [BD2C7FB1]
Copy OK

Track 13

Filename F:\ЗАГРУЗКИ\ Buddha-Bar Collection I-XIV\9. Buddha-Bar IX By Ravin 2CD (2007)\CD2 Barons Court\13. Naked Rhythm - Gypsy Majik (Gypsy Lounge Vocal Remix).wav

Peak level 100.0 %
Extraction speed 7.3 X
Track quality 100.0 %
Test CRC 028985B2
Copy CRC 028985B2
Accurately ripped (confidence 4) [2B4BC8AF]
Copy OK

Track 14

Filename F:\ЗАГРУЗКИ\ Buddha-Bar Collection I-XIV\9. Buddha-Bar IX By Ravin 2CD (2007)\CD2 Barons Court\14. Blank & Jones - Loneliness (Chill House Mix).wav

Peak level 100.0 %
Extraction speed 7.9 X
Track quality 100.0 %
Test CRC A82BF980
Copy CRC A82BF980
Accurately ripped (confidence 4) [69512574]
Copy OK

Track 15

Filename F:\ЗАГРУЗКИ\ Buddha-Bar Collection I-XIV\9. Buddha-Bar IX By Ravin 2CD (2007)\CD2 Barons Court\15. Bahramji feat. Mashti - Indisufi.wav

Peak level 89.0 %
Extraction speed 8.3 X
Track quality 100.0 %
Test CRC DBFDBA3C
Copy CRC DBFDBA3C
Accurately ripped (confidence 4) [68457ED0]
Copy OK

Track 16

Filename F:\ЗАГРУЗКИ\ Buddha-Bar Collection I-XIV\9. Buddha-Bar IX By Ravin 2CD (2007)\CD2 Barons Court\16. DJ Ravin feat. Karma Sound Collective - Karma Busta Rhythm.wav

Peak level 100.0 %
Extraction speed 8.4 X
Track quality 100.0 %
Test CRC 0DC11DE4
Copy CRC 0DC11DE4
Accurately ripped (confidence 4) [D2EE28F0]
Copy OK


All tracks accurately ripped

No errors occurred

End of status report

==== Log checksum DA4313B3173C673EBE869A0D1A00E817CC40F23F2C466FE7209E086438C15138 ====




[CUETools log; Date: 2017. 01. 31. 10:19:46; Version: 2.1.6]
[CTDB TOCID: EayyxD6WTr_hB9_iwVOxrv70eHA-] found.
Track | CTDB Status
1 | (60/64) Accurately ripped
2 | (62/64) Accurately ripped
3 | (62/64) Accurately ripped
4 | (62/64) Accurately ripped
5 | (62/64) Accurately ripped
6 | (62/64) Accurately ripped
7 | (62/64) Accurately ripped
8 | (61/64) Accurately ripped
9 | (62/64) Accurately ripped
10 | (64/64) Accurately ripped
11 | (61/64) Accurately ripped
12 | (61/64) Accurately ripped
13 | (61/64) Accurately ripped
14 | (59/64) Accurately ripped
15 | (58/64) Accurately ripped
[AccurateRip ID: 0029aa16-01d5f764-c7115b0f] found.
Track [ CRC | V2 ] Status
01 [3989e320|962d9a60] (00+08/96) Accurately ripped
02 [0173cb9e|4c5fa634] (00+08/96) Accurately ripped
03 [62db9cff|e2ede1f3] (00+08/96) Accurately ripped
04 [7796ba1d|809ed278] (00+08/95) Accurately ripped
05 [e1a1876e|5e9bf01f] (00+08/95) Accurately ripped
06 [5ac6f453|ad3e2fb2] (00+08/95) Accurately ripped
07 [04b507ea|29d9e66d] (00+08/95) Accurately ripped
08 [81bdbede|0e7f07b7] (00+08/96) Accurately ripped
09 [ef3a9d10|8e2ad1f0] (00+08/94) Accurately ripped
10 [47ff5ef9|e99f182e] (00+08/95) Accurately ripped
11 [7265c0c3|c5b1e3c8] (00+08/93) Accurately ripped
12 [3d6d509e|253054b5] (00+08/92) Accurately ripped
13 [b3214233|0f12def2] (00+08/95) Accurately ripped
14 [37baa448|fe044718] (00+08/94) Accurately ripped
15 [0b43f98c|205328be] (00+08/92) Accurately ripped
Offsetted by 30:
01 [f7cf90dd] (45/96) Accurately ripped
02 [4cb1ce38] (44/96) Accurately ripped
03 [4d477a47] (44/96) Accurately ripped
04 [a49ae7e8] (44/95) Accurately ripped
05 [11794a88] (44/95) Accurately ripped
06 [639b20fd] (44/95) Accurately ripped
07 [8c03c585] (44/95) Accurately ripped
08 [46e8b857] (44/96) Accurately ripped
09 [a8f24601] (43/94) Accurately ripped
10 [296221c7] (44/95) Accurately ripped
11 [39a41c44] (42/93) Accurately ripped
12 [9edc8517] (42/92) Accurately ripped
13 [140a9d41] (44/95) Accurately ripped
14 [f6714ebe] (44/94) Accurately ripped
15 [03f07fe9] (43/92) Accurately ripped
Offsetted by -664:
01 [dcfa4408] (00/96) No match (V2 was not tested)
02 [47694b0e] (00/96) No match (V2 was not tested)
03 [cb8bc734] (00/96) No match (V2 was not tested)
04 [e5153f96] (00/95) No match (V2 was not tested)
05 [0a2c17aa] (00/95) No match (V2 was not tested)
06 [5437ace1] (00/95) No match (V2 was not tested)
07 [26de0302] (00/95) No match (V2 was not tested)
08 [6dcf98c3] (00/96) No match (V2 was not tested)
09 [9570f0ef] (00/94) No match (V2 was not tested)
10 [154d307b] (00/95) No match (V2 was not tested)
11 [6e44cde0] (00/93) No match (V2 was not tested)
12 [6ff0c771] (00/92) No match (V2 was not tested)
13 [67dec8f4] (00/95) No match (V2 was not tested)
14 [bfd53220] (00/94) No match (V2 was not tested)
15 [4bcf44d5] (00/92) No match (V2 was not tested)
Offsetted by 36:
01 [07a5dbff] (00/96) No match
02 [6c5d12fc] (00/96) No match
03 [d0ac661d] (00/96) No match (V2 was not tested)
04 [e94608ba] (00/95) No match
05 [d8ac3663] (00/95) No match
06 [d257f5cf] (00/95) No match
07 [11ac8df2] (00/95) No match
08 [5b762d75] (00/96) No match
09 [c1a1b47b] (00/94) No match
10 [fc30c01d] (00/95) No match
11 [c9fe9dac] (00/93) No match
12 [1e81224b] (00/92) No match
13 [640f3602] (00/95) No match
14 [2475caef] (00/94) No match
15 [13253f4e] (00/92) No match

Track Peak [ CRC32 ] [W/O NULL] [ LOG ]
– 100,0 [D4CAFC10] [68062825]
01 100,0 [B66B46FF] [BD4A1C79] CRC32
02 100,0 [E4F3EBDF] [7279F838] CRC32
03 100,0 [142DEE86] [99EDCEFA] CRC32
04 100,0 [D6599598] [75A8464B] CRC32
05 100,0 [23F75AD7] [243DC966] CRC32
06 100,0 [60CEE179] [2FEE326C] CRC32
07 100,0 [8BA21A4C] [8DFFC1C8] CRC32
08 94,8 [8E16B10B] [5DDCFC9F] CRC32
09 100,0 [92706929] [74BB7452] CRC32
10 100,0 [C3D4C43E] [8E53D018] CRC32
11 100,0 [9738FD06] [5818151B] CRC32
12 100,0 [FD3F8AA8] [F06219CE] CRC32
13 100,0 [64C54CA1] [DA7727CA] CRC32
14 100,0 [15E2E33D] [6208E93E] CRC32
15 100,0 [AA77E7AD] [C0058D43] CRC32

––

[CUETools log; Date: 2017. 01. 31. 10:20:38; Version: 2.1.6]
[CTDB TOCID: hnRndFmpWIAgEtTi1DOSnJcNxmU-] found.
Track | CTDB Status
1 | (60/63) Accurately ripped
2 | (62/63) Accurately ripped
3 | (60/63) Accurately ripped
4 | (59/63) Accurately ripped
5 | (59/63) Accurately ripped
6 | (58/63) Accurately ripped
7 | (61/63) Accurately ripped
8 | (60/63) Accurately ripped
9 | (61/63) Accurately ripped
10 | (60/63) Accurately ripped
11 | (59/63) Accurately ripped
12 | (60/63) Accurately ripped
13 | (61/63) Accurately ripped
14 | (60/63) Accurately ripped
15 | (56/63) Accurately ripped
16 | (58/63) Accurately ripped
[AccurateRip ID: 002d65f6-021bd062-e6122110] found.
Track [ CRC | V2 ] Status
01 [420b8378|276bb59d] (00+09/97) Accurately ripped
02 [b2e2f734|354ce139] (00+09/97) Accurately ripped
03 [e078e724|b12e3454] (00+09/97) Accurately ripped
04 [ed2bd9ca|b33960de] (00+09/98) Accurately ripped
05 [1846cb2a|fea40ea9] (00+09/98) Accurately ripped
06 [85fdf243|b8bdac06] (00+09/97) Accurately ripped
07 [35a4e4ff|c03960b5] (00+09/98) Accurately ripped
08 [143dd520|939a2084] (00+09/98) Accurately ripped
09 [421995d5|741bd475] (00+09/98) Accurately ripped
10 [28c41a54|1bc93dd5] (00+09/98) Accurately ripped
11 [bf4a9bc6|ba914133] (00+09/98) Accurately ripped
12 [bd2c7fb1|db5ca6f4] (00+09/99) Accurately ripped
13 [2b4bc8af|4b2a9dd8] (00+09/97) Accurately ripped
14 [69512574|4c2d1aec] (00+09/97) Accurately ripped
15 [68457ed0|8ee17e0e] (00+09/98) Accurately ripped
16 [d2ee28f0|100ce08b] (00+09/96) Accurately ripped
Offsetted by 30:
01 [32928914] (47/97) Accurately ripped
02 [1293e1ca] (47/97) Accurately ripped
03 [6e7b9e3c] (47/97) Accurately ripped
04 [da14b595] (47/98) Accurately ripped
05 [b3b42e52] (47/98) Accurately ripped
06 [90a8fb78] (46/97) Accurately ripped
07 [27367efe] (47/98) Accurately ripped
08 [cdfc8693] (47/98) Accurately ripped
09 [d6b3e5ec] (47/98) Accurately ripped
10 [af04f8cf] (47/98) Accurately ripped
11 [bbe04bb2] (47/98) Accurately ripped
12 [73b7bcfa] (47/99) Accurately ripped
13 [0788a2a9] (47/97) Accurately ripped
14 [1d779107] (47/97) Accurately ripped
15 [dba54131] (47/98) Accurately ripped
16 [a99325ff] (46/96) Accurately ripped
Offsetted by -1328:
01 [625cc862] (00/97) No match (V2 was not tested)
02 [0bf8aefe] (00/97) No match (V2 was not tested)
03 [a834bfb7] (00/97) No match (V2 was not tested)
04 [e01a50eb] (00/98) No match (V2 was not tested)
05 [0d0cc8b1] (00/98) No match (V2 was not tested)
06 [7f6a2ef9] (00/97) No match (V2 was not tested)
07 [108a4845] (00/98) No match (V2 was not tested)
08 [c5492f1b] (00/98) No match (V2 was not tested)
09 [09515647] (00/98) No match (V2 was not tested)
10 [64331284] (00/98) No match (V2 was not tested)
11 [c795e58b] (00/98) No match (V2 was not tested)
12 [eac708c9] (00/99) No match (V2 was not tested)
13 [9873c942] (00/97) No match (V2 was not tested)
14 [4645066b] (00/97) No match (V2 was not tested)
15 [cd5236d3] (00/98) No match (V2 was not tested)
16 [28517373] (00/96) No match (V2 was not tested)
Offsetted by -664:
01 [9a459c96] (00/97) No match (V2 was not tested)
02 [1882c327] (00/97) No match (V2 was not tested)
03 [d0555a0e] (00/97) No match (V2 was not tested)
04 [4ff6f362] (00/98) No match (V2 was not tested)
05 [5816b7a0] (00/98) No match (V2 was not tested)
06 [a70d9ca1] (00/97) No match (V2 was not tested)
07 [38d97140] (00/98) No match (V2 was not tested)
08 [43103df8] (00/98) No match (V2 was not tested)
09 [909b9a12] (00/98) No match (V2 was not tested)
10 [c64c51d2] (00/98) No match (V2 was not tested)
11 [aa0f9ff2] (00/98) No match (V2 was not tested)
12 [b5581935] (00/99) No match (V2 was not tested)
13 [d3875f97] (00/97) No match (V2 was not tested)
14 [d367ba62] (00/97) No match (V2 was not tested)
15 [52f210e3] (00/98) No match (V2 was not tested)
16 [5830bb2b] (00/96) No match (V2 was not tested)

Track Peak [ CRC32 ] [W/O NULL] [ LOG ]
– 100,0 [1F7FC080] [ED73A638]
01 99,9 [EFF41760] [690329AD] CRC32
02 100,0 [195810A0] [0DD33A7F] CRC32
03 84,1 [DD938B0E] [C1DF9F78] CRC32
04 100,0 [81367685] [E86B74B1] CRC32
05 100,0 [0AD96498] [D0EDCCA7] CRC32
06 100,0 [794FA16F] [B3B37176] CRC32
07 100,0 [D549CA76] [FA50AFA8] CRC32
08 100,0 [EE74F807] [0E9A966A] CRC32
09 100,0 [56EE2E5A] [C64856F1] CRC32
10 100,0 [F879C48B] [901DA8BB] CRC32
11 100,0 [9E190679] [16EDFDD8] CRC32
12 100,0 [B67F75E5] [441E72C7] CRC32
13 100,0 [028985B2] [6BF7367C] CRC32
14 100,0 [A82BF980] [83C5299E] CRC32
15 89,0 [DBFDBA3C] [81F2BF08] CRC32
16 100,0 [0DC11DE4] [2959D760] CRC32


Thx to Oleandris