Subcategories

VA - Bustin' Out 1982: New Wave To New Beat Volume 2 (2010)

Posted By: Designol
VA - Bustin' Out 1982: New Wave To New Beat Volume 2 (2010)

VA - Bustin' Out 1982: New Wave To New Beat Volume 2 (2010)
EAC | FLAC | Tracks (Cue&Log) ~ 512 Mb (incl 5%) | Mp3 (CBR320) ~ 188 Mb (incl 5%) | Scans ~ 293 Mb
Genre: Electro, Synth-pop, Experimental | Label: Year Zero | # YZLCD004 | Time: 01:18:25

The second installment in veteran DJ Mik Maguire's fascinating mission aimed at charting the groundbreaking developments in Electronic-based music through the '80s. 15 tracks including cuts from Gary Numan, Pylon, Front 242, Die Krupps and many others.

Tracklist:

01. Die Krupps - Goldfinger (Extended Version) (06:06)
02. E.S.G. - Moody (Cut Down) (03:53)
03. Klein & MBO - Dirty Talk (Radio Version) (04:26)
04. Man Parrish - Hip Hop Be Bop (Dub) (07:40)
05. Gary Numan - Music For Chameleons (LP Version) (06:09)
06. Front 242 - U-Men (03:20)
07. Mark Stewart & The Maffia - Liberty City (05:40)
08. Dub Syndicate - Pounding System (05:22)
09. Benjamin Lew & Steven Brown - Dans Les Jardins (07:46)
10. Shriekback - My Spine Is The Bassline (04:03)
11. Colourbox - Breakdown (06:18)
12. Afrika Bambaataaa & Soulsonic Force - Planet Rock (05:24)
13. Chris & Cosey - Impulse (02:55)
14. Portion Control - Fiends (03:25)
15. Pylon - Four Minutes (06:05)


Exact Audio Copy V1.0 beta 1 from 15. November 2010

EAC extraction logfile from 26. April 2015, 11:21

Various / Bustin' Out 1982 (New Wave To New Beat Volume 2)

Used drive : TSSTcorpCDDVDW SH-224DB Adapter: 1 ID: 0

Read mode : Secure
Utilize accurate stream : Yes
Defeat audio cache : Yes
Make use of C2 pointers : No

Read offset correction : 6
Overread into Lead-In and Lead-Out : No
Fill up missing offset samples with silence : Yes
Delete leading and trailing silent blocks : No
Null samples used in CRC calculations : Yes
Used interface : Native Win32 interface for Win NT & 2000
Gap handling : Appended to previous track

Used output format : User Defined Encoder
Selected bitrate : 896 kBit/s
Quality : High
Add ID3 tag : No
Command line compressor : C:\Program Files\Exact Audio Copy\Flac\flac.exe
Additional command line options : -6 -V -T "ARTIST=%a" -T "TITLE=%t" -T "ALBUM=%g" -T "DATE=%y" -T "TRACKNUMBER=%n" -T "GENRE=%m" -T "COMMENT=%e" %s -o %d


TOC of the extracted CD

Track | Start | Length | Start sector | End sector
––––––––––––––––––––––––––––-
1 | 0:00.00 | 6:05.30 | 0 | 27404
2 | 6:05.30 | 3:52.23 | 27405 | 44827
3 | 9:57.53 | 4:25.67 | 44828 | 64769
4 | 14:23.45 | 7:39.67 | 64770 | 99261
5 | 22:03.37 | 6:08.27 | 99262 | 126888
6 | 28:11.64 | 3:19.22 | 126889 | 141835
7 | 31:31.11 | 5:39.12 | 141836 | 167272
8 | 37:10.23 | 5:21.64 | 167273 | 191411
9 | 42:32.12 | 7:45.56 | 191412 | 226342
10 | 50:17.68 | 4:02.28 | 226343 | 244520
11 | 54:20.21 | 6:17.35 | 244521 | 272830
12 | 60:37.56 | 5:23.56 | 272831 | 297111
13 | 66:01.37 | 2:54.51 | 297112 | 310212
14 | 68:56.13 | 3:24.04 | 310213 | 325516
15 | 72:20.17 | 6:04.45 | 325517 | 352861


Track 1

Filename C:\New Folder\01 - Die Krupps - Goldfinger (Extended Version).wav

Pre-gap length 0:00:02.00

Peak level 53.0 %
Extraction speed 2.1 X
Track quality 100.0 %
Test CRC C8806802
Copy CRC C8806802
Accurately ripped (confidence 5) [8EC5CC2A]
Copy OK

Track 2

Filename C:\New Folder\02 - E.S.G. - Moody (Cut Down).wav

Peak level 100.0 %
Extraction speed 2.2 X
Track quality 100.0 %
Test CRC 6D217F77
Copy CRC 6D217F77
Accurately ripped (confidence 5) [DE06987D]
Copy OK

Track 3

Filename C:\New Folder\03 - Klein & MBO - Dirty Talk (Radio Version).wav

Peak level 100.0 %
Extraction speed 2.4 X
Track quality 100.0 %
Test CRC C8341699
Copy CRC C8341699
Accurately ripped (confidence 5) [8F1309E5]
Copy OK

Track 4

Filename C:\New Folder\04 - Man Parrish - Hip Hop Be Bop (Dub).wav

Peak level 100.0 %
Extraction speed 2.4 X
Track quality 99.9 %
Test CRC 60B3DE8B
Copy CRC 60B3DE8B
Accurately ripped (confidence 5) [B09078B4]
Copy OK

Track 5

Filename C:\New Folder\05 - Gary Numan - Music For Chameleons (LP Version).wav

Peak level 93.1 %
Extraction speed 2.9 X
Track quality 100.0 %
Test CRC 31B6F945
Copy CRC 31B6F945
Accurately ripped (confidence 5) [BBE6FEFD]
Copy OK

Track 6

Filename C:\New Folder\06 - Front 242 - U-Men.wav

Peak level 74.9 %
Extraction speed 2.8 X
Track quality 100.0 %
Test CRC 2EFA9C50
Copy CRC 2EFA9C50
Accurately ripped (confidence 5) [FB93EA4C]
Copy OK

Track 7

Filename C:\New Folder\07 - Mark Stewart & The Maffia - Liberty City.wav

Peak level 100.0 %
Extraction speed 3.2 X
Track quality 100.0 %
Test CRC 935B97E1
Copy CRC 935B97E1
Accurately ripped (confidence 5) [320220EE]
Copy OK

Track 8

Filename C:\New Folder\08 - Dub Syndicate - Pounding System.wav

Peak level 92.4 %
Extraction speed 3.3 X
Track quality 100.0 %
Test CRC 7E4B0BB3
Copy CRC 7E4B0BB3
Accurately ripped (confidence 5) [87F81033]
Copy OK

Track 9

Filename C:\New Folder\09 - Benjamin Lew & Steven Brown - Dans Les Jardins.wav

Peak level 61.0 %
Extraction speed 3.6 X
Track quality 100.0 %
Test CRC BA551329
Copy CRC BA551329
Accurately ripped (confidence 5) [7CDCB16C]
Copy OK

Track 10

Filename C:\New Folder\10 - Shriekback - My Spine Is The Bassline.wav

Peak level 81.0 %
Extraction speed 3.5 X
Track quality 100.0 %
Test CRC F8CC3037
Copy CRC F8CC3037
Accurately ripped (confidence 5) [541D1CE7]
Copy OK

Track 11

Filename C:\New Folder\11 - Colourbox - Breakdown.wav

Peak level 68.8 %
Extraction speed 3.8 X
Track quality 100.0 %
Test CRC 002FFB5D
Copy CRC 002FFB5D
Accurately ripped (confidence 5) [20E5D554]
Copy OK

Track 12

Filename C:\New Folder\12 - Afrika Bambaataaa & Soulsonic Force - Planet Rock.wav

Peak level 63.8 %
Extraction speed 3.2 X
Track quality 99.9 %
Test CRC 5B5A0B26
Copy CRC 5B5A0B26
Accurately ripped (confidence 5) [4A4DC73C]
Copy OK

Track 13

Filename C:\New Folder\13 - Chris & Cosey - Impulse.wav

Peak level 90.8 %
Extraction speed 2.6 X
Track quality 99.9 %
Test CRC B489CC55
Copy CRC B489CC55
Accurately ripped (confidence 5) [BA275DD1]
Copy OK

Track 14

Filename C:\New Folder\14 - Portion Control - Fiends.wav

Peak level 61.6 %
Extraction speed 3.8 X
Track quality 100.0 %
Test CRC 8451DEED
Copy CRC 8451DEED
Accurately ripped (confidence 6) [56B8347D]
Copy OK

Track 15

Filename C:\New Folder\15 - Pylon - Four Minutes.wav

Peak level 70.2 %
Extraction speed 3.4 X
Track quality 99.9 %
Test CRC 4F2C11EF
Copy CRC 4F2C11EF
Accurately ripped (confidence 2) [0958160E]
Copy OK


All tracks accurately ripped

No errors occurred

End of status report

==== Log checksum C34C18F327B9E67CDC5B15A5522B52CF069C4ADDEE12806C2358C75ED16DAAF0 ====

foobar2000 1.3.8 / Dynamic Range Meter 1.1.1
log date: 2015-05-28 14:44:32

––––––––––––––––––––––––––––––––––––––––
Analyzed: Afrika Bambaataaa & Soulsonic Force / Bustin' Out 1982 (New Wave To New Beat Volume 2) (1)
Benjamin Lew & Steven Brown / Bustin' Out 1982 (New Wave To New Beat Volume 2) (2)
Chris & Cosey / Bustin' Out 1982 (New Wave To New Beat Volume 2) (3)
Colourbox / Bustin' Out 1982 (New Wave To New Beat Volume 2) (4)
Die Krupps / Bustin' Out 1982 (New Wave To New Beat Volume 2) (5)
Dub Syndicate / Bustin' Out 1982 (New Wave To New Beat Volume 2) (6)
E.S.G. / Bustin' Out 1982 (New Wave To New Beat Volume 2) (7)
Front 242 / Bustin' Out 1982 (New Wave To New Beat Volume 2) (8)
Gary Numan / Bustin' Out 1982 (New Wave To New Beat Volume 2) (9)
Klein & MBO / Bustin' Out 1982 (New Wave To New Beat Volume 2) (10)
Man Parrish / Bustin' Out 1982 (New Wave To New Beat Volume 2) (11)
Mark Stewart & The Maffia / Bustin' Out 1982 (New Wave To New Beat Volume 2) (12)
Portion Control / Bustin' Out 1982 (New Wave To New Beat Volume 2) (13)
Pylon / Bustin' Out 1982 (New Wave To New Beat Volume 2) (14)
Shriekback / Bustin' Out 1982 (New Wave To New Beat Volume 2) (15)
––––––––––––––––––––––––––––––––––––––––

DR Peak RMS Duration Track
––––––––––––––––––––––––––––––––––––––––
DR9 -3.90 dB -13.87 dB 5:24 12-Planet Rock
DR8 -4.28 dB -16.06 dB 7:46 09-Dans Les Jardins
DR13 -0.83 dB -16.00 dB 2:55 13-Impulse
DR9 -3.24 dB -13.51 dB 6:17 11-Breakdown
DR5 -5.50 dB -11.49 dB 6:05 01-Goldfinger (Extended Version)
DR11 -0.68 dB -13.89 dB 5:22 08-Pounding System
DR14 0.00 dB -15.34 dB 3:52 02-Moody (Cut Down)
DR7 -2.50 dB -11.16 dB 3:19 06-U-Men
DR11 -0.61 dB -14.13 dB 6:08 05-Music For Chameleons (LP Version)
DR11 0.00 dB -13.13 dB 4:26 03-Dirty Talk (Radio Version)
DR14 0.00 dB -15.75 dB 7:40 04-Hip Hop Be Bop (Dub)
DR13 0.00 dB -15.10 dB 5:39 07-Liberty City
DR6 -4.20 dB -11.24 dB 3:24 14-Fiends
DR7 -3.07 dB -12.44 dB 6:05 15-Four Minutes
DR11 -1.82 dB -13.44 dB 4:02 10-My Spine Is The Bassline
––––––––––––––––––––––––––––––––––––––––

Number of tracks: 15
Official DR value: DR10

Samplerate: 44100 Hz
Channels: 2
Bits per sample: 16
Bitrate: 955 kbps
Codec: FLAC
================================================================================

VA - Bustin' Out 1982: New Wave To New Beat Volume 2 (2010)

VA - Bustin' Out 1982: New Wave To New Beat Volume 2 (2010)

All thanks to original releaser - alekow

More interesting music in My Blog