Subcategories

VA - Green Linnet Records: The Twentieth Anniversary Collection (1996) 2CDs

Posted By: Designol
VA - Green Linnet Records: The Twentieth Anniversary Collection (1996) 2CDs

VA - Green Linnet Records: The Twentieth Anniversary Collection (1996) 2CDs
EAC | FLAC | Image (Cue&Log) ~ 870 Mb | Mp3 (CBR320) ~ 334 Mb | Scans ~ 103 Mb
Label: Green Linnet | # GLCD 106 | Time: 02:26:06
Celtic Folk, Celtic New Age, Celtic Folk-Rock

Green Linnet 20th Anniversary Collection is a double-disc collection featuring 38 tracks from the Celtic music insitution. Every one of the label's biggest artists – including Silly Wizard, Altan, Wolfstone, the Bothy Band, John Williams, Tannahill Weavers – is on the collection, giving a good representation of not only the label, but the state of Celtic music of the '70s, '80s, and '90s. It's an excellent retrospective.

Review by Thom Owens, Allmusic.com

The great Celtic-music revival that coincided with the mid-'70s founding of Green Linnet Records still gathers momentum. It has little in common with the sentimental vaudeville songs of Irish American St. Patrick's Day parties and even differs subtly but crucially from the chamber-music elegance of the Chieftains. This is a looser music, born in the pubs rather than the concert halls and aimed at dancing and singing along rather than respectful applause. The movement includes some of the world's best singers and best improvising instrumentalists. I would especially recommend the bands–Bothy Band, Silly Wizard, the Irish Tradition, Celtic Thunder, Patrick Street, Trian, Altan, and, above all, Relativity–but there's a wealth of acoustic music out there and The Twentieth Anniversary Collection is the best place to start.

Review by Geoffrey Himes, Amazon.com

Green Linnet Website
Green Linnet at Wiki

Tracklist:

CD1:

01. Seamus Ennis - The Rainy Day / First You Must Learn the Grip (01:15)
02. Kevin Burke / Micheal O Domhnaill - Maudabawn Chapel / The Wild Irishman / The Moher Reel (03:01)
03. Kornog - Dans Loudieg (04:07)
04. Capercaillie - Oh Mo Dhuthaich (02:44)
05. Altan - Fermanagh Highland / Donegal Highland / John Doherty's / King George IV (04:06)
06. Joe Derrane with Carl Hession - Farrell O'Gara / The Flogging Reel (03:15)
07. Deanta - Culloden's Harvest (05:10)
08. Milladoiro - A farruquina (03:01)
09. Eileen Ivers - On Horseback (03:09)
10. Moving Cloud - Chinese Polka / William Durette's Clog / The Boys of the Lough (04:07)
11. Matt Molloy / Sean Keane - The Golden Keyboard / Mayor Harrison's Fedora (02:54)
12. Silly Wizard - Lover's Heart (05:16)
13. The Tannahill Weavers - Gray Bob / Cutty's Wedding / Loch Carran / Gray Bob (03:11)
14. Trian - The Humours of Ballyconnell / Reel Eboulement / Richie Dwyer's (04:38)
15. Tim Lyons - The Humours of Whiskey (03:40)
16. Jerry O’Sullivan - Colonel Fraser (04:01)
17. The Irish Tradition - Loftus Jones (03:33)
18. Patrick Street - Music for a Found Harmonium (02:45)
19. Relativity - There Was a Lady (04:33)
20. Kevin Burke / Johnny Cunningham / Christian Lemaitre - The Dionne Reel / Mouth of the Tobique (03:56)

CD2:

01. Martin Hayes - The Crooked Road / The Foxhunter's Reel (03:20)
02. Cherish the Ladies - The Cameronian Set (05:25)
03. Seamus McGuire - The Wishing Tree (03:18)
04. Wolfstone - Ballavanich (04:40)
05. Reeltime - Gort to Texas to Honolulu (03:44)
06. Mick Moloney / Jimmy Keane / Robbie O’Connell with Liz Carroll - There Were Roses (06:29)
07. John Williams - Winnie Hayes' Jig / The Lonesome Jig (03:25)
08. Paddy O'Brien / Seamus Connolly - Rigney's / Ambrose Moloney's (02:23)
09. Joe Ryan / Eddie Clarke - The Two-and-Sixpenny Girl / The Boys of the Town (02:45)
10. Touchstone - Bolen's Fancy / The Dunmore Lasses / The Maid Behind the Bar / The Glass of Beer (03:53)
11. June Tabor - No Man's Land / Flowers of the Forest (07:38)
12. The House Band - Pharaoh (03:12)
13. James Keane - Maud Miller / The Sailor's Return / Paddy Murphy's Wife (02:21)
14. Eugene O'Donnell - The Celtic Lament (03:53)
15. Billy McComiskey - Johnny Allen's / Sporting Nell (02:42)
16. Dick Gaughan - Song for Ireland (05:01)
17. Joe Burke with Charlie Lennon - Master Crowley's / The Jug of Punch (02:45)
18. The Bothy Band - A Jig and Five Reels (06:32)


Exact Audio Copy V1.0 beta 4 from 7. December 2014

EAC extraction logfile from 1. May 2015, 18:27

Various Artists / Green Linnet Records: The Twentieth Anniversary Collection

Used drive : ATAPI iHAS124 A Adapter: 1 ID: 0

Read mode : Secure
Utilize accurate stream : Yes
Defeat audio cache : Yes
Make use of C2 pointers : No

Read offset correction : 6
Overread into Lead-In and Lead-Out : No
Fill up missing offset samples with silence : Yes
Delete leading and trailing silent blocks : No
Null samples used in CRC calculations : Yes
Used interface : Native Win32 interface for Win NT & 2000

Used output format : Internal WAV Routines
Sample format : 44.100 Hz; 16 Bit; Stereo


TOC of the extracted CD

Track | Start | Length | Start sector | End sector
––––––––––––––––––––––––––––-
1 | 0:00.00 | 1:15.20 | 0 | 5644
2 | 1:15.20 | 3:01.22 | 5645 | 19241
3 | 4:16.42 | 4:07.68 | 19242 | 37834
4 | 8:24.35 | 2:44.07 | 37835 | 50141
5 | 11:08.42 | 4:06.30 | 50142 | 68621
6 | 15:14.72 | 3:15.40 | 68622 | 83286
7 | 18:30.37 | 5:10.48 | 83287 | 106584
8 | 23:41.10 | 3:01.52 | 106585 | 120211
9 | 26:42.62 | 3:09.10 | 120212 | 134396
10 | 29:51.72 | 4:07.10 | 134397 | 152931
11 | 33:59.07 | 2:54.18 | 152932 | 165999
12 | 36:53.25 | 5:16.62 | 166000 | 189761
13 | 42:10.12 | 3:11.33 | 189762 | 204119
14 | 45:21.45 | 4:38.02 | 204120 | 224971
15 | 49:59.47 | 3:40.23 | 224972 | 241494
16 | 53:39.70 | 4:01.15 | 241495 | 259584
17 | 57:41.10 | 3:33.47 | 259585 | 275606
18 | 61:14.57 | 2:45.10 | 275607 | 287991
19 | 63:59.67 | 4:33.30 | 287992 | 308496
20 | 68:33.22 | 3:56.58 | 308497 | 326254


Range status and errors

Selected range

Filename C:\Various Artists - Green Linnet Records- The Twentieth Anniversary Collection\Various Artists - Green Linnet Records- The Twentieth Anniversary Collection.wav

Peak level 97.4 %
Extraction speed 6.7 X
Range quality 100.0 %
Test CRC 5DA19D34
Copy CRC 5DA19D34
Copy OK

No errors occurred


AccurateRip summary

Track 1 accurately ripped (confidence 24) [CAC6B3CE] (AR v2)
Track 2 accurately ripped (confidence 25) [6C9C3D6C] (AR v2)
Track 3 accurately ripped (confidence 25) [488F4259] (AR v2)
Track 4 accurately ripped (confidence 25) [EBE1FB92] (AR v2)
Track 5 accurately ripped (confidence 25) [7C0FDE68] (AR v2)
Track 6 accurately ripped (confidence 25) [C92F75FF] (AR v2)
Track 7 accurately ripped (confidence 25) [FD616862] (AR v2)
Track 8 accurately ripped (confidence 25) [131D081A] (AR v2)
Track 9 accurately ripped (confidence 25) [10D587E0] (AR v2)
Track 10 accurately ripped (confidence 25) [838EA1B0] (AR v2)
Track 11 accurately ripped (confidence 25) [6DFE8432] (AR v2)
Track 12 accurately ripped (confidence 25) [35CDCC3C] (AR v2)
Track 13 accurately ripped (confidence 25) [040C0073] (AR v2)
Track 14 accurately ripped (confidence 25) [51920D0C] (AR v2)
Track 15 accurately ripped (confidence 25) [6853271B] (AR v2)
Track 16 accurately ripped (confidence 24) [BC475921] (AR v2)
Track 17 accurately ripped (confidence 25) [EDA0742E] (AR v2)
Track 18 accurately ripped (confidence 25) [DA06DD24] (AR v2)
Track 19 accurately ripped (confidence 24) [1B87903F] (AR v2)
Track 20 accurately ripped (confidence 24) [7F733EBD] (AR v2)

All tracks accurately ripped

End of status report

–– CUETools DB Plugin V2.1.4

[CTDB TOCID: YVmvDc6ZD3CAcssScH7a7GxBQVk-] found
Submit result: YVmvDc6ZD3CAcssScH7a7GxBQVk- has been confirmed
Track | CTDB Status
1 | (15/15) Accurately ripped
2 | (15/15) Accurately ripped
3 | (15/15) Accurately ripped
4 | (15/15) Accurately ripped
5 | (15/15) Accurately ripped
6 | (15/15) Accurately ripped
7 | (15/15) Accurately ripped
8 | (15/15) Accurately ripped
9 | (15/15) Accurately ripped
10 | (15/15) Accurately ripped
11 | (15/15) Accurately ripped
12 | (15/15) Accurately ripped
13 | (15/15) Accurately ripped
14 | (15/15) Accurately ripped
15 | (15/15) Accurately ripped
16 | (15/15) Accurately ripped
17 | (15/15) Accurately ripped
18 | (15/15) Accurately ripped
19 | (15/15) Accurately ripped
20 | (14/15) Accurately ripped

foobar2000 1.2 / Dynamic Range Meter 1.1.1
log date: 2015-10-15 01:00:44

––––––––––––––––––––––––––––––––––––––––
Analyzed: Capercaillie / Green Linnet Records: The Twentieth Anniversary Collection (1)
Deanta / Green Linnet Records: The Twentieth Anniversary Collection (2)
Eileen Ivers / Green Linnet Records: The Twentieth Anniversary Collection (3)
Jerry O’Sullivan / Green Linnet Records: The Twentieth Anniversary Collection (4)
––––––––––––––––––––––––––––––––––––––––

DR Peak RMS Duration Track
––––––––––––––––––––––––––––––––––––––––
DR11 -0.35 dB -15.12 dB 2:44 04-Oh Mo Dhuthaich
DR11 -0.30 dB -13.58 dB 5:11 07-Culloden's Harvest
DR10 -0.23 dB -12.15 dB 3:09 09-On Horseback
DR10 -0.29 dB -11.64 dB 4:01 16-Colonel Fraser
––––––––––––––––––––––––––––––––––––––––

Number of tracks: 4
Official DR value: DR10

Samplerate: 44100 Hz
Channels: 2
Bits per sample: 16
Bitrate: 852 kbps
Codec: FLAC
================================================================================

––––––––––––––––––––––––––––––––––––––––
Analyzed: Joe Derrane with Carl Hession / Green Linnet Records: The Twentieth Anniversary Collection (1)
Kevin Burke / Johnny Cunningham / Christian Lemaitre / Green Linnet Records: The Twentieth Anniversary Collection (2)
––––––––––––––––––––––––––––––––––––––––

DR Peak RMS Duration Track
––––––––––––––––––––––––––––––––––––––––
DR11 -0.30 dB -12.81 dB 3:16 06-Farrell O'Gara / The Flogging Reel
DR10 -0.24 dB -12.31 dB 3:57 20-The Dionne Reel / Mouth of the Tobique
––––––––––––––––––––––––––––––––––––––––

Number of tracks: 2
Official DR value: DR11

Samplerate: 44100 Hz
Channels: 2
Bits per sample: 16
Bitrate: 852 kbps
Codec: FLAC
================================================================================

––––––––––––––––––––––––––––––––––––––––
Analyzed: Kevin Burke / Micheal O Domhnaill / Green Linnet Records: The Twentieth Anniversary Collection (1)
Kornog / Green Linnet Records: The Twentieth Anniversary Collection (2)
Matt Molloy / Sean Keane / Green Linnet Records: The Twentieth Anniversary Collection (3)
––––––––––––––––––––––––––––––––––––––––

DR Peak RMS Duration Track
––––––––––––––––––––––––––––––––––––––––
DR13 -0.24 dB -14.76 dB 3:01 02-Maudabawn Chapel / The Wild Irishman / The Moher Reel
DR11 -0.26 dB -13.54 dB 4:08 03-Dans Loudieg
DR10 -0.35 dB -11.78 dB 2:54 11-The Golden Keyboard / Mayor Harrison's Fedora
––––––––––––––––––––––––––––––––––––––––

Number of tracks: 3
Official DR value: DR11

Samplerate: 44100 Hz
Channels: 2
Bits per sample: 16
Bitrate: 852 kbps
Codec: FLAC
================================================================================

––––––––––––––––––––––––––––––––––––––––
Analyzed: Milladoiro / Green Linnet Records: The Twentieth Anniversary Collection (1)
Moving Cloud / Green Linnet Records: The Twentieth Anniversary Collection (2)
Patrick Street / Green Linnet Records: The Twentieth Anniversary Collection (3)
Relativity / Green Linnet Records: The Twentieth Anniversary Collection (4)
––––––––––––––––––––––––––––––––––––––––

DR Peak RMS Duration Track
––––––––––––––––––––––––––––––––––––––––
DR11 -0.29 dB -13.48 dB 3:02 08-A farruquina
DR13 -0.30 dB -14.54 dB 4:07 10-Chinese Polka / William Durette's Clog / The Boys of the Lough
DR11 -0.29 dB -13.76 dB 2:45 18-Music for a Found Harmonium
DR12 -0.30 dB -14.36 dB 4:33 19-There Was a Lady
––––––––––––––––––––––––––––––––––––––––

Number of tracks: 4
Official DR value: DR11

Samplerate: 44100 Hz
Channels: 2
Bits per sample: 16
Bitrate: 852 kbps
Codec: FLAC
================================================================================

––––––––––––––––––––––––––––––––––––––––
Analyzed: Seamus Ennis / Green Linnet Records: The Twentieth Anniversary Collection (1)
Silly Wizard / Green Linnet Records: The Twentieth Anniversary Collection (2)
The Irish Tradition / Green Linnet Records: The Twentieth Anniversary Collection (3)
––––––––––––––––––––––––––––––––––––––––

DR Peak RMS Duration Track
––––––––––––––––––––––––––––––––––––––––
DR11 -0.87 dB -15.83 dB 1:15 01-The Rainy Day / First You Must Learn the Grip
DR10 -0.25 dB -13.12 dB 5:17 12-Lover's Heart
DR9 -0.30 dB -11.42 dB 3:34 17-Loftus Jones
––––––––––––––––––––––––––––––––––––––––

Number of tracks: 3
Official DR value: DR10

Samplerate: 44100 Hz
Channels: 2
Bits per sample: 16
Bitrate: 852 kbps
Codec: FLAC
================================================================================

––––––––––––––––––––––––––––––––––––––––
Analyzed: The Tannahill Weavers / Green Linnet Records: The Twentieth Anniversary Collection (1)
Tim Lyons / Green Linnet Records: The Twentieth Anniversary Collection (2)
––––––––––––––––––––––––––––––––––––––––

DR Peak RMS Duration Track
––––––––––––––––––––––––––––––––––––––––
DR10 -0.27 dB -11.76 dB 3:11 13-Gray Bob / Cutty's Wedding / Loch Carran / Gray Bob
DR12 -0.28 dB -16.31 dB 3:40 15-The Humours of Whiskey
––––––––––––––––––––––––––––––––––––––––

Number of tracks: 2
Official DR value: DR11

Samplerate: 44100 Hz
Channels: 2
Bits per sample: 16
Bitrate: 852 kbps
Codec: FLAC
================================================================================

––––––––––––––––––––––––––––––––––––––––
Statistics for: 14-The Humours of Ballyconnell / Reel Eboulement / Richie Dwyer's
Number of samples: 12260976
Duration: 4:38
––––––––––––––––––––––––––––––––––––––––

Left Right

Peak Value: -0.30 dB –- -0.29 dB
Avg RMS: -13.86 dB –- -12.83 dB
DR channel: 11.91 dB –- 11.17 dB
––––––––––––––––––––––––––––––––––––––––

Official DR Value: DR12

Samplerate: 44100 Hz
Channels: 2
Bits per sample: 16
Bitrate: 852 kbps
Codec: FLAC
================================================================================
foobar2000 1.2 / Dynamic Range Meter 1.1.1
log date: 2015-10-15 01:00:39

––––––––––––––––––––––––––––––––––––––––
Statistics for: 05-Fermanagh Highland / Donegal Highland / John Doherty's / King George IV
Number of samples: 10866240
Duration: 4:06
––––––––––––––––––––––––––––––––––––––––

Left Right

Peak Value: -0.29 dB –- -0.28 dB
Avg RMS: -10.97 dB –- -11.41 dB
DR channel: 8.65 dB –- 9.47 dB
––––––––––––––––––––––––––––––––––––––––

Official DR Value: DR9

Samplerate: 44100 Hz
Channels: 2
Bits per sample: 16
Bitrate: 852 kbps
Codec: FLAC
================================================================================


Exact Audio Copy V1.0 beta 4 from 7. December 2014

EAC extraction logfile from 1. May 2015, 18:48

Various Artists / Green Linnet Records: The Twentieth Anniversary Collection

Used drive : ATAPI iHAS124 A Adapter: 1 ID: 0

Read mode : Secure
Utilize accurate stream : Yes
Defeat audio cache : Yes
Make use of C2 pointers : No

Read offset correction : 6
Overread into Lead-In and Lead-Out : No
Fill up missing offset samples with silence : Yes
Delete leading and trailing silent blocks : No
Null samples used in CRC calculations : Yes
Used interface : Native Win32 interface for Win NT & 2000

Used output format : Internal WAV Routines
Sample format : 44.100 Hz; 16 Bit; Stereo


TOC of the extracted CD

Track | Start | Length | Start sector | End sector
––––––––––––––––––––––––––––-
1 | 0:00.00 | 3:20.60 | 0 | 15059
2 | 3:20.60 | 5:25.50 | 15060 | 39484
3 | 8:46.35 | 3:18.55 | 39485 | 54389
4 | 12:05.15 | 4:40.35 | 54390 | 75424
5 | 16:45.50 | 3:44.52 | 75425 | 92276
6 | 20:30.27 | 6:29.73 | 92277 | 121524
7 | 27:00.25 | 3:25.00 | 121525 | 136899
8 | 30:25.25 | 2:23.07 | 136900 | 147631
9 | 32:48.32 | 2:45.65 | 147632 | 160071
10 | 35:34.22 | 3:53.43 | 160072 | 177589
11 | 39:27.65 | 7:38.30 | 177590 | 211969
12 | 47:06.20 | 3:12.12 | 211970 | 226381
13 | 50:18.32 | 2:21.65 | 226382 | 237021
14 | 52:40.22 | 3:53.35 | 237022 | 254531
15 | 56:33.57 | 2:42.70 | 254532 | 266751
16 | 59:16.52 | 5:01.28 | 266752 | 289354
17 | 64:18.05 | 2:45.67 | 289355 | 301796
18 | 67:03.72 | 6:32.23 | 301797 | 331219


Range status and errors

Selected range

Filename C:\Various Artists - Green Linnet Records- The Twentieth Anniversary Collection (CD 2)\Various Artists - Green Linnet Records- The Twentieth Anniversary Collection.wav

Peak level 97.6 %
Extraction speed 6.6 X
Range quality 99.9 %
Test CRC 3ED6DAAD
Copy CRC 3ED6DAAD
Copy OK

No errors occurred


AccurateRip summary

Track 1 accurately ripped (confidence 9) [A797DD29] (AR v2)
Track 2 accurately ripped (confidence 9) [6FC74840] (AR v2)
Track 3 accurately ripped (confidence 9) [A72D7C80] (AR v2)
Track 4 accurately ripped (confidence 9) [5307AD58] (AR v2)
Track 5 accurately ripped (confidence 9) [5A155715] (AR v2)
Track 6 accurately ripped (confidence 9) [3E325F9C] (AR v2)
Track 7 accurately ripped (confidence 9) [D31B0AC7] (AR v2)
Track 8 accurately ripped (confidence 9) [A4E91EF4] (AR v2)
Track 9 accurately ripped (confidence 9) [58D8E556] (AR v2)
Track 10 accurately ripped (confidence 9) [C58A3D28] (AR v2)
Track 11 accurately ripped (confidence 9) [E6D2086C] (AR v2)
Track 12 accurately ripped (confidence 9) [C706A357] (AR v2)
Track 13 accurately ripped (confidence 9) [61EB5BA4] (AR v2)
Track 14 accurately ripped (confidence 9) [6E5A5A53] (AR v2)
Track 15 accurately ripped (confidence 10) [888CD15E] (AR v2)
Track 16 accurately ripped (confidence 10) [8C071205] (AR v2)
Track 17 accurately ripped (confidence 10) [67EADA6D] (AR v2)
Track 18 accurately ripped (confidence 9) [534BD2B6] (AR v2)

All tracks accurately ripped

End of status report

–– CUETools DB Plugin V2.1.4

[CTDB TOCID: wrwhiqLAUHHo3OIse6A1CZOO7T0-] found
Submit result: wrwhiqLAUHHo3OIse6A1CZOO7T0- has been confirmed
Track | CTDB Status
1 | (16/16) Accurately ripped
2 | (16/16) Accurately ripped
3 | (16/16) Accurately ripped
4 | (16/16) Accurately ripped
5 | (16/16) Accurately ripped
6 | (16/16) Accurately ripped
7 | (16/16) Accurately ripped
8 | (16/16) Accurately ripped
9 | (16/16) Accurately ripped
10 | (16/16) Accurately ripped
11 | (16/16) Accurately ripped
12 | (16/16) Accurately ripped
13 | (16/16) Accurately ripped
14 | (16/16) Accurately ripped
15 | (16/16) Accurately ripped
16 | (16/16) Accurately ripped
17 | (16/16) Accurately ripped
18 | (16/16) Accurately ripped

foobar2000 1.2 / Dynamic Range Meter 1.1.1
log date: 2015-10-15 01:01:05

––––––––––––––––––––––––––––––––––––––––
Analyzed: Cherish the Ladies / Green Linnet Records: The Twentieth Anniversary Collection (1)
Dick Gaughan / Green Linnet Records: The Twentieth Anniversary Collection (2)
––––––––––––––––––––––––––––––––––––––––

DR Peak RMS Duration Track
––––––––––––––––––––––––––––––––––––––––
DR11 -0.21 dB -13.81 dB 5:26 02-The Cameronian Set
DR11 -0.61 dB -14.78 dB 5:01 16-Song for Ireland
––––––––––––––––––––––––––––––––––––––––

Number of tracks: 2
Official DR value: DR11

Samplerate: 44100 Hz
Channels: 2
Bits per sample: 16
Bitrate: 815 kbps
Codec: FLAC
================================================================================

––––––––––––––––––––––––––––––––––––––––
Statistics for: 14-The Celtic Lament
Number of samples: 10295880
Duration: 3:53
––––––––––––––––––––––––––––––––––––––––

Left Right

Peak Value: -1.55 dB –- -0.93 dB
Avg RMS: -17.81 dB –- -17.42 dB
DR channel: 11.22 dB –- 12.06 dB
––––––––––––––––––––––––––––––––––––––––

Official DR Value: DR12

Samplerate: 44100 Hz
Channels: 2
Bits per sample: 16
Bitrate: 815 kbps
Codec: FLAC
================================================================================
––––––––––––––––––––––––––––––––––––––––
Analyzed: James Keane / Green Linnet Records: The Twentieth Anniversary Collection (1)
Joe Burke with Charlie Lennon / Green Linnet Records: The Twentieth Anniversary Collection (2)
––––––––––––––––––––––––––––––––––––––––

DR Peak RMS Duration Track
––––––––––––––––––––––––––––––––––––––––
DR13 -0.21 dB -14.17 dB 2:22 13-Maud Miller / The Sailor's Return / Paddy Murphy's Wife
DR11 -0.21 dB -12.65 dB 2:46 17-Master Crowley's / The Jug of Punch
––––––––––––––––––––––––––––––––––––––––

Number of tracks: 2
Official DR value: DR12

Samplerate: 44100 Hz
Channels: 2
Bits per sample: 16
Bitrate: 815 kbps
Codec: FLAC
================================================================================

––––––––––––––––––––––––––––––––––––––––
Statistics for: 09-The Two-and-Sixpenny Girl / The Boys of the Town
Number of samples: 7314720
Duration: 2:46
––––––––––––––––––––––––––––––––––––––––

Left Right

Peak Value: -2.16 dB –- -0.89 dB
Avg RMS: -17.94 dB –- -17.53 dB
DR channel: 13.90 dB –- 14.23 dB
––––––––––––––––––––––––––––––––––––––––

Official DR Value: DR14

Samplerate: 44100 Hz
Channels: 2
Bits per sample: 16
Bitrate: 815 kbps
Codec: FLAC
================================================================================
––––––––––––––––––––––––––––––––––––––––
Analyzed: John Williams / Green Linnet Records: The Twentieth Anniversary Collection (1)
June Tabor / Green Linnet Records: The Twentieth Anniversary Collection (2)
––––––––––––––––––––––––––––––––––––––––

DR Peak RMS Duration Track
––––––––––––––––––––––––––––––––––––––––
DR11 -0.23 dB -13.79 dB 3:25 07-Winnie Hayes' Jig / The Lonesome Jig
DR12 -0.22 dB -15.73 dB 7:38 11-No Man's Land / Flowers of the Forest
––––––––––––––––––––––––––––––––––––––––

Number of tracks: 2
Official DR value: DR12

Samplerate: 44100 Hz
Channels: 2
Bits per sample: 16
Bitrate: 815 kbps
Codec: FLAC
================================================================================

––––––––––––––––––––––––––––––––––––––––
Analyzed: Martin Hayes / Green Linnet Records: The Twentieth Anniversary Collection (1)
Mick Moloney / Jimmy Keane / Robbie O’Connell with Liz Carroll / Green Linnet Records: The Twentieth Anniversary Collection (2)
Paddy O'Brien / Seamus Connolly / Green Linnet Records: The Twentieth Anniversary Collection (3)
––––––––––––––––––––––––––––––––––––––––

DR Peak RMS Duration Track
––––––––––––––––––––––––––––––––––––––––
DR10 -0.21 dB -11.75 dB 3:21 01-The Crooked Road / The Foxhunter's Reel
DR11 -0.21 dB -13.95 dB 6:30 06-There Were Roses
DR11 -0.21 dB -12.16 dB 2:23 08-Rigney's / Ambrose Moloney's
––––––––––––––––––––––––––––––––––––––––

Number of tracks: 3
Official DR value: DR11

Samplerate: 44100 Hz
Channels: 2
Bits per sample: 16
Bitrate: 815 kbps
Codec: FLAC
================================================================================

––––––––––––––––––––––––––––––––––––––––
Statistics for: 05-Gort to Texas to Honolulu
Number of samples: 9908976
Duration: 3:45
––––––––––––––––––––––––––––––––––––––––

Left Right

Peak Value: -0.21 dB –- -0.24 dB
Avg RMS: -13.00 dB –- -11.58 dB
DR channel: 11.20 dB –- 10.09 dB
––––––––––––––––––––––––––––––––––––––––

Official DR Value: DR11

Samplerate: 44100 Hz
Channels: 2
Bits per sample: 16
Bitrate: 815 kbps
Codec: FLAC
================================================================================
––––––––––––––––––––––––––––––––––––––––
Analyzed: Seamus McGuire / Green Linnet Records: The Twentieth Anniversary Collection (1)
The Bothy Band / Green Linnet Records: The Twentieth Anniversary Collection (2)
––––––––––––––––––––––––––––––––––––––––

DR Peak RMS Duration Track
––––––––––––––––––––––––––––––––––––––––
DR10 -0.24 dB -13.85 dB 3:19 03-The Wishing Tree
DR9 -0.36 dB -12.08 dB 6:32 18-A Jig and Five Reels
––––––––––––––––––––––––––––––––––––––––

Number of tracks: 2
Official DR value: DR10

Samplerate: 44100 Hz
Channels: 2
Bits per sample: 16
Bitrate: 815 kbps
Codec: FLAC
================================================================================

––––––––––––––––––––––––––––––––––––––––
Statistics for: 12-Pharaoh
Number of samples: 8474256
Duration: 3:12
––––––––––––––––––––––––––––––––––––––––

Left Right

Peak Value: -0.21 dB –- -0.24 dB
Avg RMS: -13.13 dB –- -12.85 dB
DR channel: 11.37 dB –- 10.97 dB
––––––––––––––––––––––––––––––––––––––––

Official DR Value: DR11

Samplerate: 44100 Hz
Channels: 2
Bits per sample: 16
Bitrate: 815 kbps
Codec: FLAC
================================================================================
––––––––––––––––––––––––––––––––––––––––
Statistics for: 10-Bolen's Fancy / The Dunmore Lasses / The Maid Behind the Bar / The Glass of Beer
Number of samples: 10300584
Duration: 3:54
––––––––––––––––––––––––––––––––––––––––

Left Right

Peak Value: -0.21 dB –- -0.24 dB
Avg RMS: -14.18 dB –- -14.09 dB
DR channel: 10.88 dB –- 11.36 dB
––––––––––––––––––––––––––––––––––––––––

Official DR Value: DR11

Samplerate: 44100 Hz
Channels: 2
Bits per sample: 16
Bitrate: 815 kbps
Codec: FLAC
================================================================================
––––––––––––––––––––––––––––––––––––––––
Statistics for: 04-Ballavanich
Number of samples: 12368580
Duration: 4:40
––––––––––––––––––––––––––––––––––––––––

Left Right

Peak Value: -0.21 dB –- -0.24 dB
Avg RMS: -13.41 dB –- -13.18 dB
DR channel: 10.16 dB –- 9.56 dB
––––––––––––––––––––––––––––––––––––––––

Official DR Value: DR10

Samplerate: 44100 Hz
Channels: 2
Bits per sample: 16
Bitrate: 815 kbps
Codec: FLAC
================================================================================
foobar2000 1.2 / Dynamic Range Meter 1.1.1
log date: 2015-10-15 01:01:02

––––––––––––––––––––––––––––––––––––––––
Statistics for: 15-Johnny Allen's / Sporting Nell
Number of samples: 7185360
Duration: 2:43
––––––––––––––––––––––––––––––––––––––––

Left Right

Peak Value: -1.31 dB –- -0.64 dB
Avg RMS: -11.72 dB –- -11.64 dB
DR channel: 9.13 dB –- 9.63 dB
––––––––––––––––––––––––––––––––––––––––

Official DR Value: DR9

Samplerate: 44100 Hz
Channels: 2
Bits per sample: 16
Bitrate: 815 kbps
Codec: FLAC
================================================================================

VA - Green Linnet Records: The Twentieth Anniversary Collection (1996) 2CDs

VA - Green Linnet Records: The Twentieth Anniversary Collection (1996) 2CDs

All thanks to original releaser - artlovesound

More interesting music in My Blog