Subcategories

VA - The Original Jazz Album: 16 Of The Finest Cuts From The Legends Of Jazz (2004) [Re-Up]

Posted By: Designol
VA - The Original Jazz Album: 16 Of The Finest Cuts From The Legends Of Jazz (2004) [Re-Up]

VA - The Original Jazz Album: 16 Of The Finest Cuts From The Legends Of Jazz (2004)
EAC | FLAC | Image (Cue&Log) ~ 503 Mb | Mp3 (CBR320) ~ 178 Mb | Scans included
Genre: Jazz | Label: EMI Gold | # 7243 8 64319 2 9 | Time: 01:16:21

16 tracks. Herbie Hancock, Miles Davis, John Coltrane, Art Blakey & The Jazz Messengers, Nat King Cole & The George Shearing Quintet, Buddy Rich, Horace Silver, Peggy Lee, Cannonball Adderley, Count Basie Orchestra, Louis Armstrong & Duke Ellington, Stan Getz, Donald Byrd, Dexter Gordon, Dinah Washington, Charlie Parker.

VA - The Original Jazz Album: 16 Of The Finest Cuts From The Legends Of Jazz (2004) [Re-Up]


Tracklist:

01. Herbie Hancock - Cantaloupe Island (05:29)
02. Miles Davis Quartet - Weirdo (04:43)
03. John Coltrane - Like Sonny (03:56)
04. Art Blakey & The Jazz Messengers - Moanin' (09:37)
05. Nat King Cole & The George Shearing Quintet - Let There Be Love (02:45)
06. Buddy Rich - The Boat Goes On (04:51)
07. Horace Silver - Song For My Father (07:17)
08. Peggy Lee - Cheek To Cheek (02:39)
09. Cannonball Adderley - Mercy Mercy Mercy (03:05)
10. Count Basie Orchestra - Lullaby Of Birdland (04:46)
11. Louis Armstrong & Duke Ellington - It Don't Mean A Thing (If It Ain't Got That Swing) (04:00)
12. Stan Getz - Crazy Rhythm (05:54)
13. Donald Byrd - (Fallin' Like) Dominoes (04:32)
14. Dexter Gordon - Cheese Cake (06:33)
15. Dinah Washington - Call Me Irresponsible (02:20)
16. Charlie Parker - Embraceable You (03:47)


Exact Audio Copy V0.99 prebeta 4 from 23. January 2008

Отчёт EAC об извлечении, выполненном 10. мая 2009, 15:24

Various Artists / The Original Jazz Album

Дисковод: Optiarc DVD RW AD-7203S Adapter: 3 ID: 1

Режим чтения : Достоверность
Использование точного потока : Да
Отключение кэша аудио : Да
Использование указателей C2 : Нет

Коррекция смещения при чтении : 48
Способность читать области Lead-in и Lead-out : Нет
Заполнение пропущенных сэмплов тишиной : Да
Удаление блоков с тишиной в начале и конце : Нет
При вычислениях CRC использовались нулевые сэмплы : Да
Интерфейс : Установленный внешний ASPI-интерфейс

Выходной формат : Пользовательский кодировщик
Выбранный битрейт : 896 kBit/s
Качество : Высокий
Добавление ID3-тэга : Нет
Утилита сжатия : C:\Program Files\Exact Audio Copy\Flac\flac.exe
Дополнительные параметры : -0 -V -T "ARTIST=%a" -T "TITLE=%t" -T "ALBUM=%g" -T "DATE=%y" -T "TRACKNUMBER=%n" -T "GENRE=%m" -T "COMMENT=EAC FLAC -8" %s


TOC извлечённого CD

Трек | Старт | Длительность | Начальный сектор | Конечный сектор
––––––––––––––––––––––––––––––––––-
1 | 0:00.00 | 5:29.52 | 0 | 24726
2 | 5:29.52 | 4:43.40 | 24727 | 45991
3 | 10:13.17 | 3:56.40 | 45992 | 63731
4 | 14:09.57 | 9:37.05 | 63732 | 107011
5 | 23:46.62 | 2:45.64 | 107012 | 119450
6 | 26:32.51 | 4:51.02 | 119451 | 141277
7 | 31:23.53 | 7:17.59 | 141278 | 174111
8 | 38:41.37 | 2:39.13 | 174112 | 186049
9 | 41:20.50 | 3:05.35 | 186050 | 199959
10 | 44:26.10 | 4:46.61 | 199960 | 221470
11 | 49:12.71 | 4:00.20 | 221471 | 239490
12 | 53:13.16 | 5:54.12 | 239491 | 266052
13 | 59:07.28 | 4:32.71 | 266053 | 286523
14 | 63:40.24 | 6:33.54 | 286524 | 316052
15 | 70:14.03 | 2:20.03 | 316053 | 326555
16 | 72:34.06 | 3:47.07 | 326556 | 343587


Характеристики диапазона извлечения и сообщения об ошибках

Выбранный диапазон

Имя файла K:\Torrent\Jazz\VA - The Original Jazz Album\Various Artists - The Original Jazz Album.wav

Пиковый уровень 97.1 %
Качество диапазона 99.9 %
CRC теста 9383DCCD
CRC копии 9383DCCD
Копирование… OK

Ошибок не произошло


AccurateRip: сводка

Трек 1 точное извлечение (доверие 3) [6A52E3D7]
Трек 2 точное извлечение (доверие 3) [67FD5A46]
Трек 3 точное извлечение (доверие 3) [70E55465]
Трек 4 точное извлечение (доверие 3) [C97C46EC]
Трек 5 точное извлечение (доверие 3) [0628E7F3]
Трек 6 точное извлечение (доверие 3) [5019392A]
Трек 7 точное извлечение (доверие 3) [A72336D4]
Трек 8 точное извлечение (доверие 3) [FA1F60C5]
Трек 9 точное извлечение (доверие 3) [7D9FFEBD]
Трек 10 точное извлечение (доверие 3) [DF715146]
Трек 11 точное извлечение (доверие 3) [E4A9D789]
Трек 12 точное извлечение (доверие 3) [3399C2A3]
Трек 13 точное извлечение (доверие 3) [28024123]
Трек 14 точное извлечение (доверие 3) [F1A91E9B]
Трек 15 точное извлечение (доверие 3) [AEC6E19E]
Трек 16 точное извлечение (доверие 3) [4D57E977]

Все треки извлечены точно

Конец отчёта

[CUETools log; Date: 20.10.2015 16:05:18; Version: 2.1.4]
[CTDB TOCID: SeoY8AO4uYlgf6rIMi0fu02dBBo-] found.
Track | CTDB Status
1 | (15/15) Accurately ripped
2 | (15/15) Accurately ripped
3 | (14/15) Accurately ripped
4 | (15/15) Accurately ripped
5 | (15/15) Accurately ripped
6 | (15/15) Accurately ripped
7 | (15/15) Accurately ripped
8 | (15/15) Accurately ripped
9 | (15/15) Accurately ripped
10 | (14/15) Accurately ripped
11 | (14/15) Accurately ripped
12 | (13/15) Accurately ripped
13 | (15/15) Accurately ripped
14 | (15/15) Accurately ripped
15 | (15/15) Accurately ripped
16 | (15/15) Accurately ripped
[AccurateRip ID: 002eb922-022a74a2-f411e510] found.
Track [ CRC | V2 ] Status
01 [6a52e3d7|5ae5ad5d] (08+10/18) Accurately ripped
02 [67fd5a46|8aec8cf5] (08+10/18) Accurately ripped
03 [70e55465|92ddde87] (08+10/18) Accurately ripped
04 [c97c46ec|983a5716] (08+10/18) Accurately ripped
05 [0628e7f3|68d437da] (08+10/18) Accurately ripped
06 [5019392a|be62c317] (08+10/18) Accurately ripped
07 [a72336d4|80340810] (08+10/18) Accurately ripped
08 [fa1f60c5|ddea3cb9] (08+10/18) Accurately ripped
09 [7d9ffebd|10405c67] (08+10/18) Accurately ripped
10 [df715146|78720a39] (08+10/18) Accurately ripped
11 [e4a9d789|ed9c0409] (08+10/18) Accurately ripped
12 [3399c2a3|20ebeb4c] (08+09/17) Accurately ripped
13 [28024123|bc28019b] (08+10/18) Accurately ripped
14 [f1a91e9b|164476ca] (08+10/18) Accurately ripped
15 [aec6e19e|e57a4a2f] (08+10/18) Accurately ripped
16 [4d57e977|cc8306c4] (08+10/18) Accurately ripped

Track Peak [ CRC32 ] [W/O NULL] [ LOG ]
– 97,1 [9383DCCD] [A889C5C7] CRC32
01 97,1 [590501B9] [653CC942]
02 75,5 [D35C0CF0] [F579944E]
03 92,9 [D3169C0C] [4BA879E2]
04 94,6 [3ACFE4D0] [BBCB3849]
05 92,1 [86B35FC2] [A748C51F]
06 86,6 [B0739446] [AFDBCC92]
07 92,6 [F6540EBE] [EFF80F67]
08 94,2 [F163D81B] [F65943B6]
09 94,1 [8ED27FD2] [BB3A96BE]
10 94,5 [C35C8762] [27B2F8E6]
11 94,2 [E4810C3C] [6785E3B1]
12 92,5 [974AA436] [0604508E]
13 93,8 [44E4BF71] [C2E8FF32]
14 92,7 [A4CA82F7] [5D7DE14C]
15 92,6 [F93AE0C6] [0D5AD3ED]
16 94,2 [4D8CC84E] [411755B3]

foobar2000 1.2 / Dynamic Range Meter 1.1.1
log date: 2015-10-20 13:52:33

––––––––––––––––––––––––––––––––––––––––
Analyzed: Art Blakey & The Jazz Messengers / The Original Jazz Album (1)
Buddy Rich / The Original Jazz Album (2)
Cannonball Adderley / The Original Jazz Album (3)
Charlie Parker / The Original Jazz Album (4)
––––––––––––––––––––––––––––––––––––––––

DR Peak RMS Duration Track
––––––––––––––––––––––––––––––––––––––––
DR11 -0.48 dB -14.94 dB 9:37 04-Moanin'
DR9 -1.24 dB -12.20 dB 4:51 06-The Boat Goes On
DR10 -0.52 dB -12.92 dB 3:05 09-Mercy Mercy Mercy
DR8 -0.52 dB -11.20 dB 3:47 16-Embraceable You
––––––––––––––––––––––––––––––––––––––––

Number of tracks: 4
Official DR value: DR9

Samplerate: 44100 Hz
Channels: 2
Bits per sample: 16
Bitrate: 915 kbps
Codec: FLAC
================================================================================

––––––––––––––––––––––––––––––––––––––––
Analyzed: Count Basie Orchestra / The Original Jazz Album (1)
Dexter Gordon / The Original Jazz Album (2)
Dinah Washington / The Original Jazz Album (3)
––––––––––––––––––––––––––––––––––––––––

DR Peak RMS Duration Track
––––––––––––––––––––––––––––––––––––––––
DR11 -0.49 dB -14.92 dB 4:47 10-Lullaby Of Birdland
DR12 -0.65 dB -14.36 dB 6:34 14-Cheese Cake
DR10 -0.67 dB -13.70 dB 2:20 15-Call Me Irresponsible
––––––––––––––––––––––––––––––––––––––––

Number of tracks: 3
Official DR value: DR11

Samplerate: 44100 Hz
Channels: 2
Bits per sample: 16
Bitrate: 915 kbps
Codec: FLAC
================================================================================

––––––––––––––––––––––––––––––––––––––––
Statistics for: 13-(Fallin' Like) Dominoes
Number of samples: 12036948
Duration: 4:33
––––––––––––––––––––––––––––––––––––––––

Left Right

Peak Value: -0.55 dB –- -0.63 dB
Avg RMS: -11.40 dB –- -11.59 dB
DR channel: 8.90 dB –- 9.09 dB
––––––––––––––––––––––––––––––––––––––––

Official DR Value: DR9

Samplerate: 44100 Hz
Channels: 2
Bits per sample: 16
Bitrate: 915 kbps
Codec: FLAC
================================================================================
––––––––––––––––––––––––––––––––––––––––
Analyzed: Herbie Hancock / The Original Jazz Album (1)
Horace Silver / The Original Jazz Album (2)
––––––––––––––––––––––––––––––––––––––––

DR Peak RMS Duration Track
––––––––––––––––––––––––––––––––––––––––
DR10 -0.25 dB -12.93 dB 5:30 01-Cantaloupe Island
DR12 -0.66 dB -15.61 dB 7:18 07-Song For My Father
––––––––––––––––––––––––––––––––––––––––

Number of tracks: 2
Official DR value: DR11

Samplerate: 44100 Hz
Channels: 2
Bits per sample: 16
Bitrate: 915 kbps
Codec: FLAC
================================================================================

––––––––––––––––––––––––––––––––––––––––
Analyzed: John Coltrane / The Original Jazz Album (1)
Louis Armstrong & Duke Ellington / The Original Jazz Album (2)
––––––––––––––––––––––––––––––––––––––––

DR Peak RMS Duration Track
––––––––––––––––––––––––––––––––––––––––
DR10 -0.64 dB -12.32 dB 3:57 03-Like Sonny
DR11 -0.52 dB -13.53 dB 4:00 11-It Don't Mean A Thing (If It Ain't Got That Swing)
––––––––––––––––––––––––––––––––––––––––

Number of tracks: 2
Official DR value: DR10

Samplerate: 44100 Hz
Channels: 2
Bits per sample: 16
Bitrate: 915 kbps
Codec: FLAC
================================================================================

––––––––––––––––––––––––––––––––––––––––
Analyzed: Miles Davis Quartet / The Original Jazz Album (1)
Nat King Cole & The George Shearing Quintet / The Original Jazz Album (2)
Peggy Lee / The Original Jazz Album (3)
Stan Getz / The Original Jazz Album (4)
––––––––––––––––––––––––––––––––––––––––

DR Peak RMS Duration Track
––––––––––––––––––––––––––––––––––––––––
DR11 -2.44 dB -15.17 dB 4:44 02-Weirdo
DR11 -0.71 dB -14.76 dB 2:46 05-Let There Be Love
DR10 -0.52 dB -12.94 dB 2:39 08-Cheek To Cheek
DR12 -0.67 dB -14.17 dB 5:54 12-Crazy Rhythm
––––––––––––––––––––––––––––––––––––––––

Number of tracks: 4
Official DR value: DR11

Samplerate: 44100 Hz
Channels: 2
Bits per sample: 16
Bitrate: 915 kbps
Codec: FLAC
================================================================================

VA - The Original Jazz Album: 16 Of The Finest Cuts From The Legends Of Jazz (2004) [Re-Up]

VA - The Original Jazz Album: 16 Of The Finest Cuts From The Legends Of Jazz (2004) [Re-Up]

All thanks to original releaser - raozn

More interesting music in My Blog