Subcategories

VA - Best Of Opera Tenors - 19 Great Arias [1996]

Posted By: Aregak
VA - Best Of Opera Tenors - 19 Great Arias [1996]

VA - Best Of Opera Tenors - 19 Great Arias (Verdi, Puccini, Mascagni, Bizet, Donizetti, Ponchielli, Lalo, Wagner, Mozart, von Flo) [1996]
EAC Rip | FLAC, TRACKS+CUE, LOG | Covers | 1cd, 338 MB
Classical | Label: Royal Opera | Catalog Number: 86217 | TT: 01'15''42

The Royal Opera is a company based in central London, resident at the Royal Opera House, Covent Garden. Along with the English National Opera, it is one of the two principal opera companies in London. Founded in 1946 as the Covent Garden Opera Company, it was known by that title until 1968. It brought a long annual season and consistent management to a house that had previously hosted short seasons under a series of impresarios. Since its inception, it has shared the Royal Opera House with the dance company now known as The Royal Ballet.
Tracklisting:
1. Nicolai Gedda - Verdi. Rigoletto - La dona e mobile (2:25)
2. Placido Domingo - Verdi. Macbeth - O figli… ah, la paterna mano (3:36)
3. Alfredo Kraus - Puccini. La Boheme - Che gelida manina (5:02)
4. Jon Vickers - Bizet. Carmen - La fleur que tu m'avais jetee (4:19)
5. Luciano Pavarotti - Mascagni. L'amico Fritz - O amore o bella luce del core (2:32)
6. Franco Corelli - Ponchielli. La Gioconda - Cielo e mar! (4:47)
7. Fritz Wunderlich - Flotow. Martha - Ach, so fromm (2:50)
8. Jose Carreras - Lalo. Le Rois d'Ys - Puisqu'on ne peut flechir (3:47)
9. Luigi Alva - Donizetti. L'elisir d'amore - Quanto e bella (2:51)
10. Carlo del Monte - Verdi. La Traviata - Lunge da lei (3:49)
11. Rudolf Schock - Weber. Der Freischutz - Nein, langer trag'ich nicht die Qualen (6:57)
12. Nicolai Gedda - Wagner. Lohengrin - Mein liebe schwan (5:11)
13. Giuseppe Campora - Puccini. La fanciulla del west - Ch'ella mi creda (1:59)
14. Franco Corelli - Donizetti. La Favorita - Spirto gentil (4:52)
15. Francisco Araiza - Mozart. Cosi fan tutte - Un'aura amorosa (5:15)
16. Luigi Alva - Donizetti. L'elisir d'amore - Una furtiva lagrima (5:40)
17. Richard Lewis - Puccini. Tosca - E lucevan le stelle (3:00)
18. Carlo Bergonzi - Verdi. La forza del destino - O tu che in seno agli angeli (3:48)
19. Nicolai Gedda - Puccini. Turandot - Nessun dorma (3:02)

Exact Audio Copy V1.0 beta 3 from 29. August 2011

EAC extraction logfile from 13. April 2014, 22:37

VA / Best of Opera Tenors

Used drive : ATAPI iHAS122 C Adapter: 0 ID: 0

Read mode : Secure
Utilize accurate stream : Yes
Defeat audio cache : Yes
Make use of C2 pointers : No

Read offset correction : 6
Overread into Lead-In and Lead-Out : No
Fill up missing offset samples with silence : Yes
Delete leading and trailing silent blocks : No
Null samples used in CRC calculations : Yes
Used interface : Installed external ASPI interface
Gap handling : Appended to previous track

Used output format : User Defined Encoder
Selected bitrate : 768 kBit/s
Quality : High
Add ID3 tag : No
Command line compressor : C:\Program Files\Exact Audio Copy\Flac\flac.exe
Additional command line options : -6 -V -T "ARTIST=%artist%" -T "TITLE=%title%" -T "ALBUM=%albumtitle%" -T "DATE=%year%" -T "TRACKNUMBER=%tracknr%" -T "GENRE=%genre%" -T "COMMENT=%comment%" -T "ALBUMARTIST=%albuminterpret%" -T "COMPOSER=%composer%" -T "DISCNUMBER=%cdnumber%" -T "TOTALDISCS=%totalcds%" -T "TOTALTRACKS=%numtracks%" %source% -o %dest%


TOC of the extracted CD

Track | Start | Length | Start sector | End sector
––––––––––––––––––––––––––––-
1 | 0:00.33 | 2:25.17 | 33 | 10924
2 | 2:25.50 | 3:36.53 | 10925 | 27177
3 | 6:02.28 | 5:02.05 | 27178 | 49832
4 | 11:04.33 | 4:19.40 | 49833 | 69297
5 | 15:23.73 | 2:32.55 | 69298 | 80752
6 | 17:56.53 | 4:47.02 | 80753 | 102279
7 | 22:43.55 | 2:50.65 | 102280 | 115094
8 | 25:34.45 | 3:47.65 | 115095 | 132184
9 | 29:22.35 | 2:51.70 | 132185 | 145079
10 | 32:14.30 | 3:49.53 | 145080 | 162307
11 | 36:04.08 | 6:57.55 | 162308 | 193637
12 | 43:01.63 | 5:11.55 | 193638 | 217017
13 | 48:13.43 | 1:59.32 | 217018 | 225974
14 | 50:13.00 | 4:52.63 | 225975 | 247937
15 | 55:05.63 | 5:15.45 | 247938 | 271607
16 | 60:21.33 | 5:40.22 | 271608 | 297129
17 | 66:01.55 | 3:00.05 | 297130 | 310634
18 | 69:01.60 | 3:48.68 | 310635 | 327802
19 | 72:50.53 | 3:02.27 | 327803 | 341479


Track 1

Filename E:\EAC\01. Rigoletto - La dona e mobile - Nicolai Gedda.wav

Pre-gap length 0:00:02.33

Peak level 68.3 %
Extraction speed 1.9 X
Track quality 100.0 %
Test CRC 11DFA11C
Copy CRC 11DFA11C
Cannot be verified as accurate (confidence 6) [151ED174], AccurateRip returned [505B0441] (AR v2)
Copy OK

Track 2

Filename E:\EAC\02. Macbeth - O figli… ah, la paterna mano - Plácido Domingo.wav

Peak level 50.0 %
Extraction speed 2.1 X
Track quality 100.0 %
Test CRC FA018592
Copy CRC FA018592
Cannot be verified as accurate (confidence 6) [537CBC50], AccurateRip returned [A4DE8B92] (AR v2)
Copy OK

Track 3

Filename E:\EAC\03. La Bohème - Che gelida manina - Alfredo Kraus.wav

Peak level 87.2 %
Extraction speed 2.5 X
Track quality 100.0 %
Test CRC 6F78956B
Copy CRC 6F78956B
Cannot be verified as accurate (confidence 6) [FF52ECF8], AccurateRip returned [82CE7353] (AR v2)
Copy OK

Track 4

Filename E:\EAC\04. Carmen - La fleur que tu m'avais jetée - Jon Vickers.wav

Peak level 63.7 %
Extraction speed 2.6 X
Track quality 100.0 %
Test CRC 9F3FFE3B
Copy CRC 9F3FFE3B
Cannot be verified as accurate (confidence 6) [A9FE8320], AccurateRip returned [0D1878F5] (AR v2)
Copy OK

Track 5

Filename E:\EAC\05. L'amico Fritz - O amore o bella luce del core - Luciano Pavarotti.wav

Peak level 77.9 %
Extraction speed 1.7 X
Track quality 99.9 %
Test CRC E243732F
Copy CRC E243732F
Cannot be verified as accurate (confidence 6) [A6D7C335], AccurateRip returned [9C4877D4] (AR v2)
Copy OK

Track 6

Filename E:\EAC\06. La Gioconda - Cielo e mar! - Franco Corelli.wav

Peak level 72.1 %
Extraction speed 2.9 X
Track quality 100.0 %
Test CRC AA7F0A0A
Copy CRC AA7F0A0A
Cannot be verified as accurate (confidence 6) [5078DC98], AccurateRip returned [6D416B46] (AR v2)
Copy OK

Track 7

Filename E:\EAC\07. Martha - Ach, so fromm - Fritz Wunderlich.wav

Peak level 73.8 %
Extraction speed 2.9 X
Track quality 100.0 %
Test CRC D283FA85
Copy CRC D283FA85
Cannot be verified as accurate (confidence 6) [37D95A88], AccurateRip returned [9A023933] (AR v2)
Copy OK

Track 8

Filename E:\EAC\08. Le Rois d'Ys - Puisqu'on ne peut fléchir - José Carreras.wav

Peak level 38.6 %
Extraction speed 3.1 X
Track quality 100.0 %
Test CRC 87A0F907
Copy CRC 87A0F907
Cannot be verified as accurate (confidence 6) [FE5432B9], AccurateRip returned [A01E21C3] (AR v2)
Copy OK

Track 9

Filename E:\EAC\09. L'elisir d'amore - Quanto è bella - Luigi Alva.wav

Peak level 58.4 %
Extraction speed 3.1 X
Track quality 100.0 %
Test CRC 28CC8638
Copy CRC 28CC8638
Cannot be verified as accurate (confidence 6) [AEAD9BD9], AccurateRip returned [BCC832E1] (AR v2)
Copy OK

Track 10

Filename E:\EAC\10. La Traviata - Lunge da lei - Carlo del Monte.wav

Peak level 49.8 %
Extraction speed 2.4 X
Track quality 99.9 %
Test CRC 11596353
Copy CRC 11596353
Cannot be verified as accurate (confidence 6) [965CD73E], AccurateRip returned [B67E807D] (AR v2)
Copy OK

Track 11

Filename E:\EAC\11. Der Freischütz - Nein, länger trag'ich nicht die Qualen - Rudolf Schock.wav

Peak level 93.6 %
Extraction speed 3.7 X
Track quality 100.0 %
Test CRC BF88780A
Copy CRC BF88780A
Cannot be verified as accurate (confidence 6) [7A7CC0BB], AccurateRip returned [C9E9BA97] (AR v2)
Copy OK

Track 12

Filename E:\EAC\12. Lohengrin - Mein liebe schwan - Nicolai Gedda.wav

Peak level 82.9 %
Extraction speed 2.8 X
Track quality 99.9 %
Test CRC 592C559B
Copy CRC 592C559B
Cannot be verified as accurate (confidence 6) [CED316E5], AccurateRip returned [474B520A] (AR v2)
Copy OK

Track 13

Filename E:\EAC\13. La fanciulla del west - Ch'ella mi creda - Giuseppe Campora.wav

Peak level 80.1 %
Extraction speed 3.3 X
Track quality 100.0 %
Test CRC 92DD1829
Copy CRC 92DD1829
Cannot be verified as accurate (confidence 6) [5F4FA5DC], AccurateRip returned [B1F70E26] (AR v2)
Copy OK

Track 14

Filename E:\EAC\14. La Favorita - Spirto gentil - Franco Corelli.wav

Peak level 63.2 %
Extraction speed 3.9 X
Track quality 100.0 %
Test CRC C90D8841
Copy CRC C90D8841
Cannot be verified as accurate (confidence 6) [7A9B5DF0], AccurateRip returned [44D286A4] (AR v2)
Copy OK

Track 15

Filename E:\EAC\15. Cosi fan tutte - Un'aura amorosa - Francisco Araiza.wav

Peak level 25.5 %
Extraction speed 4.1 X
Track quality 100.0 %
Test CRC 2EC01437
Copy CRC 2EC01437
Cannot be verified as accurate (confidence 6) [2002B09B], AccurateRip returned [6B4EFEAD] (AR v2)
Copy OK

Track 16

Filename E:\EAC\16. L'elisir d'amore - Una furtiva lagrima - Luigi Alva.wav

Peak level 59.2 %
Extraction speed 3.4 X
Track quality 99.9 %
Test CRC E91E6568
Copy CRC E91E6568
Cannot be verified as accurate (confidence 6) [042A1956], AccurateRip returned [54931396] (AR v2)
Copy OK

Track 17

Filename E:\EAC\17. Tosca - E lucevan le stelle - Richard Lewis.wav

Peak level 48.3 %
Extraction speed 4.1 X
Track quality 100.0 %
Test CRC F3949257
Copy CRC F3949257
Cannot be verified as accurate (confidence 6) [4D93E761], AccurateRip returned [4966C8AC] (AR v2)
Copy OK

Track 18

Filename E:\EAC\18. La forza del destino - O tu che in seno agli angeli - Carlo Bergonzi.wav

Peak level 89.0 %
Extraction speed 4.3 X
Track quality 100.0 %
Test CRC A2304627
Copy CRC A2304627
Cannot be verified as accurate (confidence 6) [F75B1D50], AccurateRip returned [C74BBF51] (AR v2)
Copy OK

Track 19

Filename E:\EAC\19. Turandot - Nessun dorma - Nicolai Gedda.wav

Peak level 99.8 %
Extraction speed 4.2 X
Track quality 100.0 %
Test CRC A8F76288
Copy CRC A8F76288
Cannot be verified as accurate (confidence 6) [8ED20FD5], AccurateRip returned [99AF4DE7] (AR v2)
Copy OK


No tracks could be verified as accurate
You may have a different pressing from the one(s) in the database

No errors occurred

End of status report

==== Log checksum DF2A676E65D812536D404FA048973118BF1EBA161E7842134FEC43070F5EB389 ====