Subcategories

Various Artists - 100 Hits: Disco - 100 Dance Floor Classics [5CD] (2007)

Posted By: BlondStyle
Various Artists - 100 Hits: Disco - 100 Dance Floor Classics [5CD] (2007)

Various Artists - 100 Hits: Disco - 100 Dance Floor Classics [5CD] (2007)
R&B, Soul/Funk, Electronic, Disco | EAC Rip | FLAC, Tracks+CUE+LOG+Scans (JPEG) | 06:35:59 h | 2,73 Gb
Label: Demon Music/Sony Music Entertainment UK Ltd. (EU) | Cat.# DMGN 100 006 | Released: 2007-10-01

2007 release of a five CD box set featuring some of the most popular dance music tracks from the golden era of Disco. It's just one of a new series of compilations with 100 tracks each that are themed with songs of different musical styles from decades past, fondly remembered by those that lived and loved them... and at a very reasonable price! The tracks on this volume feature such best selling artists as KC And the Sunshine Band, Chic, Rose Royce, Dan Hartman, Candi Staton, Odyssey, Andrea True Connection, Heatwave, Evelyn Champagne King, Earth Wind And Fire, Three Degrees, Chaka Khan, Sister Sledge, the Jones Girls, G.Q., Cheryl Lynn, Boney M, Deodato, Nu-Shooz, the O'Jays and many more! The discs are housed in quality slipcase packaging with embossed cover art.
~Amazon UK

Various Artists - 100 Hits: Disco - 100 Dance Floor Classics [5CD] (2007)

Various Artists - 100 Hits: Disco - 100 Dance Floor Classics [5CD] (2007)


Release of this 5CD Set: 2007, October, 1 [CD Demon Music/Sony Music Entertainment UK Ltd. (EU), Cat.# DMGN 100 006 / UPC: 654378700620]
This compilation ℗© 2007 Demon Music Group Limited/Sony Music Entertainment UK Limited.
Marketed by Demon Music Group Limited.
Manufactured in the EU


Tracklist:

Disc 1

01. The Trammps - Disco Inferno - 00:03:13
02. The Jacksons - Blame It On The Boogie - 00:03:31
03. Sister Sledge - Lost In Music - 00:03:20
04. Patrice Rushen - Forget Me Nots - 00:03:57
05. Rose Royce - Is It Love You're After - 00:03:51
06. Chic - Le Freak - 00:03:35
07. Stacy Lattisaw - Jump To The Beat - 00:03:30
08. Melba Moore - This Is It - 00:03:31
09. LaBelle - Lady Marmalade - 00:03:56
10. K.C. & The Sunshine Band - Give It Up - 00:04:12
11. The Hues Corporation - Rock The Boat - 00:03:02
12. Dan Hartman - Relight My Fire - 00:03:44
13. Andrea True Connection - More More More - 00:06:15
14. Billy Ocean - Love Really Hurts Without You - 00:03:01
15. Wild Cherry - Play That Funky Music - 00:03:11
16. Detroit Spinners - Working My Way Back To You - 00:03:59
17. Candi Staton - Young Hearts Run Free - 00:04:09
18. McFadden & Whitehead - Ain't No Stoppin' Us Now - 00:03:36
19. Frantique - Strut Your Funky Stuff - 00:05:44
20. Rufus & Chaka Khan - Ain't Nobody - 00:04:42

Disc 2

01. Odyssey - Use It Up And Wear It Out - 00:04:59
02. Chic - Everybody Dance - 00:04:09
03. Earth, Wind & Fire - Let's Groove - 00:03:32
04. Sister Sledge - He's The Greatest Dancer - 00:03:36
05. Rose Royce - It Makes You Feel Like Dancin' - 00:04:25
06. The Three Degrees - My Simple Heart - 00:04:31
07. Billy Ocean - Red Light Spells Danger - 00:03:31
08. Cheryl Lynn - Encore - 00:04:35
09. Heatwave - Boogie Nights - 00:03:36
10. Dan Hartman - Instant Replay - 00:03:27
11. The Emotions - The Best Of My Love - 00:03:37
12. Average White Band - Pick Up The Pieces - 00:03:59
13. Evelyn "Champagne" King - Love Come Down - 00:03:53
14. Chaka Khan - Fate - 00:03:15
15. Gladys Knight & The Pips - Bourgie' Bourgie' - 00:03:33
16. Goody Goody - #1 Dee Jay - 00:03:26
17. Janice McClain - Smack Dab In The Middle - 00:04:03
18. Phreek - Weekend - 00:03:43
19. Stacy Lattisaw - Dynamite' - 00:04:05
20. Kleeer - Keep Your Body Workin' - 00:05:21

Disc 3

01. Tom Browne - Funkin' For Jamaica - 00:03:28
02. Lonnie Liston Smith - Expansions - 00:05:25
03. Jean Carn - Don't Let It Go To Your Head - 00:02:57
04. The Jones Girls - Nights Over Egypt - 00:04:35
05. Keni Burke - Risin' To The Top - 00:03:46
06. Rodney Franklin - The Groove - 00:03:23
07. Undisputed Truth - You + Me = Love - 00:03:26
08. Stargard - Wear It Out - 00:03:28
09. Candi Staton - When You Wake Up Tomorrow - 00:04:34
10. Dexter Wansel - Life On Mars - 00:03:18
11. Narada Michael Walden - I Shoulda Loved Ya - 00:03:54
12. The Futures - Ain't No Time Fa Nothing - 00:05:29
13. Philadelphia International All Stars - Let's Clean Up The Ghetto - 00:04:51
14. GQ - Disco Nights - 00:03:34
15. Phyllis Hyman - You Know How To Love Me - 00:04:40
16. Cheryl Lynn - Got To Be Real - 00:03:44
17. Heatwave - Gangsters Of The Groove - 00:04:02
18. The Intruders - I'll Always Love My Mama - 00:03:23
19. Kleeer - Tonight's The Night (Good Time) - 00:04:19
20. MFSB - TSOP (The Sound Of Philadelphia) - 00:03:16

Disc 4

01. Boney M. - Daddy Cool - 00:03:27
02. Gary's Gang - Keep On Dancin' - 00:03:33
03. Tina Charles - I Love To Love - 00:02:41
04. Baccara - Yes Sir, I Can Boogie - 00:03:46
05. Johnnie Taylor - Disco Lady - 00:04:24
06. Deodato - Whistle Bump - 00:04:29
07. Graham Central Station - Now Do-U-Wanta Dance - 00:03:23
08. Club Nouveau - Lean On Me - 00:05:27
09. Steve Arrington - Feel So Real - 00:03:58
10. Nu Shooz - I Can't Wait - 00:03:39
11. Conway Brothers - Turn It Up - 00:03:49
12. Timex Social Club - Rumors - 00:04:49
13. The Evasions - Wikka Wrap - 00:03:44
14. Space - Magic Fly - 00:04:03
15. Eruption - I Can't Stand The Rain - 00:03:04
16. The O'Jays - Put Our Heads Together - 00:05:12
17. Luther Vandross - Give Me The Reason - 00:04:14
18. Linda Lewis - It's In His Kiss - 00:03:06
19. The Weather Girls - It's Raining Men - 00:05:24
20. The Drifters - Kissin' In The Back Row Of The Movies - 00:03:31

Disc 5

01. The Isley Brothers - It's A Disco Night (Rock Don't Stop) - 00:04:12
02. Odyssey - Native New Yorker - 00:04:40
03. Harold Melvin & The Blue Notes - The Love I Lost - 00:03:32
04. Gladys Knight & The Pips - Baby Don't Change Your Mind - 00:03:13
05. Sly & The Family Stone - Family Affair - 00:02:58
06. The Trammps - Hold Back The Night - 00:03:51
07. Jean Carne - Was That All It Was - 00:04:49
08. Lou Rawls - See You When I Git There - 00:04:26
09. Billy Paul - Bring The Family Back - 00:03:27
10. Slave - Just A Touch Of Love - 00:04:10
11. Gwen McCrae - Keep The Fire Burning - 00:03:29
12. Change - Searching - 00:03:42
13. The Three Degrees - The Runner - 00:03:42
14. The Pointer Sisters - Automatic - 00:04:47
15. Evelyn "Champagne" King - Shame - 00:03:33
16. M.F.S.B. - Mysteries Of The World - 00:03:46
17. The Jones Girls - You Can't Have My Love - 00:04:25
18. Billy Griffin - Hold Me Tighter In The Rain - 00:05:23
19. People's Choice - Jam Jam Jam (All Night long) - 00:03:39
20. The O'Jays - Love Train - 00:02:55

Exact Audio Copy V1.3 from 2. September 2016

EAC extraction logfile from 11. May 2018, 14:36

Various / 100 Hits - Disco - CD01

Used drive : HL-DT-STDVDRAM GSA-E40N Adapter: 1 ID: 1

Read mode : Secure
Utilize accurate stream : Yes
Defeat audio cache : No
Make use of C2 pointers : Yes

Read offset correction : 667
Overread into Lead-In and Lead-Out : No
Fill up missing offset samples with silence : Yes
Delete leading and trailing silent blocks : No
Null samples used in CRC calculations : Yes
Used interface : Native Win32 interface for Win NT & 2000
Gap handling : Not detected, thus appended to previous track

Used output format : User Defined Encoder
Selected bitrate : 896 kBit/s
Quality : High
Add ID3 tag : No
Command line compressor : C:\Program Files (x86)\Exact Audio Copy\FLAC\FLAC.EXE
Additional command line options : -6 -V -T "ARTIST=%artist%" -T "TITLE=%title%" -T "ALBUM=%albumtitle%" -T "DATE=%year%" -T "TRACKNUMBER=%tracknr%" -T "GENRE=%genre%" -T "COMMENT=%comment%" -T "BAND=%albuminterpret%" -T "ALBUMARTIST=%albuminterpret%" -T "COMPOSER=%composer%" %haslyrics%–tag-from-file=LYRICS="%lyricsfile%"%haslyrics% -T "DISCNUMBER=%cdnumber%" -T "TOTALDISCS=%totalcds%" -T "TOTALTRACKS=%numtracks%" %hascover%–picture="%coverfile%"%hascover% %source% -o %dest%


TOC of the extracted CD

Track | Start | Length | Start sector | End sector
––––––––––––––––––––––––––––-
1 | 0:00.00 | 3:13.31 | 0 | 14505
2 | 3:13.31 | 3:31.47 | 14506 | 30377
3 | 6:45.03 | 3:20.48 | 30378 | 45425
4 | 10:05.51 | 3:57.28 | 45426 | 63228
5 | 14:03.04 | 3:51.33 | 63229 | 80586
6 | 17:54.37 | 3:35.19 | 80587 | 96730
7 | 21:29.56 | 3:30.32 | 96731 | 112512
8 | 25:00.13 | 3:31.04 | 112513 | 128341
9 | 28:31.17 | 3:56.48 | 128342 | 146089
10 | 32:27.65 | 4:12.20 | 146090 | 165009
11 | 36:40.10 | 3:02.44 | 165010 | 178703
12 | 39:42.54 | 3:44.17 | 178704 | 195520
13 | 43:26.71 | 6:15.58 | 195521 | 223703
14 | 49:42.54 | 3:01.30 | 223704 | 237308
15 | 52:44.09 | 3:11.48 | 237309 | 251681
16 | 55:55.57 | 3:59.04 | 251682 | 269610
17 | 59:54.61 | 4:09.04 | 269611 | 288289
18 | 64:03.65 | 3:36.21 | 288290 | 304510
19 | 67:40.11 | 5:44.02 | 304511 | 330312
20 | 73:24.13 | 4:42.57 | 330313 | 351519


Track 1

Filename A:\PsPBuRnOuT's MUSIC\100 HITS\100 HITS - DISCO\CD01 - 100 HITS - DISCO\01.The Trammps - Disco Inferno.wav

Peak level 99.8 %
Extraction speed 12.9 X
Track quality 99.8 %
Copy CRC E394D7CA
Accurately ripped (confidence 11) [338974A1] (AR v2)
Copy OK

Track 2

Filename A:\PsPBuRnOuT's MUSIC\100 HITS\100 HITS - DISCO\CD01 - 100 HITS - DISCO\02.The Jacksons - Blame It On The Boogie.wav

Peak level 99.8 %
Extraction speed 17.0 X
Track quality 100.0 %
Copy CRC 0D1DC5C6
Accurately ripped (confidence 11) [36373B2B] (AR v2)
Copy OK

Track 3

Filename A:\PsPBuRnOuT's MUSIC\100 HITS\100 HITS - DISCO\CD01 - 100 HITS - DISCO\03.Sister Sledge - Lost In Music.wav

Peak level 99.8 %
Extraction speed 18.8 X
Track quality 100.0 %
Copy CRC BAF4ACF4
Accurately ripped (confidence 11) [69F60F75] (AR v2)
Copy OK

Track 4

Filename A:\PsPBuRnOuT's MUSIC\100 HITS\100 HITS - DISCO\CD01 - 100 HITS - DISCO\04.Patrice Rushen - Forget Me Nots.wav

Peak level 99.8 %
Extraction speed 16.6 X
Track quality 99.9 %
Copy CRC B535136D
Accurately ripped (confidence 11) [FFC3DECD] (AR v2)
Copy OK

Track 5

Filename A:\PsPBuRnOuT's MUSIC\100 HITS\100 HITS - DISCO\CD01 - 100 HITS - DISCO\05.Rose Royce - Is It Love You're After.wav

Peak level 98.6 %
Extraction speed 20.2 X
Track quality 100.0 %
Copy CRC F9ACD7ED
Accurately ripped (confidence 11) [3D73FC39] (AR v2)
Copy OK

Track 6

Filename A:\PsPBuRnOuT's MUSIC\100 HITS\100 HITS - DISCO\CD01 - 100 HITS - DISCO\06.Chic - Le Freak.wav

Peak level 94.4 %
Extraction speed 22.5 X
Track quality 100.0 %
Copy CRC D52AF616
Accurately ripped (confidence 11) [02AA385B] (AR v2)
Copy OK

Track 7

Filename A:\PsPBuRnOuT's MUSIC\100 HITS\100 HITS - DISCO\CD01 - 100 HITS - DISCO\07.Stacy Lattisaw - Jump To The Beat.wav

Peak level 99.8 %
Extraction speed 26.0 X
Track quality 100.0 %
Copy CRC 7D053C26
Accurately ripped (confidence 11) [317532E9] (AR v2)
Copy OK

Track 8

Filename A:\PsPBuRnOuT's MUSIC\100 HITS\100 HITS - DISCO\CD01 - 100 HITS - DISCO\08.Melba Moore - This Is It.wav

Peak level 99.8 %
Extraction speed 27.2 X
Track quality 100.0 %
Copy CRC CF6C0339
Accurately ripped (confidence 11) [7960C51B] (AR v2)
Copy OK

Track 9

Filename A:\PsPBuRnOuT's MUSIC\100 HITS\100 HITS - DISCO\CD01 - 100 HITS - DISCO\09.LaBelle - Lady Marmalade.wav

Peak level 91.3 %
Extraction speed 25.8 X
Track quality 100.0 %
Copy CRC B1BB1F37
Accurately ripped (confidence 10) [1E7BABBF] (AR v2)
Copy OK

Track 10

Filename A:\PsPBuRnOuT's MUSIC\100 HITS\100 HITS - DISCO\CD01 - 100 HITS - DISCO\10.K.C. & The Sunshine Band - Give It Up.wav

Peak level 99.8 %
Extraction speed 26.4 X
Track quality 100.0 %
Copy CRC 731FC712
Accurately ripped (confidence 11) [FBD36E0C] (AR v2)
Copy OK

Track 11

Filename A:\PsPBuRnOuT's MUSIC\100 HITS\100 HITS - DISCO\CD01 - 100 HITS - DISCO\11.The Hues Corporation - Rock The Boat.wav

Peak level 88.9 %
Extraction speed 19.2 X
Track quality 99.8 %
Copy CRC 7FD777AA
Accurately ripped (confidence 11) [B03241A9] (AR v2)
Copy OK

Track 12

Filename A:\PsPBuRnOuT's MUSIC\100 HITS\100 HITS - DISCO\CD01 - 100 HITS - DISCO\12.Dan Hartman - Relight My Fire.wav

Peak level 99.8 %
Extraction speed 22.2 X
Track quality 100.0 %
Copy CRC ED3E11F0
Accurately ripped (confidence 11) [A1A82406] (AR v2)
Copy OK

Track 13

Filename A:\PsPBuRnOuT's MUSIC\100 HITS\100 HITS - DISCO\CD01 - 100 HITS - DISCO\13.Andrea True Connection - More More More.wav

Peak level 89.0 %
Extraction speed 31.5 X
Track quality 100.0 %
Copy CRC 96C03323
Accurately ripped (confidence 11) [D96CB8F1] (AR v2)
Copy OK

Track 14

Filename A:\PsPBuRnOuT's MUSIC\100 HITS\100 HITS - DISCO\CD01 - 100 HITS - DISCO\14.Billy Ocean - Love Really Hurts Without You.wav

Peak level 99.8 %
Extraction speed 33.0 X
Track quality 100.0 %
Copy CRC 24E3DB4F
Accurately ripped (confidence 11) [2D99CB4D] (AR v2)
Copy OK

Track 15

Filename A:\PsPBuRnOuT's MUSIC\100 HITS\100 HITS - DISCO\CD01 - 100 HITS - DISCO\15.Wild Cherry - Play That Funky Music.wav

Peak level 79.4 %
Extraction speed 33.3 X
Track quality 100.0 %
Copy CRC 8175EB35
Accurately ripped (confidence 11) [1788D46A] (AR v2)
Copy OK

Track 16

Filename A:\PsPBuRnOuT's MUSIC\100 HITS\100 HITS - DISCO\CD01 - 100 HITS - DISCO\16.Detroit Spinners - Working My Way Back To You.wav

Peak level 99.8 %
Extraction speed 35.1 X
Track quality 100.0 %
Copy CRC 99D660EB
Accurately ripped (confidence 11) [C59FC6AD] (AR v2)
Copy OK

Track 17

Filename A:\PsPBuRnOuT's MUSIC\100 HITS\100 HITS - DISCO\CD01 - 100 HITS - DISCO\17.Candi Staton - Young Hearts Run Free.wav

Peak level 80.3 %
Extraction speed 31.4 X
Track quality 100.0 %
Copy CRC 3ABA7007
Accurately ripped (confidence 10) [730661C6] (AR v2)
Copy OK

Track 18

Filename A:\PsPBuRnOuT's MUSIC\100 HITS\100 HITS - DISCO\CD01 - 100 HITS - DISCO\18.McFadden & Whitehead - Ain't No Stoppin' Us Now.wav

Peak level 99.8 %
Extraction speed 30.8 X
Track quality 100.0 %
Copy CRC 0CF35AD4
Accurately ripped (confidence 11) [AC70E73A] (AR v2)
Copy OK

Track 19

Filename A:\PsPBuRnOuT's MUSIC\100 HITS\100 HITS - DISCO\CD01 - 100 HITS - DISCO\19.Frantique - Strut Your Funky Stuff.wav

Peak level 99.8 %
Extraction speed 33.3 X
Track quality 100.0 %
Copy CRC 69917742
Accurately ripped (confidence 11) [AF59F036] (AR v2)
Copy OK

Track 20

Filename A:\PsPBuRnOuT's MUSIC\100 HITS\100 HITS - DISCO\CD01 - 100 HITS - DISCO\20.Rufus & Chaka Khan - Ain't Nobody.wav

Peak level 86.1 %
Extraction speed 37.9 X
Track quality 100.0 %
Copy CRC ACFDC62A
Accurately ripped (confidence 11) [7917DCEA] (AR v2)
Copy OK


All tracks accurately ripped

No errors occurred

End of status report

–– CUETools DB Plugin V2.1.6

[CTDB TOCID: 2_zr3e5r8wp9ttdDaLpPQwvU2.s-] found
Submit result: 2_zr3e5r8wp9ttdDaLpPQwvU2.s- has been confirmed
Track | CTDB Status
1 | (83/83) Accurately ripped
2 | (83/83) Accurately ripped
3 | (83/83) Accurately ripped
4 | (83/83) Accurately ripped
5 | (80/83) Accurately ripped
6 | (82/83) Accurately ripped
7 | (82/83) Accurately ripped
8 | (82/83) Accurately ripped
9 | (82/83) Accurately ripped
10 | (83/83) Accurately ripped
11 | (83/83) Accurately ripped
12 | (83/83) Accurately ripped
13 | (82/83) Accurately ripped
14 | (82/83) Accurately ripped
15 | (82/83) Accurately ripped
16 | (82/83) Accurately ripped
17 | (82/83) Accurately ripped
18 | (82/83) Accurately ripped
19 | (83/83) Accurately ripped
20 | (81/83) Accurately ripped

––––––––––––––––––––––––––––––––––––––––
Analyzed: Andrea True Connection / 100 Hits - Disco - CD01 (1)
Billy Ocean / 100 Hits - Disco - CD01 (2)
Candi Staton / 100 Hits - Disco - CD01 (3)
Chic / 100 Hits - Disco - CD01 (4)
Dan Hartman / 100 Hits - Disco - CD01 (5)
Detroit Spinners / 100 Hits - Disco - CD01 (6)
Frantique / 100 Hits - Disco - CD01 (7)
K.C. & The Sunshine Band / 100 Hits - Disco - CD01 (8)
LaBelle / 100 Hits - Disco - CD01 (9)
McFadden & Whitehead / 100 Hits - Disco - CD01 (10)
Melba Moore / 100 Hits - Disco - CD01 (11)
Patrice Rushen / 100 Hits - Disco - CD01 (12)
Rose Royce / 100 Hits - Disco - CD01 (13)
Rufus & Chaka Khan / 100 Hits - Disco - CD01 (14)
Sister Sledge / 100 Hits - Disco - CD01 (15)
Stacy Lattisaw / 100 Hits - Disco - CD01 (16)
The Hues Corporation / 100 Hits - Disco - CD01 (17)
The Jacksons / 100 Hits - Disco - CD01 (18)
The Trammps / 100 Hits - Disco - CD01 (19)
Wild Cherry / 100 Hits - Disco - CD01 (20)
––––––––––––––––––––––––––––––––––––––––

DR Peak RMS Duration Track
––––––––––––––––––––––––––––––––––––––––
DR11 -1.01 dB -13.22 dB 6:16 13-More More More
DR10 -0.01 dB -11.45 dB 3:01 14-Love Really Hurts Without You
DR8 -1.90 dB -11.85 dB 4:09 17-Young Hearts Run Free
DR13 -0.50 dB -14.92 dB 3:35 06-Le Freak
DR11 -0.01 dB -12.07 dB 3:44 12-Relight My Fire
DR10 -0.01 dB -11.18 dB 3:59 16-Working My Way Back To You
DR12 -0.01 dB -12.40 dB 5:44 19-Strut Your Funky Stuff
DR10 -0.01 dB -12.33 dB 4:12 10-Give It Up
DR8 -0.79 dB -10.35 dB 3:57 09-Lady Marmalade
DR10 -0.01 dB -10.77 dB 3:36 18-Ain't No Stoppin' Us Now
DR10 -0.01 dB -11.32 dB 3:31 08-This Is It
DR10 -0.01 dB -10.86 dB 3:57 04-Forget Me Nots
DR10 -0.12 dB -12.26 dB 3:51 05-Is It Love You're After
DR11 -1.30 dB -13.39 dB 4:43 20-Ain't Nobody
DR9 -0.01 dB -10.96 dB 3:21 03-Lost In Music
DR12 -0.01 dB -13.20 dB 3:30 07-Jump To The Beat
DR9 -1.02 dB -11.10 dB 3:03 11-Rock The Boat
DR13 -0.01 dB -14.04 dB 3:32 02-Blame It On The Boogie
DR10 -0.01 dB -10.87 dB 3:13 01-Disco Inferno
DR8 -2.00 dB -12.03 dB 3:12 15-Play That Funky Music
––––––––––––––––––––––––––––––––––––––––

Number of tracks: 20
Official DR value: DR10

Samplerate: 44100 Hz
Channels: 2
Bits per sample: 16
Bitrate: 944 kbps
Codec: FLAC
================================================================================

Exact Audio Copy V1.3 from 2. September 2016

EAC extraction logfile from 11. May 2018, 17:55

Various / 100 Hits - Disco - CD02

Used drive : HL-DT-STDVDRAM GSA-E40N Adapter: 1 ID: 1

Read mode : Secure
Utilize accurate stream : Yes
Defeat audio cache : No
Make use of C2 pointers : Yes

Read offset correction : 667
Overread into Lead-In and Lead-Out : No
Fill up missing offset samples with silence : Yes
Delete leading and trailing silent blocks : No
Null samples used in CRC calculations : Yes
Used interface : Native Win32 interface for Win NT & 2000
Gap handling : Not detected, thus appended to previous track

Used output format : User Defined Encoder
Selected bitrate : 896 kBit/s
Quality : High
Add ID3 tag : No
Command line compressor : C:\Program Files (x86)\Exact Audio Copy\FLAC\FLAC.EXE
Additional command line options : -6 -V -T "ARTIST=%artist%" -T "TITLE=%title%" -T "ALBUM=%albumtitle%" -T "DATE=%year%" -T "TRACKNUMBER=%tracknr%" -T "GENRE=%genre%" -T "COMMENT=%comment%" -T "BAND=%albuminterpret%" -T "ALBUMARTIST=%albuminterpret%" -T "COMPOSER=%composer%" %haslyrics%–tag-from-file=LYRICS="%lyricsfile%"%haslyrics% -T "DISCNUMBER=%cdnumber%" -T "TOTALDISCS=%totalcds%" -T "TOTALTRACKS=%numtracks%" %hascover%–picture="%coverfile%"%hascover% %source% -o %dest%


TOC of the extracted CD

Track | Start | Length | Start sector | End sector
––––––––––––––––––––––––––––-
1 | 0:00.00 | 4:59.34 | 0 | 22458
2 | 4:59.34 | 4:09.64 | 22459 | 41197
3 | 9:09.23 | 3:32.21 | 41198 | 57118
4 | 12:41.44 | 3:36.35 | 57119 | 73353
5 | 16:18.04 | 4:25.04 | 73354 | 93232
6 | 20:43.08 | 4:31.11 | 93233 | 113568
7 | 25:14.19 | 3:31.36 | 113569 | 129429
8 | 28:45.55 | 4:35.02 | 129430 | 150056
9 | 33:20.57 | 3:36.19 | 150057 | 166275
10 | 36:57.01 | 3:27.36 | 166276 | 181836
11 | 40:24.37 | 3:37.59 | 181837 | 198170
12 | 44:02.21 | 3:59.60 | 198171 | 216155
13 | 48:02.06 | 3:53.51 | 216156 | 233681
14 | 51:55.57 | 3:15.56 | 233682 | 248362
15 | 55:11.38 | 3:33.06 | 248363 | 264343
16 | 58:44.44 | 3:26.52 | 264344 | 279845
17 | 62:11.21 | 4:03.36 | 279846 | 298106
18 | 66:14.57 | 3:43.40 | 298107 | 314871
19 | 69:58.22 | 4:05.43 | 314872 | 333289
20 | 74:03.65 | 5:21.64 | 333290 | 357428


Track 1

Filename A:\PsPBuRnOuT's MUSIC\100 HITS\100 HITS - DISCO\CD02 - 100 HITS - DISCO\01.Odyssey - Use It Up And Wear It Out.wav

Peak level 99.8 %
Extraction speed 1.9 X
Track quality 99.0 %
Copy CRC 75E48AD9
Accurately ripped (confidence 10) [E8AE4348] (AR v2)
Copy OK

Track 2

Filename A:\PsPBuRnOuT's MUSIC\100 HITS\100 HITS - DISCO\CD02 - 100 HITS - DISCO\02.Chic - Everybody Dance.wav

Peak level 68.6 %
Extraction speed 2.7 X
Track quality 99.2 %
Copy CRC 7C21F5FC
Accurately ripped (confidence 11) [C4491BF6] (AR v2)
Copy OK

Track 3

Filename A:\PsPBuRnOuT's MUSIC\100 HITS\100 HITS - DISCO\CD02 - 100 HITS - DISCO\03.Earth, Wind & Fire - Let's Groove.wav

Peak level 46.1 %
Extraction speed 9.1 X
Track quality 99.9 %
Copy CRC 986CE645
Accurately ripped (confidence 11) [056D9E31] (AR v2)
Copy OK

Track 4

Filename A:\PsPBuRnOuT's MUSIC\100 HITS\100 HITS - DISCO\CD02 - 100 HITS - DISCO\04.Sister Sledge - He's The Greatest Dancer.wav

Peak level 61.5 %
Extraction speed 20.9 X
Track quality 100.0 %
Copy CRC 47DA058D
Accurately ripped (confidence 11) [28526FA7] (AR v2)
Copy OK

Track 5

Filename A:\PsPBuRnOuT's MUSIC\100 HITS\100 HITS - DISCO\CD02 - 100 HITS - DISCO\05.Rose Royce - It Makes You Feel Like Dancin'.wav

Peak level 76.7 %
Extraction speed 22.7 X
Track quality 100.0 %
Copy CRC 9C21C502
Accurately ripped (confidence 11) [3B3C5C58] (AR v2)
Copy OK

Track 6

Filename A:\PsPBuRnOuT's MUSIC\100 HITS\100 HITS - DISCO\CD02 - 100 HITS - DISCO\06.The Three Degrees - My Simple Heart.wav

Peak level 97.4 %
Extraction speed 23.4 X
Track quality 100.0 %
Copy CRC F9B32E08
Accurately ripped (confidence 11) [EF7494A0] (AR v2)
Copy OK

Track 7

Filename A:\PsPBuRnOuT's MUSIC\100 HITS\100 HITS - DISCO\CD02 - 100 HITS - DISCO\07.Billy Ocean - Red Light Spells Danger.wav

Peak level 82.2 %
Extraction speed 24.1 X
Track quality 100.0 %
Copy CRC 5D8EAA04
Accurately ripped (confidence 11) [F52E753E] (AR v2)
Copy OK

Track 8

Filename A:\PsPBuRnOuT's MUSIC\100 HITS\100 HITS - DISCO\CD02 - 100 HITS - DISCO\08.Cheryl Lynn - Encore.wav

Peak level 73.9 %
Extraction speed 28.1 X
Track quality 100.0 %
Copy CRC 3F695EB4
Accurately ripped (confidence 11) [E9045F8E] (AR v2)
Copy OK

Track 9

Filename A:\PsPBuRnOuT's MUSIC\100 HITS\100 HITS - DISCO\CD02 - 100 HITS - DISCO\09.Heatwave - Boogie Nights.wav

Peak level 93.4 %
Extraction speed 25.3 X
Track quality 100.0 %
Copy CRC 68DDFC08
Accurately ripped (confidence 11) [8F2B455F] (AR v2)
Copy OK

Track 10

Filename A:\PsPBuRnOuT's MUSIC\100 HITS\100 HITS - DISCO\CD02 - 100 HITS - DISCO\10.Dan Hartman - Instant Replay.wav

Peak level 70.7 %
Extraction speed 30.2 X
Track quality 100.0 %
Copy CRC CCE2C540
Accurately ripped (confidence 11) [7A64845E] (AR v2)
Copy OK

Track 11

Filename A:\PsPBuRnOuT's MUSIC\100 HITS\100 HITS - DISCO\CD02 - 100 HITS - DISCO\11.The Emotions - The Best Of My Love.wav

Peak level 67.4 %
Extraction speed 27.6 X
Track quality 100.0 %
Copy CRC B4206FD7
Accurately ripped (confidence 11) [DAC61987] (AR v2)
Copy OK

Track 12

Filename A:\PsPBuRnOuT's MUSIC\100 HITS\100 HITS - DISCO\CD02 - 100 HITS - DISCO\12.Average White Band - Pick Up The Pieces.wav

Peak level 60.5 %
Extraction speed 28.0 X
Track quality 100.0 %
Copy CRC 1941EE95
Accurately ripped (confidence 11) [4B5325AB] (AR v2)
Copy OK

Track 13

Filename A:\PsPBuRnOuT's MUSIC\100 HITS\100 HITS - DISCO\CD02 - 100 HITS - DISCO\13.Evelyn ''Champagne'' King - Love Come Down.wav

Peak level 83.7 %
Extraction speed 32.8 X
Track quality 100.0 %
Copy CRC 9C70548C
Accurately ripped (confidence 11) [C6140A4E] (AR v2)
Copy OK

Track 14

Filename A:\PsPBuRnOuT's MUSIC\100 HITS\100 HITS - DISCO\CD02 - 100 HITS - DISCO\14.Chaka Khan - Fate.wav

Peak level 87.9 %
Extraction speed 33.9 X
Track quality 100.0 %
Copy CRC 61E1502F
Accurately ripped (confidence 11) [705B370D] (AR v2)
Copy OK

Track 15

Filename A:\PsPBuRnOuT's MUSIC\100 HITS\100 HITS - DISCO\CD02 - 100 HITS - DISCO\15.Gladys Knight & The Pips - Bourgie' Bourgie'.wav

Peak level 73.2 %
Extraction speed 29.5 X
Track quality 100.0 %
Copy CRC B5220187
Accurately ripped (confidence 11) [F434C27E] (AR v2)
Copy OK

Track 16

Filename A:\PsPBuRnOuT's MUSIC\100 HITS\100 HITS - DISCO\CD02 - 100 HITS - DISCO\16.Goody Goody - #1 Dee Jay.wav

Peak level 84.8 %
Extraction speed 30.7 X
Track quality 100.0 %
Copy CRC 19B28D03
Accurately ripped (confidence 11) [6A70301E] (AR v2)
Copy OK

Track 17

Filename A:\PsPBuRnOuT's MUSIC\100 HITS\100 HITS - DISCO\CD02 - 100 HITS - DISCO\17.Janice McClain - Smack Dab In The Middle.wav

Peak level 53.4 %
Extraction speed 36.2 X
Track quality 100.0 %
Copy CRC 77771751
Accurately ripped (confidence 11) [F432E86D] (AR v2)
Copy OK

Track 18

Filename A:\PsPBuRnOuT's MUSIC\100 HITS\100 HITS - DISCO\CD02 - 100 HITS - DISCO\18.Phreek - Weekend.wav

Peak level 99.8 %
Extraction speed 31.7 X
Track quality 100.0 %
Copy CRC AE957FD6
Accurately ripped (confidence 11) [914F5150] (AR v2)
Copy OK

Track 19

Filename A:\PsPBuRnOuT's MUSIC\100 HITS\100 HITS - DISCO\CD02 - 100 HITS - DISCO\19.Stacy Lattisaw - Dynamite'.wav

Peak level 77.1 %
Extraction speed 31.2 X
Track quality 100.0 %
Copy CRC C389C189
Accurately ripped (confidence 11) [BA7E05E2] (AR v2)
Copy OK

Track 20

Filename A:\PsPBuRnOuT's MUSIC\100 HITS\100 HITS - DISCO\CD02 - 100 HITS - DISCO\20.Kleeer - Keep Your Body Workin'.wav

Peak level 76.7 %
Extraction speed 34.7 X
Track quality 99.9 %
Copy CRC 06DA9DF8
Accurately ripped (confidence 11) [4579B387] (AR v2)
Copy OK


All tracks accurately ripped

No errors occurred

End of status report

–– CUETools DB Plugin V2.1.6

[CTDB TOCID: abnmtfRImyFvVKRAMqWDRbVKw4M-] found
Submit result: abnmtfRImyFvVKRAMqWDRbVKw4M- has been confirmed
Track | CTDB Status
1 | (82/82) Accurately ripped
2 | (82/82) Accurately ripped
3 | (82/82) Accurately ripped
4 | (82/82) Accurately ripped
5 | (82/82) Accurately ripped
6 | (82/82) Accurately ripped
7 | (82/82) Accurately ripped
8 | (82/82) Accurately ripped
9 | (82/82) Accurately ripped
10 | (82/82) Accurately ripped
11 | (82/82) Accurately ripped
12 | (82/82) Accurately ripped
13 | (82/82) Accurately ripped
14 | (82/82) Accurately ripped
15 | (82/82) Accurately ripped
16 | (82/82) Accurately ripped
17 | (82/82) Accurately ripped
18 | (82/82) Accurately ripped
19 | (82/82) Accurately ripped
20 | (82/82) Accurately ripped

––––––––––––––––––––––––––––––––––––––––
Analyzed: Average White Band / 100 Hits - Disco - CD02 (1)
Billy Ocean / 100 Hits - Disco - CD02 (2)
Chaka Khan / 100 Hits - Disco - CD02 (3)
Cheryl Lynn / 100 Hits - Disco - CD02 (4)
Chic / 100 Hits - Disco - CD02 (5)
Dan Hartman / 100 Hits - Disco - CD02 (6)
Earth, Wind & Fire / 100 Hits - Disco - CD02 (7)
Evelyn ''Champagne'' King / 100 Hits - Disco - CD02 (8)
Gladys Knight & The Pips / 100 Hits - Disco - CD02 (9)
Goody Goody / 100 Hits - Disco - CD02 (10)
Heatwave / 100 Hits - Disco - CD02 (11)
Janice McClain / 100 Hits - Disco - CD02 (12)
Kleeer / 100 Hits - Disco - CD02 (13)
Odyssey / 100 Hits - Disco - CD02 (14)
Phreek / 100 Hits - Disco - CD02 (15)
Rose Royce / 100 Hits - Disco - CD02 (16)
Sister Sledge / 100 Hits - Disco - CD02 (17)
Stacy Lattisaw / 100 Hits - Disco - CD02 (18)
The Emotions / 100 Hits - Disco - CD02 (19)
The Three Degrees / 100 Hits - Disco - CD02 (20)
––––––––––––––––––––––––––––––––––––––––

DR Peak RMS Duration Track
––––––––––––––––––––––––––––––––––––––––
DR10 -4.36 dB -16.79 dB 4:00 12-Pick Up The Pieces
DR9 -1.70 dB -12.92 dB 3:31 07-Red Light Spells Danger
DR10 -1.12 dB -14.01 dB 3:16 14-Fate
DR12 -2.62 dB -16.09 dB 4:35 08-Encore
DR13 -3.27 dB -17.52 dB 4:10 02-Everybody Dance
DR9 -3.00 dB -13.91 dB 3:27 10-Instant Replay
DR8 -6.71 dB -16.27 dB 3:32 03-Let's Groove
DR11 -1.54 dB -15.19 dB 3:54 13-Love Come Down
DR11 -2.70 dB -14.83 dB 3:33 15-Bourgie' Bourgie'
DR11 -1.43 dB -14.91 dB 3:27 16-#1 Dee Jay
DR12 -0.58 dB -15.29 dB 3:36 09-Boogie Nights
DR8 -5.45 dB -15.19 dB 4:03 17-Smack Dab In The Middle
DR11 -2.30 dB -14.75 dB 5:22 20-Keep Your Body Workin'
DR13 -0.01 dB -15.16 dB 4:59 01-Use It Up And Wear It Out
DR11 -0.01 dB -12.12 dB 3:44 18-Weekend
DR13 -2.30 dB -17.56 dB 4:25 05-It Makes You Feel Like Dancin'
DR12 -4.22 dB -17.72 dB 3:36 04-He's The Greatest Dancer
DR12 -2.25 dB -15.32 dB 4:06 19-Dynamite'
DR9 -3.43 dB -13.65 dB 3:38 11-The Best Of My Love
DR15 -0.23 dB -17.18 dB 4:31 06-My Simple Heart
––––––––––––––––––––––––––––––––––––––––

Number of tracks: 20
Official DR value: DR11

Samplerate: 44100 Hz
Channels: 2
Bits per sample: 16
Bitrate: 870 kbps
Codec: FLAC
================================================================================

Exact Audio Copy V1.3 from 2. September 2016

EAC extraction logfile from 11. May 2018, 18:40

Various / 100 Hits - Disco - CD03

Used drive : HL-DT-STDVDRAM GSA-E40N Adapter: 1 ID: 1

Read mode : Secure
Utilize accurate stream : Yes
Defeat audio cache : No
Make use of C2 pointers : Yes

Read offset correction : 667
Overread into Lead-In and Lead-Out : No
Fill up missing offset samples with silence : Yes
Delete leading and trailing silent blocks : No
Null samples used in CRC calculations : Yes
Used interface : Native Win32 interface for Win NT & 2000
Gap handling : Not detected, thus appended to previous track

Used output format : User Defined Encoder
Selected bitrate : 896 kBit/s
Quality : High
Add ID3 tag : No
Command line compressor : C:\Program Files (x86)\Exact Audio Copy\FLAC\FLAC.EXE
Additional command line options : -6 -V -T "ARTIST=%artist%" -T "TITLE=%title%" -T "ALBUM=%albumtitle%" -T "DATE=%year%" -T "TRACKNUMBER=%tracknr%" -T "GENRE=%genre%" -T "COMMENT=%comment%" -T "BAND=%albuminterpret%" -T "ALBUMARTIST=%albuminterpret%" -T "COMPOSER=%composer%" %haslyrics%–tag-from-file=LYRICS="%lyricsfile%"%haslyrics% -T "DISCNUMBER=%cdnumber%" -T "TOTALDISCS=%totalcds%" -T "TOTALTRACKS=%numtracks%" %hascover%–picture="%coverfile%"%hascover% %source% -o %dest%


TOC of the extracted CD

Track | Start | Length | Start sector | End sector
––––––––––––––––––––––––––––-
1 | 0:00.00 | 3:28.51 | 0 | 15650
2 | 3:28.51 | 5:25.34 | 15651 | 40059
3 | 8:54.10 | 2:57.57 | 40060 | 53391
4 | 11:51.67 | 4:35.19 | 53392 | 74035
5 | 16:27.11 | 3:46.28 | 74036 | 91013
6 | 20:13.39 | 3:23.45 | 91014 | 106283
7 | 23:37.09 | 3:26.69 | 106284 | 121802
8 | 27:04.03 | 3:28.45 | 121803 | 137447
9 | 30:32.48 | 4:34.73 | 137448 | 158070
10 | 35:07.46 | 3:18.03 | 158071 | 172923
11 | 38:25.49 | 3:54.11 | 172924 | 190484
12 | 42:19.60 | 5:29.52 | 190485 | 215211
13 | 47:49.37 | 4:51.48 | 215212 | 237084
14 | 52:41.10 | 3:34.53 | 237085 | 253187
15 | 56:15.63 | 4:40.61 | 253188 | 274248
16 | 60:56.49 | 3:44.74 | 274249 | 291122
17 | 64:41.48 | 4:02.15 | 291123 | 309287
18 | 68:43.63 | 3:23.44 | 309288 | 324556
19 | 72:07.32 | 4:19.11 | 324557 | 343992
20 | 76:26.43 | 3:16.47 | 343993 | 358739


Track 1

Filename A:\PsPBuRnOuT's MUSIC\100 HITS\100 HITS - DISCO\CD03 - 100 HITS - DISCO\01.Tom Browne - Funkin' For Jamaica.wav

Peak level 73.3 %
Extraction speed 1.7 X
Track quality 98.9 %
Copy CRC 0AE3EDA9
Accurately ripped (confidence 12) [F284210F] (AR v2)
Copy OK

Track 2

Filename A:\PsPBuRnOuT's MUSIC\100 HITS\100 HITS - DISCO\CD03 - 100 HITS - DISCO\02.Lonnie Liston Smith - Expansions.wav

Peak level 77.7 %
Extraction speed 6.9 X
Track quality 99.8 %
Copy CRC 4B782DB9
Accurately ripped (confidence 12) [21DAFA91] (AR v2)
Copy OK

Track 3

Filename A:\PsPBuRnOuT's MUSIC\100 HITS\100 HITS - DISCO\CD03 - 100 HITS - DISCO\03.Jean Carn - Don't Let It Go To Your Head.wav

Peak level 97.5 %
Extraction speed 9.2 X
Track quality 99.8 %
Copy CRC 0EB2579A
Accurately ripped (confidence 12) [950198FC] (AR v2)
Copy OK

Track 4

Filename A:\PsPBuRnOuT's MUSIC\100 HITS\100 HITS - DISCO\CD03 - 100 HITS - DISCO\04.The Jones Girls - Nights Over Egypt.wav

Peak level 99.8 %
Extraction speed 9.9 X
Track quality 99.8 %
Copy CRC B71B8D06
Accurately ripped (confidence 12) [AAAA3C6C] (AR v2)
Copy OK

Track 5

Filename A:\PsPBuRnOuT's MUSIC\100 HITS\100 HITS - DISCO\CD03 - 100 HITS - DISCO\05.Keni Burke - Risin' To The Top.wav

Peak level 80.1 %
Extraction speed 20.3 X
Track quality 100.0 %
Copy CRC CDEE6AF4
Accurately ripped (confidence 12) [DFAC4164] (AR v2)
Copy OK

Track 6

Filename A:\PsPBuRnOuT's MUSIC\100 HITS\100 HITS - DISCO\CD03 - 100 HITS - DISCO\06.Rodney Franklin - The Groove.wav

Peak level 73.2 %
Extraction speed 22.8 X
Track quality 100.0 %
Copy CRC 9F4295C6
Accurately ripped (confidence 12) [F48A5323] (AR v2)
Copy OK

Track 7

Filename A:\PsPBuRnOuT's MUSIC\100 HITS\100 HITS - DISCO\CD03 - 100 HITS - DISCO\07.Undisputed Truth - You + Me = Love.wav

Peak level 80.9 %
Extraction speed 26.2 X
Track quality 100.0 %
Copy CRC D776E79B
Accurately ripped (confidence 12) [DD0F2CF8] (AR v2)
Copy OK

Track 8

Filename A:\PsPBuRnOuT's MUSIC\100 HITS\100 HITS - DISCO\CD03 - 100 HITS - DISCO\08.Stargard - Wear It Out.wav

Peak level 92.7 %
Extraction speed 24.3 X
Track quality 100.0 %
Copy CRC B1E46AC1
Accurately ripped (confidence 12) [DAE3642F] (AR v2)
Copy OK

Track 9

Filename A:\PsPBuRnOuT's MUSIC\100 HITS\100 HITS - DISCO\CD03 - 100 HITS - DISCO\09.Candi Staton - When You Wake Up Tomorrow.wav

Peak level 86.1 %
Extraction speed 6.6 X
Track quality 99.4 %
Copy CRC 5143D589
Accurately ripped (confidence 12) [62EA94CF] (AR v2)
Copy OK

Track 10

Filename A:\PsPBuRnOuT's MUSIC\100 HITS\100 HITS - DISCO\CD03 - 100 HITS - DISCO\10.Dexter Wansel - Life On Mars.wav

Peak level 94.8 %
Extraction speed 22.4 X
Track quality 100.0 %
Copy CRC FB215BE3
Accurately ripped (confidence 12) [A554B7B7] (AR v2)
Copy OK

Track 11

Filename A:\PsPBuRnOuT's MUSIC\100 HITS\100 HITS - DISCO\CD03 - 100 HITS - DISCO\11.Narada Michael Walden - I Shoulda Loved Ya.wav

Peak level 75.5 %
Extraction speed 26.3 X
Track quality 100.0 %
Copy CRC 6722191A
Accurately ripped (confidence 12) [D53576B6] (AR v2)
Copy OK

Track 12

Filename A:\PsPBuRnOuT's MUSIC\100 HITS\100 HITS - DISCO\CD03 - 100 HITS - DISCO\12.The Futures - Ain't No Time Fa Nothing.wav

Peak level 91.4 %
Extraction speed 26.8 X
Track quality 100.0 %
Copy CRC 8CCCF80B
Accurately ripped (confidence 12) [9A9B1A2E] (AR v2)
Copy OK

Track 13

Filename A:\PsPBuRnOuT's MUSIC\100 HITS\100 HITS - DISCO\CD03 - 100 HITS - DISCO\13.Philadelphia International All Stars - Let's Clean Up The Ghetto.wav

Peak level 79.3 %
Extraction speed 32.6 X
Track quality 100.0 %
Copy CRC A5F41293
Accurately ripped (confidence 12) [37E4525F] (AR v2)
Copy OK

Track 14

Filename A:\PsPBuRnOuT's MUSIC\100 HITS\100 HITS - DISCO\CD03 - 100 HITS - DISCO\14.GQ - Disco Nights.wav

Peak level 79.3 %
Extraction speed 28.3 X
Track quality 100.0 %
Copy CRC 595C8FD1
Accurately ripped (confidence 12) [9AB85767] (AR v2)
Copy OK

Track 15

Filename A:\PsPBuRnOuT's MUSIC\100 HITS\100 HITS - DISCO\CD03 - 100 HITS - DISCO\15.Phyllis Hyman - You Know How To Love Me.wav

Peak level 78.3 %
Extraction speed 33.5 X
Track quality 100.0 %
Copy CRC A15BCB54
Accurately ripped (confidence 12) [3A181032] (AR v2)
Copy OK

Track 16

Filename A:\PsPBuRnOuT's MUSIC\100 HITS\100 HITS - DISCO\CD03 - 100 HITS - DISCO\16.Cheryl Lynn - Got To Be Real.wav

Peak level 95.5 %
Extraction speed 23.1 X
Track quality 99.9 %
Copy CRC 57718E84
Accurately ripped (confidence 12) [42F104C0] (AR v2)
Copy OK

Track 17

Filename A:\PsPBuRnOuT's MUSIC\100 HITS\100 HITS - DISCO\CD03 - 100 HITS - DISCO\17.Heatwave - Gangsters Of The Groove.wav

Peak level 99.8 %
Extraction speed 20.2 X
Track quality 99.9 %
Copy CRC 794150DA
Accurately ripped (confidence 12) [80302EFE] (AR v2)
Copy OK

Track 18

Filename A:\PsPBuRnOuT's MUSIC\100 HITS\100 HITS - DISCO\CD03 - 100 HITS - DISCO\18.The Intruders - I'll Always Love My Mama.wav

Peak level 98.6 %
Extraction speed 24.1 X
Track quality 100.0 %
Copy CRC E8DD0F9A
Accurately ripped (confidence 12) [279ED5D6] (AR v2)
Copy OK

Track 19

Filename A:\PsPBuRnOuT's MUSIC\100 HITS\100 HITS - DISCO\CD03 - 100 HITS - DISCO\19.Kleeer - Tonight's The Night (Good Time).wav

Peak level 93.2 %
Extraction speed 36.1 X
Track quality 100.0 %
Copy CRC 3876931D
Accurately ripped (confidence 12) [B1854C68] (AR v2)
Copy OK

Track 20

Filename A:\PsPBuRnOuT's MUSIC\100 HITS\100 HITS - DISCO\CD03 - 100 HITS - DISCO\20.MFSB - TSOP (The Sound Of Philadelphia).wav

Peak level 76.7 %
Extraction speed 34.7 X
Track quality 99.8 %
Copy CRC C7F09230
Accurately ripped (confidence 12) [E0D912D3] (AR v2)
Copy OK


All tracks accurately ripped

No errors occurred

End of status report

–– CUETools DB Plugin V2.1.6

[CTDB TOCID: 5ZdVndmgVlFnBp26AQ.XbVGMVSk-] found
Submit result: 5ZdVndmgVlFnBp26AQ.XbVGMVSk- has been confirmed
Track | CTDB Status
1 | (18/18) Accurately ripped
2 | (17/18) Accurately ripped
3 | (18/18) Accurately ripped
4 | (17/18) Accurately ripped
5 | (18/18) Accurately ripped
6 | (17/18) Accurately ripped
7 | (18/18) Accurately ripped
8 | (18/18) Accurately ripped
9 | (18/18) Accurately ripped
10 | (18/18) Accurately ripped
11 | (18/18) Accurately ripped
12 | (18/18) Accurately ripped
13 | (18/18) Accurately ripped
14 | (18/18) Accurately ripped
15 | (18/18) Accurately ripped
16 | (18/18) Accurately ripped
17 | (18/18) Accurately ripped
18 | (18/18) Accurately ripped
19 | (17/18) Accurately ripped
20 | (18/18) Accurately ripped

––––––––––––––––––––––––––––––––––––––––
Analyzed: Candi Staton / 100 Hits - Disco - CD03 (1)
Cheryl Lynn / 100 Hits - Disco - CD03 (2)
Dexter Wansel / 100 Hits - Disco - CD03 (3)
GQ / 100 Hits - Disco - CD03 (4)
Heatwave / 100 Hits - Disco - CD03 (5)
Jean Carn / 100 Hits - Disco - CD03 (6)
Keni Burke / 100 Hits - Disco - CD03 (7)
Kleeer / 100 Hits - Disco - CD03 (8)
Lonnie Liston Smith / 100 Hits - Disco - CD03 (9)
MFSB / 100 Hits - Disco - CD03 (10)
Narada Michael Walden / 100 Hits - Disco - CD03 (11)
Philadelphia International All Stars / 100 Hits - Disco - CD03 (12)
Phyllis Hyman / 100 Hits - Disco - CD03 (13)
Rodney Franklin / 100 Hits - Disco - CD03 (14)
Stargard / 100 Hits - Disco - CD03 (15)
The Futures / 100 Hits - Disco - CD03 (16)
The Intruders / 100 Hits - Disco - CD03 (17)
The Jones Girls / 100 Hits - Disco - CD03 (18)
Tom Browne / 100 Hits - Disco - CD03 (19)
Undisputed Truth / 100 Hits - Disco - CD03 (20)
––––––––––––––––––––––––––––––––––––––––

DR Peak RMS Duration Track
––––––––––––––––––––––––––––––––––––––––
DR13 -1.30 dB -16.18 dB 4:35 09-When You Wake Up Tomorrow
DR11 -0.40 dB -13.20 dB 3:45 16-Got To Be Real
DR11 -0.46 dB -13.66 dB 3:18 10-Life On Mars
DR12 -2.01 dB -15.19 dB 3:35 14-Disco Nights
DR13 -0.01 dB -15.19 dB 4:02 17-Gangsters Of The Groove
DR11 -0.21 dB -13.18 dB 2:58 03-Don't Let It Go To Your Head
DR10 -1.92 dB -13.16 dB 3:46 05-Risin' To The Top
DR15 -0.61 dB -16.79 dB 4:19 19-Tonight's The Night (Good Time)
DR8 -2.19 dB -11.91 dB 5:25 02-Expansions
DR10 -2.30 dB -13.97 dB 3:17 20-TSOP (The Sound Of Philadelphia)
DR9 -2.44 dB -12.80 dB 3:54 11-I Shoulda Loved Ya
DR9 -2.01 dB -12.98 dB 4:52 13-Let's Clean Up The Ghetto
DR11 -2.12 dB -13.74 dB 4:41 15-You Know How To Love Me
DR9 -2.70 dB -12.73 dB 3:24 06-The Groove
DR12 -0.66 dB -13.74 dB 3:29 08-Wear It Out
DR12 -0.78 dB -13.94 dB 5:30 12-Ain't No Time Fa Nothing
DR11 -0.12 dB -13.84 dB 3:24 18-I'll Always Love My Mama
DR11 -0.01 dB -12.63 dB 4:35 04-Nights Over Egypt
DR9 -2.70 dB -13.29 dB 3:29 01-Funkin' For Jamaica
DR8 -1.83 dB -11.90 dB 3:27 07-You + Me = Love
––––––––––––––––––––––––––––––––––––––––

Number of tracks: 20
Official DR value: DR11

Samplerate: 44100 Hz
Channels: 2
Bits per sample: 16
Bitrate: 962 kbps
Codec: FLAC
================================================================================

Exact Audio Copy V1.3 from 2. September 2016

EAC extraction logfile from 11. May 2018, 20:10

Various / 100 Hits - Disco - CD04

Used drive : HL-DT-STDVDRAM GSA-E40N Adapter: 1 ID: 1

Read mode : Secure
Utilize accurate stream : Yes
Defeat audio cache : No
Make use of C2 pointers : Yes

Read offset correction : 667
Overread into Lead-In and Lead-Out : No
Fill up missing offset samples with silence : Yes
Delete leading and trailing silent blocks : No
Null samples used in CRC calculations : Yes
Used interface : Native Win32 interface for Win NT & 2000
Gap handling : Not detected, thus appended to previous track

Used output format : User Defined Encoder
Selected bitrate : 896 kBit/s
Quality : High
Add ID3 tag : No
Command line compressor : C:\Program Files (x86)\Exact Audio Copy\FLAC\FLAC.EXE
Additional command line options : -6 -V -T "ARTIST=%artist%" -T "TITLE=%title%" -T "ALBUM=%albumtitle%" -T "DATE=%year%" -T "TRACKNUMBER=%tracknr%" -T "GENRE=%genre%" -T "COMMENT=%comment%" -T "BAND=%albuminterpret%" -T "ALBUMARTIST=%albuminterpret%" -T "COMPOSER=%composer%" %haslyrics%–tag-from-file=LYRICS="%lyricsfile%"%haslyrics% -T "DISCNUMBER=%cdnumber%" -T "TOTALDISCS=%totalcds%" -T "TOTALTRACKS=%numtracks%" %hascover%–picture="%coverfile%"%hascover% %source% -o %dest%


TOC of the extracted CD

Track | Start | Length | Start sector | End sector
––––––––––––––––––––––––––––-
1 | 0:00.00 | 3:27.73 | 0 | 15597
2 | 3:27.73 | 3:33.08 | 15598 | 31580
3 | 7:01.06 | 2:41.74 | 31581 | 43729
4 | 9:43.05 | 3:46.32 | 43730 | 60711
5 | 13:29.37 | 4:24.51 | 60712 | 80562
6 | 17:54.13 | 4:29.10 | 80563 | 100747
7 | 22:23.23 | 3:23.13 | 100748 | 115985
8 | 25:46.36 | 5:27.65 | 115986 | 140575
9 | 31:14.26 | 3:58.34 | 140576 | 158459
10 | 35:12.60 | 3:39.20 | 158460 | 174904
11 | 38:52.05 | 3:49.20 | 174905 | 192099
12 | 42:41.25 | 4:49.30 | 192100 | 213804
13 | 47:30.55 | 3:44.20 | 213805 | 230624
14 | 51:15.00 | 4:03.64 | 230625 | 248913
15 | 55:18.64 | 3:04.21 | 248914 | 262734
16 | 58:23.10 | 5:12.64 | 262735 | 286198
17 | 63:35.74 | 4:14.09 | 286199 | 305257
18 | 67:50.08 | 3:06.45 | 305258 | 319252
19 | 70:56.53 | 5:24.09 | 319253 | 343561
20 | 76:20.62 | 3:31.63 | 343562 | 359449


Track 1

Filename A:\PsPBuRnOuT's MUSIC\100 HITS\100 HITS - DISCO\CD04 - 100 HITS - DISCO\01.Boney M. - Daddy Cool.wav

Peak level 98.8 %
Extraction speed 16.2 X
Track quality 100.0 %
Copy CRC 3487214F
Accurately ripped (confidence 11) [BFE434F7] (AR v2)
Copy OK

Track 2

Filename A:\PsPBuRnOuT's MUSIC\100 HITS\100 HITS - DISCO\CD04 - 100 HITS - DISCO\02.Gary's Gang - Keep On Dancin'.wav

Peak level 99.8 %
Extraction speed 17.7 X
Track quality 100.0 %
Copy CRC 7FCE1F62
Accurately ripped (confidence 11) [9A36CB57] (AR v2)
Copy OK

Track 3

Filename A:\PsPBuRnOuT's MUSIC\100 HITS\100 HITS - DISCO\CD04 - 100 HITS - DISCO\03.Tina Charles - I Love To Love.wav

Peak level 99.8 %
Extraction speed 20.6 X
Track quality 100.0 %
Copy CRC 2FC51038
Accurately ripped (confidence 10) [49C26D80] (AR v2)
Copy OK

Track 4

Filename A:\PsPBuRnOuT's MUSIC\100 HITS\100 HITS - DISCO\CD04 - 100 HITS - DISCO\04.Baccara - Yes Sir, I Can Boogie.wav

Peak level 99.8 %
Extraction speed 19.9 X
Track quality 100.0 %
Copy CRC 9EDC3274
Accurately ripped (confidence 10) [E71723A6] (AR v2)
Copy OK

Track 5

Filename A:\PsPBuRnOuT's MUSIC\100 HITS\100 HITS - DISCO\CD04 - 100 HITS - DISCO\05.Johnnie Taylor - Disco Lady.wav

Peak level 99.8 %
Extraction speed 21.5 X
Track quality 100.0 %
Copy CRC 3F3C011F
Accurately ripped (confidence 11) [CEB3E8D3] (AR v2)
Copy OK

Track 6

Filename A:\PsPBuRnOuT's MUSIC\100 HITS\100 HITS - DISCO\CD04 - 100 HITS - DISCO\06.Deodato - Whistle Bump.wav

Peak level 90.0 %
Extraction speed 21.9 X
Track quality 100.0 %
Copy CRC B521BE95
Accurately ripped (confidence 11) [E96BBF35] (AR v2)
Copy OK

Track 7

Filename A:\PsPBuRnOuT's MUSIC\100 HITS\100 HITS - DISCO\CD04 - 100 HITS - DISCO\07.Graham Central Station - Now Do-U-Wanta Dance.wav

Peak level 78.3 %
Extraction speed 22.3 X
Track quality 100.0 %
Copy CRC C557A4B8
Accurately ripped (confidence 11) [0F11BC2D] (AR v2)
Copy OK

Track 8

Filename A:\PsPBuRnOuT's MUSIC\100 HITS\100 HITS - DISCO\CD04 - 100 HITS - DISCO\08.Club Nouveau - Lean On Me.wav

Peak level 69.1 %
Extraction speed 25.4 X
Track quality 100.0 %
Copy CRC 7929C651
Accurately ripped (confidence 11) [D4E6A3E2] (AR v2)
Copy OK

Track 9

Filename A:\PsPBuRnOuT's MUSIC\100 HITS\100 HITS - DISCO\CD04 - 100 HITS - DISCO\09.Steve Arrington - Feel So Real.wav

Peak level 95.9 %
Extraction speed 28.2 X
Track quality 100.0 %
Copy CRC 983A99AD
Accurately ripped (confidence 11) [A99121E8] (AR v2)
Copy OK

Track 10

Filename A:\PsPBuRnOuT's MUSIC\100 HITS\100 HITS - DISCO\CD04 - 100 HITS - DISCO\10.Nu Shooz - I Can't Wait.wav

Peak level 94.4 %
Extraction speed 29.9 X
Track quality 100.0 %
Copy CRC E94C0835
Accurately ripped (confidence 10) [CEF20F42] (AR v2)
Copy OK

Track 11

Filename A:\PsPBuRnOuT's MUSIC\100 HITS\100 HITS - DISCO\CD04 - 100 HITS - DISCO\11.Conway Brothers - Turn It Up.wav

Peak level 99.8 %
Extraction speed 30.0 X
Track quality 100.0 %
Copy CRC 93D9C098
Accurately ripped (confidence 11) [126EA260] (AR v2)
Copy OK

Track 12

Filename A:\PsPBuRnOuT's MUSIC\100 HITS\100 HITS - DISCO\CD04 - 100 HITS - DISCO\12.Timex Social Club - Rumors.wav

Peak level 80.1 %
Extraction speed 30.6 X
Track quality 100.0 %
Copy CRC 1D2D2B5B
Accurately ripped (confidence 11) [40132C34] (AR v2)
Copy OK

Track 13

Filename A:\PsPBuRnOuT's MUSIC\100 HITS\100 HITS - DISCO\CD04 - 100 HITS - DISCO\13.The Evasions - Wikka Wrap.wav

Peak level 99.8 %
Extraction speed 26.9 X
Track quality 100.0 %
Copy CRC 8C016329
Accurately ripped (confidence 11) [A0FBFB0E] (AR v2)
Copy OK

Track 14

Filename A:\PsPBuRnOuT's MUSIC\100 HITS\100 HITS - DISCO\CD04 - 100 HITS - DISCO\14.Space - Magic Fly.wav

Peak level 99.8 %
Extraction speed 33.2 X
Track quality 100.0 %
Copy CRC D14BBD4F
Accurately ripped (confidence 11) [623580B1] (AR v2)
Copy OK

Track 15

Filename A:\PsPBuRnOuT's MUSIC\100 HITS\100 HITS - DISCO\CD04 - 100 HITS - DISCO\15.Eruption - I Can't Stand The Rain.wav

Peak level 73.3 %
Extraction speed 33.2 X
Track quality 100.0 %
Copy CRC 49C6E20C
Accurately ripped (confidence 11) [05123023] (AR v2)
Copy OK

Track 16

Filename A:\PsPBuRnOuT's MUSIC\100 HITS\100 HITS - DISCO\CD04 - 100 HITS - DISCO\16.The O'Jays - Put Our Heads Together.wav

Peak level 99.8 %
Extraction speed 31.8 X
Track quality 100.0 %
Copy CRC A2DFFDF5
Accurately ripped (confidence 11) [AC54E8C0] (AR v2)
Copy OK

Track 17

Filename A:\PsPBuRnOuT's MUSIC\100 HITS\100 HITS - DISCO\CD04 - 100 HITS - DISCO\17.Luther Vandross - Give Me The Reason.wav

Peak level 83.7 %
Extraction speed 33.9 X
Track quality 100.0 %
Copy CRC 8A1BC583
Accurately ripped (confidence 10) [199BA182] (AR v2)
Copy OK

Track 18

Filename A:\PsPBuRnOuT's MUSIC\100 HITS\100 HITS - DISCO\CD04 - 100 HITS - DISCO\18.Linda Lewis - It's In His Kiss.wav

Peak level 99.8 %
Extraction speed 28.5 X
Track quality 100.0 %
Copy CRC 800F139D
Accurately ripped (confidence 11) [A577E72A] (AR v2)
Copy OK

Track 19

Filename A:\PsPBuRnOuT's MUSIC\100 HITS\100 HITS - DISCO\CD04 - 100 HITS - DISCO\19.The Weather Girls - It's Raining Men.wav

Peak level 95.2 %
Extraction speed 33.5 X
Track quality 100.0 %
Copy CRC 987AA6F9
Accurately ripped (confidence 10) [03E4EBA2] (AR v2)
Copy OK

Track 20

Filename A:\PsPBuRnOuT's MUSIC\100 HITS\100 HITS - DISCO\CD04 - 100 HITS - DISCO\20.The Drifters - Kissin' In The Back Row Of The Movies.wav

Peak level 99.8 %
Extraction speed 18.2 X
Track quality 100.0 %
Copy CRC B2707F5B
Accurately ripped (confidence 11) [77D0930B] (AR v2)
Copy OK


All tracks accurately ripped

No errors occurred

End of status report

–– CUETools DB Plugin V2.1.6

[CTDB TOCID: o9YYR3KKpNi4x_JVAD4clx4K1Rg-] found
Submit result: o9YYR3KKpNi4x_JVAD4clx4K1Rg- has been confirmed
Track | CTDB Status
1 | (76/76) Accurately ripped
2 | (76/76) Accurately ripped
3 | (76/76) Accurately ripped
4 | (76/76) Accurately ripped
5 | (76/76) Accurately ripped
6 | (76/76) Accurately ripped
7 | (76/76) Accurately ripped
8 | (76/76) Accurately ripped
9 | (76/76) Accurately ripped
10 | (76/76) Accurately ripped
11 | (76/76) Accurately ripped
12 | (76/76) Accurately ripped
13 | (76/76) Accurately ripped
14 | (76/76) Accurately ripped
15 | (76/76) Accurately ripped
16 | (76/76) Accurately ripped
17 | (76/76) Accurately ripped
18 | (75/76) Accurately ripped
19 | (75/76) Accurately ripped
20 | (76/76) Accurately ripped

––––––––––––––––––––––––––––––––––––––––
Analyzed: Baccara / 100 Hits - Disco - CD04 (1)
Boney M. / 100 Hits - Disco - CD04 (2)
Club Nouveau / 100 Hits - Disco - CD04 (3)
Conway Brothers / 100 Hits - Disco - CD04 (4)
Deodato / 100 Hits - Disco - CD04 (5)
Eruption / 100 Hits - Disco - CD04 (6)
Gary's Gang / 100 Hits - Disco - CD04 (7)
Graham Central Station / 100 Hits - Disco - CD04 (8)
Johnnie Taylor / 100 Hits - Disco - CD04 (9)
Linda Lewis / 100 Hits - Disco - CD04 (10)
Luther Vandross / 100 Hits - Disco - CD04 (11)
Nu Shooz / 100 Hits - Disco - CD04 (12)
Space / 100 Hits - Disco - CD04 (13)
Steve Arrington / 100 Hits - Disco - CD04 (14)
The Drifters / 100 Hits - Disco - CD04 (15)
The Evasions / 100 Hits - Disco - CD04 (16)
The O'Jays / 100 Hits - Disco - CD04 (17)
The Weather Girls / 100 Hits - Disco - CD04 (18)
Timex Social Club / 100 Hits - Disco - CD04 (19)
Tina Charles / 100 Hits - Disco - CD04 (20)
––––––––––––––––––––––––––––––––––––––––

DR Peak RMS Duration Track
––––––––––––––––––––––––––––––––––––––––
DR9 -0.01 dB -10.71 dB 3:46 04-Yes Sir, I Can Boogie
DR13 -0.10 dB -14.25 dB 3:28 01-Daddy Cool
DR9 -3.21 dB -12.95 dB 5:28 08-Lean On Me
DR12 -0.01 dB -13.39 dB 3:49 11-Turn It Up
DR12 -0.91 dB -14.43 dB 4:29 06-Whistle Bump
DR7 -2.70 dB -11.57 dB 3:04 15-I Can't Stand The Rain
DR12 -0.01 dB -13.45 dB 3:33 02-Keep On Dancin'
DR9 -2.12 dB -12.01 dB 3:23 07-Now Do-U-Wanta Dance
DR12 -0.01 dB -14.71 dB 4:25 05-Disco Lady
DR10 -0.01 dB -11.37 dB 3:07 18-It's In His Kiss
DR9 -1.54 dB -11.74 dB 4:14 17-Give Me The Reason
DR9 -0.50 dB -11.36 dB 3:39 10-I Can't Wait
DR7 -0.01 dB -8.30 dB 4:04 14-Magic Fly
DR11 -0.36 dB -12.59 dB 3:58 09-Feel So Real
DR11 -0.01 dB -11.71 dB 3:32 20-Kissin' In The Back Row Of The Movies
DR12 -0.01 dB -13.71 dB 3:44 13-Wikka Wrap
DR11 -0.01 dB -11.38 dB 5:13 16-Put Our Heads Together
DR8 -0.42 dB -10.73 dB 5:24 19-It's Raining Men
DR7 -1.92 dB -9.95 dB 4:49 12-Rumors
DR11 -0.01 dB -11.95 dB 2:42 03-I Love To Love
––––––––––––––––––––––––––––––––––––––––

Number of tracks: 20
Official DR value: DR10

Samplerate: 44100 Hz
Channels: 2
Bits per sample: 16
Bitrate: 997 kbps
Codec: FLAC
================================================================================

Exact Audio Copy V1.3 from 2. September 2016

EAC extraction logfile from 12. May 2018, 0:17

Various / 100 Hits - Disco - CD05

Used drive : HL-DT-STDVDRAM GSA-E40N Adapter: 1 ID: 1

Read mode : Secure
Utilize accurate stream : Yes
Defeat audio cache : No
Make use of C2 pointers : Yes

Read offset correction : 667
Overread into Lead-In and Lead-Out : No
Fill up missing offset samples with silence : Yes
Delete leading and trailing silent blocks : No
Null samples used in CRC calculations : Yes
Used interface : Native Win32 interface for Win NT & 2000
Gap handling : Not detected, thus appended to previous track

Used output format : User Defined Encoder
Selected bitrate : 896 kBit/s
Quality : High
Add ID3 tag : No
Command line compressor : C:\Program Files (x86)\Exact Audio Copy\FLAC\FLAC.EXE
Additional command line options : -6 -V -T "ARTIST=%artist%" -T "TITLE=%title%" -T "ALBUM=%albumtitle%" -T "DATE=%year%" -T "TRACKNUMBER=%tracknr%" -T "GENRE=%genre%" -T "COMMENT=%comment%" -T "BAND=%albuminterpret%" -T "ALBUMARTIST=%albuminterpret%" -T "COMPOSER=%composer%" %haslyrics%–tag-from-file=LYRICS="%lyricsfile%"%haslyrics% -T "DISCNUMBER=%cdnumber%" -T "TOTALDISCS=%totalcds%" -T "TOTALTRACKS=%numtracks%" %hascover%–picture="%coverfile%"%hascover% %source% -o %dest%


TOC of the extracted CD

Track | Start | Length | Start sector | End sector
––––––––––––––––––––––––––––-
1 | 0:00.00 | 4:12.19 | 0 | 18918
2 | 4:12.19 | 4:40.18 | 18919 | 39936
3 | 8:52.37 | 3:32.45 | 39937 | 55881
4 | 12:25.07 | 3:13.21 | 55882 | 70377
5 | 15:38.28 | 2:58.31 | 70378 | 83758
6 | 18:36.59 | 3:51.74 | 83759 | 101157
7 | 22:28.58 | 4:49.71 | 101158 | 122903
8 | 27:18.54 | 4:26.66 | 122904 | 142919
9 | 31:45.45 | 3:27.66 | 142920 | 158510
10 | 35:13.36 | 4:10.49 | 158511 | 177309
11 | 39:24.10 | 3:29.03 | 177310 | 192987
12 | 42:53.13 | 3:42.15 | 192988 | 209652
13 | 46:35.28 | 3:42.63 | 209653 | 226365
14 | 50:18.16 | 4:47.00 | 226366 | 247890
15 | 55:05.16 | 3:33.33 | 247891 | 263898
16 | 58:38.49 | 3:46.45 | 263899 | 280893
17 | 62:25.19 | 4:25.48 | 280894 | 300816
18 | 66:50.67 | 5:23.69 | 300817 | 325110
19 | 72:14.61 | 3:39.54 | 325111 | 341589
20 | 75:54.40 | 2:55.74 | 341590 | 354788


Track 1

Filename A:\PsPBuRnOuT's MUSIC\100 HITS\100 HITS - DISCO\CD05 - 100 HITS - DISCO\01.The Isley Brothers - It's A Disco Night (Rock Don't Stop).wav

Peak level 80.6 %
Extraction speed 4.7 X
Track quality 98.9 %
Copy CRC 568EF2EB
Accurately ripped (confidence 11) [A053CC89] (AR v2)
Copy OK

Track 2

Filename A:\PsPBuRnOuT's MUSIC\100 HITS\100 HITS - DISCO\CD05 - 100 HITS - DISCO\02.Odyssey - Native New Yorker.wav

Peak level 99.9 %
Extraction speed 9.1 X
Track quality 99.4 %
Copy CRC BBCBB25C
Accurately ripped (confidence 10) [0D6292A1] (AR v2)
Copy OK

Track 3

Filename A:\PsPBuRnOuT's MUSIC\100 HITS\100 HITS - DISCO\CD05 - 100 HITS - DISCO\03.Harold Melvin & The Blue Notes - The Love I Lost.wav

Peak level 87.4 %
Extraction speed 11.9 X
Track quality 99.6 %
Copy CRC AC4EFD66
Accurately ripped (confidence 11) [368FCDA3] (AR v2)
Copy OK

Track 4

Filename A:\PsPBuRnOuT's MUSIC\100 HITS\100 HITS - DISCO\CD05 - 100 HITS - DISCO\04.Gladys Knight & The Pips - Baby Don't Change Your Mind.wav

Peak level 99.1 %
Extraction speed 14.9 X
Track quality 99.7 %
Copy CRC 3332B78B
Accurately ripped (confidence 11) [1D2ACEF7] (AR v2)
Copy OK

Track 5

Filename A:\PsPBuRnOuT's MUSIC\100 HITS\100 HITS - DISCO\CD05 - 100 HITS - DISCO\05.Sly & The Family Stone - Family Affair.wav

Peak level 100.0 %
Extraction speed 21.2 X
Track quality 100.0 %
Copy CRC 53F5776A
Accurately ripped (confidence 11) [317BC022] (AR v2)
Copy OK

Track 6

Filename A:\PsPBuRnOuT's MUSIC\100 HITS\100 HITS - DISCO\CD05 - 100 HITS - DISCO\06.The Trammps - Hold Back The Night.wav

Peak level 99.3 %
Extraction speed 21.8 X
Track quality 99.9 %
Copy CRC 717CD6BE
Accurately ripped (confidence 11) [7D00ADBB] (AR v2)
Copy OK

Track 7

Filename A:\PsPBuRnOuT's MUSIC\100 HITS\100 HITS - DISCO\CD05 - 100 HITS - DISCO\07.Jean Carne - Was That All It Was.wav

Peak level 97.9 %
Extraction speed 22.6 X
Track quality 99.9 %
Copy CRC D7403A22
Accurately ripped (confidence 11) [38D3DBC8] (AR v2)
Copy OK

Track 8

Filename A:\PsPBuRnOuT's MUSIC\100 HITS\100 HITS - DISCO\CD05 - 100 HITS - DISCO\08.Lou Rawls - See You When I Git There.wav

Peak level 89.9 %
Extraction speed 25.4 X
Track quality 100.0 %
Copy CRC 8CA4926D
Accurately ripped (confidence 11) [CC7E7EAF] (AR v2)
Copy OK

Track 9

Filename A:\PsPBuRnOuT's MUSIC\100 HITS\100 HITS - DISCO\CD05 - 100 HITS - DISCO\09.Billy Paul - Bring The Family Back.wav

Peak level 73.5 %
Extraction speed 23.8 X
Track quality 99.8 %
Copy CRC 16AE417D
Accurately ripped (confidence 11) [B80AC3CE] (AR v2)
Copy OK

Track 10

Filename A:\PsPBuRnOuT's MUSIC\100 HITS\100 HITS - DISCO\CD05 - 100 HITS - DISCO\10.Slave - Just A Touch Of Love.wav

Peak level 84.0 %
Extraction speed 27.0 X
Track quality 100.0 %
Copy CRC DB236353
Accurately ripped (confidence 11) [24E11D2B] (AR v2)
Copy OK

Track 11

Filename A:\PsPBuRnOuT's MUSIC\100 HITS\100 HITS - DISCO\CD05 - 100 HITS - DISCO\11.Gwen McCrae - Keep The Fire Burning.wav

Peak level 85.9 %
Extraction speed 25.1 X
Track quality 99.8 %
Copy CRC 1CA8DA47
Accurately ripped (confidence 11) [BFA079B8] (AR v2)
Copy OK

Track 12

Filename A:\PsPBuRnOuT's MUSIC\100 HITS\100 HITS - DISCO\CD05 - 100 HITS - DISCO\12.Change - Searching.wav

Peak level 72.1 %
Extraction speed 30.5 X
Track quality 100.0 %
Copy CRC 1DB9B151
Accurately ripped (confidence 11) [B96B03BD] (AR v2)
Copy OK

Track 13

Filename A:\PsPBuRnOuT's MUSIC\100 HITS\100 HITS - DISCO\CD05 - 100 HITS - DISCO\13.The Three Degrees - The Runner.wav

Peak level 96.2 %
Extraction speed 32.2 X
Track quality 100.0 %
Copy CRC F95778B5
Accurately ripped (confidence 11) [4F928D91] (AR v2)
Copy OK

Track 14

Filename A:\PsPBuRnOuT's MUSIC\100 HITS\100 HITS - DISCO\CD05 - 100 HITS - DISCO\14.The Pointer Sisters - Automatic.wav

Peak level 81.0 %
Extraction speed 30.1 X
Track quality 100.0 %
Copy CRC A2633DC9
Accurately ripped (confidence 11) [2E8D82F9] (AR v2)
Copy OK

Track 15

Filename A:\PsPBuRnOuT's MUSIC\100 HITS\100 HITS - DISCO\CD05 - 100 HITS - DISCO\15.Evelyn ''Champagne'' King - Shame.wav

Peak level 84.2 %
Extraction speed 29.4 X
Track quality 100.0 %
Copy CRC 850F6744
Accurately ripped (confidence 11) [89399ED2] (AR v2)
Copy OK

Track 16

Filename A:\PsPBuRnOuT's MUSIC\100 HITS\100 HITS - DISCO\CD05 - 100 HITS - DISCO\16.M.F.S.B. - Mysteries Of The World.wav

Peak level 99.1 %
Extraction speed 34.6 X
Track quality 100.0 %
Copy CRC D6679C76
Accurately ripped (confidence 11) [041003EF] (AR v2)
Copy OK

Track 17

Filename A:\PsPBuRnOuT's MUSIC\100 HITS\100 HITS - DISCO\CD05 - 100 HITS - DISCO\17.The Jones Girls - You Can't Have My Love.wav

Peak level 100.0 %
Extraction speed 32.7 X
Track quality 100.0 %
Copy CRC 157EA20C
Accurately ripped (confidence 11) [5C22A083] (AR v2)
Copy OK

Track 18

Filename A:\PsPBuRnOuT's MUSIC\100 HITS\100 HITS - DISCO\CD05 - 100 HITS - DISCO\18.Billy Griffin - Hold Me Tighter In The Rain.wav

Peak level 84.4 %
Extraction speed 32.6 X
Track quality 100.0 %
Copy CRC 9FBD763F
Accurately ripped (confidence 11) [DB2254D4] (AR v2)
Copy OK

Track 19

Filename A:\PsPBuRnOuT's MUSIC\100 HITS\100 HITS - DISCO\CD05 - 100 HITS - DISCO\19.People's Choice - Jam Jam Jam (All Night long).wav

Peak level 100.0 %
Extraction speed 31.5 X
Track quality 100.0 %
Copy CRC D93566AE
Accurately ripped (confidence 11) [07CE68A9] (AR v2)
Copy OK

Track 20

Filename A:\PsPBuRnOuT's MUSIC\100 HITS\100 HITS - DISCO\CD05 - 100 HITS - DISCO\20.The O'Jays - Love Train.wav

Peak level 77.9 %
Extraction speed 37.8 X
Track quality 100.0 %
Copy CRC 453EB9B7
Accurately ripped (confidence 10) [F5CA3B58] (AR v2)
Copy OK


All tracks accurately ripped

No errors occurred

End of status report

–– CUETools DB Plugin V2.1.6

[CTDB TOCID: fdIopsQMmaUWtwAcgLG50qle4t0-] found
Submit result: fdIopsQMmaUWtwAcgLG50qle4t0- has been confirmed
Track | CTDB Status
1 | (74/74) Accurately ripped
2 | (74/74) Accurately ripped
3 | (74/74) Accurately ripped
4 | (74/74) Accurately ripped
5 | (74/74) Accurately ripped
6 | (74/74) Accurately ripped
7 | (74/74) Accurately ripped
8 | (74/74) Accurately ripped
9 | (74/74) Accurately ripped
10 | (74/74) Accurately ripped
11 | (74/74) Accurately ripped
12 | (74/74) Accurately ripped
13 | (74/74) Accurately ripped
14 | (74/74) Accurately ripped
15 | (74/74) Accurately ripped
16 | (74/74) Accurately ripped
17 | (74/74) Accurately ripped
18 | (74/74) Accurately ripped
19 | (74/74) Accurately ripped
20 | (73/74) Accurately ripped

––––––––––––––––––––––––––––––––––––––––
Analyzed: Billy Griffin / 100 Hits - Disco - CD05 (1)
Billy Paul / 100 Hits - Disco - CD05 (2)
Change / 100 Hits - Disco - CD05 (3)
Evelyn ''Champagne'' King / 100 Hits - Disco - CD05 (4)
Gladys Knight & The Pips / 100 Hits - Disco - CD05 (5)
Gwen McCrae / 100 Hits - Disco - CD05 (6)
Harold Melvin & The Blue Notes / 100 Hits - Disco - CD05 (7)
Jean Carne / 100 Hits - Disco - CD05 (8)
Lou Rawls / 100 Hits - Disco - CD05 (9)
M.F.S.B. / 100 Hits - Disco - CD05 (10)
Odyssey / 100 Hits - Disco - CD05 (11)
People's Choice / 100 Hits - Disco - CD05 (12)
Slave / 100 Hits - Disco - CD05 (13)
Sly & The Family Stone / 100 Hits - Disco - CD05 (14)
The Isley Brothers / 100 Hits - Disco - CD05 (15)
The Jones Girls / 100 Hits - Disco - CD05 (16)
The O'Jays / 100 Hits - Disco - CD05 (17)
The Pointer Sisters / 100 Hits - Disco - CD05 (18)
The Three Degrees / 100 Hits - Disco - CD05 (19)
The Trammps / 100 Hits - Disco - CD05 (20)
––––––––––––––––––––––––––––––––––––––––

DR Peak RMS Duration Track
––––––––––––––––––––––––––––––––––––––––
DR10 -1.47 dB -14.06 dB 5:24 18-Hold Me Tighter In The Rain
DR11 -2.67 dB -14.79 dB 3:28 09-Bring The Family Back
DR9 -2.83 dB -13.16 dB 3:42 12-Searching
DR9 -1.49 dB -12.74 dB 3:33 15-Shame
DR11 -0.08 dB -13.08 dB 3:13 04-Baby Don't Change Your Mind
DR13 -1.32 dB -15.41 dB 3:29 11-Keep The Fire Burning
DR12 -1.17 dB -15.62 dB 3:33 03-The Love I Lost
DR13 -0.18 dB -14.49 dB 4:50 07-Was That All It Was
DR12 -0.92 dB -14.14 dB 4:27 08-See You When I Git There
DR13 -0.07 dB -15.05 dB 3:47 16-Mysteries Of The World
DR13 -0.01 dB -15.28 dB 4:40 02-Native New Yorker
DR12 0.00 dB -13.36 dB 3:40 19-Jam Jam Jam (All Night long)
DR12 -1.50 dB -14.65 dB 4:11 10-Just A Touch Of Love
DR13 0.00 dB -13.94 dB 2:58 05-Family Affair
DR10 -1.87 dB -13.24 dB 4:12 01-It's A Disco Night (Rock Don't Stop)
DR14 0.00 dB -14.81 dB 4:26 17-You Can't Have My Love
DR11 -2.16 dB -14.18 dB 2:56 20-Love Train
DR12 -1.82 dB -15.18 dB 4:47 14-Automatic
DR13 -0.34 dB -15.85 dB 3:43 13-The Runner
DR14 -0.06 dB -16.40 dB 3:52 06-Hold Back The Night
––––––––––––––––––––––––––––––––––––––––

Number of tracks: 20
Official DR value: DR12

Samplerate: 44100 Hz
Channels: 2
Bits per sample: 16
Bitrate: 818 kbps
Codec: FLAC
================================================================================

All thanks to PsPBuRnOuT

password: BlondStyle