Subcategories

V.A. - Blank & Jones Present So80s (So Eighties) Vol. 10 (2016)

Posted By: gribovar
V.A. - Blank & Jones Present So80s (So Eighties) Vol. 10 (2016)

V.A. - Blank & Jones Present So80s (So Eighties) Vol. 10 (2016)
EAC Rip | FLAC (tracks+.cue+log) - 1,42 GB | Covers - 577 MB
Genre: New Wave, Europop, Synth-pop | RAR 3% Rec. | Label: Soundcolours (SC 0350)

Blank & Jones hit double figures with their long running SoEighties series, with the announcement of so80s 10, another three-disc compilation of extended versions of from the best decade in pop, the 1980s. The tenth edition in this series contains over 30 remixes including the near 12-minute long version of the Sisters Of Mercy This Corrosion, Pat Benatar’s Love Is A Battlefield, and Laura Branigan’s Self Control. Sade make a rare outing on a remix compilation with the extended version of Sweetest Taboo, and the Pet Shop Boys‘ Love Comes Quickly, which somehow peaked at a lowly number 19 in the UK back in the day, is included in full-length Shep Pettibone Mastermix guise.
CD 1 Tracklist:
01. Pet Shop Boys - Love Comes Quickly (Shep Pettibone Mastermix)
02. Laura Branigan - Self-Control (Extended Version)
03. Information Society - What's On Your Mind (Pure Energy) (Club Mix)
04. New Order - Blue Monday (Original 12'' Version)
05. Pat Benatar - Love Is A Battlefield (Extended Version)
06. Jon Astley - Jane's Getting Serious (Full Length Version)
07. Terence Trent D'Arby - Wishing Well (The Cool In The Shade Mix)
08. Sade - The Sweetest Taboo (Extended Version)
09. Shakatak - City Rhythm (Full Length Version)
10. Feltman Trommelt - Healing (Full Length Version)
11. Fleetwood Mac - Everywhere (12'' Version)

Total time: 01:09:31

CD 2 Tracklist:
01. The Sisters of Mercy - This Corrosion (Long Version)
02. The Cure - Boys Don't Cry (Resung & Club Mixed Extended 12' Dance Version)
03. The Alarm - Rain In The Summertime (Through The Haze Mix)
04. Camouflage - Love Is A Shield (Extended Version)
05. Soft Cell - Tainted Love_Where Did Our Love Go (Original 12' Version)
06. Fiat Lux - Secrets (Full Length Version)
07. Art Of Noise - Paranoimia (Feat. Max Headroom) (Extended Version)
08. Christians - Forgotten Town (12' Version)
09. Alison Moyet - Is This Love (L.A. Mix)
10. Roxette - The Look (Big Red Mix)
11. The Bangles - Walk Like An Egyptian (Extended Dance Mix)

Total time: 01:15:11

CD 3 Tracklist:
01. Secession - The Magician (Pecky Plus Mix)
02. Dizzi Heights - Would I Find Love (Extended Version)
03. Kissing The Pink - Big Man Restless (Club Mix)
04. The Unknown Cases - Masimbabele (Original 12'' Version)
05. Pete Bardens - In Dreams (High Velocity Mix)
06. Blind Date - Your Heart Keeps Burning (Burning Mega Mix - The Glory Radio Drama Part 1)
07. Huey Lewis & The News - New Drug (Called Love) (12'' Mix)
08. The B-52's - Roam (Extended Mix)
09. The Manhattan Transfer - Soul Food To Go (Extended Version)
10. Chris Rea - Touché D'Amour (Special Extended Remix)

Total time: 01:08:19

Exact Audio Copy V1.2 from 12. August 2016

EAC extraction logfile from 20. August 2016, 11:38

Various / So80s (Soeighties) 9 (Unmixed Compiled by Blank & Jones)

Used drive : ASUS DRW-24F1ST a Adapter: 1 ID: 2

Read mode : Secure
Utilize accurate stream : Yes
Defeat audio cache : Yes
Make use of C2 pointers : No

Read offset correction : 6
Overread into Lead-In and Lead-Out : No
Fill up missing offset samples with silence : Yes
Delete leading and trailing silent blocks : No
Null samples used in CRC calculations : Yes
Used interface : Native Win32 interface for Win NT & 2000
Gap handling : Appended to previous track

Used output format : User Defined Encoder
Selected bitrate : 896 kBit/s
Quality : High
Add ID3 tag : No
Command line compressor : C:\Program Files (x86)\Exact Audio Copy\Flac\flac.exe
Additional command line options : -8 -V -T "COMMENT=ripped by DrStandBy special for new-team.org" -T "ARTIST=%artist%" -T "TITLE=%title%" -T "ALBUM=%albumtitle%" -T "DATE=%year%" -T "TRACKNUMBER=%tracknr%" -T "GENRE=%genre%" %source%


TOC of the extracted CD

Track | Start | Length | Start sector | End sector
––––––––––––––––––––––––––––-
1 | 0:00.00 | 7:39.65 | 0 | 34489
2 | 7:39.65 | 5:05.55 | 34490 | 57419
3 | 12:45.45 | 7:56.33 | 57420 | 93152
4 | 20:42.03 | 7:30.70 | 93153 | 126972
5 | 28:12.73 | 6:29.34 | 126973 | 156181
6 | 34:42.32 | 4:26.26 | 156182 | 176157
7 | 39:08.58 | 7:52.38 | 176158 | 211595
8 | 47:01.21 | 5:29.60 | 211596 | 236330
9 | 52:31.06 | 7:16.24 | 236331 | 269054
10 | 59:47.30 | 4:04.51 | 269055 | 287405
11 | 63:52.06 | 5:47.27 | 287406 | 313457


Track 1

Filename I:\2016 - Blank & Jones pres. So80s (So Eighties) Vol. 10 (SC 0350)\1-01. Pet Shop Boys - Love Comes Quickly (Shep Pettibone Mastermix).wav

Pre-gap length 0:00:02.00

Peak level 95.7 %
Extraction speed 2.1 X
Track quality 100.0 %
Test CRC C600DD9B
Copy CRC C600DD9B
Accurately ripped (confidence 14) [785CD1DB] (AR v2)
Copy OK

Track 2

Filename I:\2016 - Blank & Jones pres. So80s (So Eighties) Vol. 10 (SC 0350)\1-02. Laura Branigan - Self-Control (Extended Version).wav

Pre-gap length 0:00:02.43

Peak level 95.7 %
Extraction speed 2.3 X
Track quality 100.0 %
Test CRC 28F9A0AF
Copy CRC 28F9A0AF
Accurately ripped (confidence 14) [24477C5F] (AR v2)
Copy OK

Track 3

Filename I:\2016 - Blank & Jones pres. So80s (So Eighties) Vol. 10 (SC 0350)\1-03. Information Society - What's On Your Mind (Pure Energy) (Club Mix).wav

Pre-gap length 0:00:02.02

Peak level 95.7 %
Extraction speed 2.4 X
Track quality 99.9 %
Test CRC 03BF6BCD
Copy CRC 03BF6BCD
Accurately ripped (confidence 14) [3657BB10] (AR v2)
Copy OK

Track 4

Filename I:\2016 - Blank & Jones pres. So80s (So Eighties) Vol. 10 (SC 0350)\1-04. New Order - Blue Monday (Original 12'' Version).wav

Pre-gap length 0:00:02.00

Peak level 95.7 %
Extraction speed 3.0 X
Track quality 100.0 %
Test CRC E670E925
Copy CRC E670E925
Accurately ripped (confidence 14) [169D66A7] (AR v2)
Copy OK

Track 5

Filename I:\2016 - Blank & Jones pres. So80s (So Eighties) Vol. 10 (SC 0350)\1-05. Pat Benatar - Love Is A Battlefield (Extended Version).wav

Pre-gap length 0:00:01.74

Peak level 95.7 %
Extraction speed 2.7 X
Track quality 99.9 %
Test CRC 634DA5B5
Copy CRC 634DA5B5
Accurately ripped (confidence 14) [6F7FC623] (AR v2)
Copy OK

Track 6

Filename I:\2016 - Blank & Jones pres. So80s (So Eighties) Vol. 10 (SC 0350)\1-06. Jon Astley - Jane's Getting Serious (Full Length Version).wav

Pre-gap length 0:00:02.00

Peak level 95.7 %
Extraction speed 3.2 X
Track quality 100.0 %
Test CRC F4FEFD6F
Copy CRC F4FEFD6F
Accurately ripped (confidence 14) [5332E247] (AR v2)
Copy OK

Track 7

Filename I:\2016 - Blank & Jones pres. So80s (So Eighties) Vol. 10 (SC 0350)\1-07. Terence Trent D'Arby - Wishing Well (The Cool In The Shade Mix).wav

Pre-gap length 0:00:02.00

Peak level 95.7 %
Extraction speed 3.6 X
Track quality 100.0 %
Test CRC D517CD53
Copy CRC D517CD53
Accurately ripped (confidence 14) [C4104E91] (AR v2)
Copy OK

Track 8

Filename I:\2016 - Blank & Jones pres. So80s (So Eighties) Vol. 10 (SC 0350)\1-08. Sade - The Sweetest Taboo (Extended Version).wav

Pre-gap length 0:00:02.00

Peak level 95.7 %
Extraction speed 3.6 X
Track quality 100.0 %
Test CRC 90E613C6
Copy CRC 90E613C6
Accurately ripped (confidence 14) [80E43EB6] (AR v2)
Copy OK

Track 9

Filename I:\2016 - Blank & Jones pres. So80s (So Eighties) Vol. 10 (SC 0350)\1-09. Shakatak - City Rhythm (Full Length Version).wav

Pre-gap length 0:00:02.00

Peak level 95.8 %
Extraction speed 3.9 X
Track quality 100.0 %
Test CRC 5D287AF0
Copy CRC 5D287AF0
Accurately ripped (confidence 14) [A2A1CE2B] (AR v2)
Copy OK

Track 10

Filename I:\2016 - Blank & Jones pres. So80s (So Eighties) Vol. 10 (SC 0350)\1-10. Feltman Trommelt - Healing (Full Length Version).wav

Pre-gap length 0:00:02.00

Peak level 79.3 %
Extraction speed 2.7 X
Track quality 99.9 %
Test CRC 2E31E709
Copy CRC 2E31E709
Accurately ripped (confidence 14) [8A44AFAA] (AR v2)
Copy OK

Track 11

Filename I:\2016 - Blank & Jones pres. So80s (So Eighties) Vol. 10 (SC 0350)\1-11. Fleetwood Mac - Everywhere (12'' Version).wav

Pre-gap length 0:00:02.00

Peak level 95.7 %
Extraction speed 4.0 X
Track quality 100.0 %
Test CRC 607CF082
Copy CRC 607CF082
Accurately ripped (confidence 14) [9F5C44A7] (AR v2)
Copy OK


All tracks accurately ripped

No errors occurred

End of status report

–– CUETools DB Plugin V2.1.6

[CTDB TOCID: 9I6EfwG_LBjp4tqkJxxEpL0UZm8-] found
Submit result: 9I6EfwG_LBjp4tqkJxxEpL0UZm8- has been confirmed
Track | CTDB Status
1 | (51/51) Accurately ripped
2 | (51/51) Accurately ripped
3 | (51/51) Accurately ripped
4 | (51/51) Accurately ripped
5 | (51/51) Accurately ripped
6 | (51/51) Accurately ripped
7 | (51/51) Accurately ripped
8 | (51/51) Accurately ripped
9 | (51/51) Accurately ripped
10 | (51/51) Accurately ripped
11 | (51/51) Accurately ripped


==== Log checksum E60578570A625AC75E451B2D788E3D3CE67BE64EDC583654050757B567172A28 ====

[CUETools log; Date: 01.03.2018 1:44:03; Version: 2.1.4]
[CTDB TOCID: 9I6EfwG_LBjp4tqkJxxEpL0UZm8-] found.
Track | CTDB Status
1 | (100/101) Accurately ripped
2 | (100/101) Accurately ripped
3 | (100/101) Accurately ripped
4 | (100/101) Accurately ripped
5 | (100/101) Accurately ripped
6 | ( 99/101) Accurately ripped
7 | (100/101) Accurately ripped
8 | (100/101) Accurately ripped
9 | (100/101) Accurately ripped
10 | (100/101) Accurately ripped
11 | (100/101) Accurately ripped
[AccurateRip ID: 001df0ee-010124cf-9e10530b] found.
Track [ CRC | V2 ] Status
01 [71e8c2c8|785cd1db] (02+50/52) Accurately ripped
02 [3b0a9620|24477c5f] (02+50/52) Accurately ripped
03 [d4672116|3657bb10] (02+50/52) Accurately ripped
04 [a7a6569e|169d66a7] (02+50/52) Accurately ripped
05 [96f94999|6f7fc623] (02+50/52) Accurately ripped
06 [bebbe89a|5332e247] (02+50/52) Accurately ripped
07 [4aee8c7f|c4104e91] (02+50/52) Accurately ripped
08 [84020ba9|80e43eb6] (02+50/52) Accurately ripped
09 [bf5ff6f2|a2a1ce2b] (02+50/52) Accurately ripped
10 [5a602594|8a44afaa] (02+50/52) Accurately ripped
11 [cd2f4687|9f5c44a7] (02+50/52) Accurately ripped

Track Peak [ CRC32 ] [W/O NULL] [ LOG ]
– 95,8 [8FDFFC8D] [65C21505]
01 95,7 [C600DD9B] [03BB0CA0] CRC32
02 95,7 [28F9A0AF] [A307F22B] CRC32
03 95,7 [03BF6BCD] [4B5D40E8] CRC32
04 95,7 [E670E925] [264C4CCF] CRC32
05 95,7 [634DA5B5] [4ABDCC27] CRC32
06 95,7 [F4FEFD6F] [601D62E0] CRC32
07 95,7 [D517CD53] [EB94C0FC] CRC32
08 95,7 [90E613C6] [84186037] CRC32
09 95,8 [5D287AF0] [925999CC] CRC32
10 79,3 [2E31E709] [250AEA9E] CRC32
11 95,7 [607CF082] [4622A624] CRC32

Exact Audio Copy V1.2 from 12. August 2016

EAC extraction logfile from 21. August 2016, 11:54

Various / So80s (Soeighties) 9 (Unmixed Compiled by Blank & Jones)

Used drive : ASUS DRW-24F1ST a Adapter: 1 ID: 2

Read mode : Secure
Utilize accurate stream : Yes
Defeat audio cache : Yes
Make use of C2 pointers : No

Read offset correction : 6
Overread into Lead-In and Lead-Out : No
Fill up missing offset samples with silence : Yes
Delete leading and trailing silent blocks : No
Null samples used in CRC calculations : Yes
Used interface : Native Win32 interface for Win NT & 2000
Gap handling : Appended to previous track

Used output format : User Defined Encoder
Selected bitrate : 896 kBit/s
Quality : High
Add ID3 tag : No
Command line compressor : C:\Program Files (x86)\Exact Audio Copy\Flac\flac.exe
Additional command line options : -8 -V -T "COMMENT=ripped by DrStandBy special for new-team.org" -T "ARTIST=%artist%" -T "TITLE=%title%" -T "ALBUM=%albumtitle%" -T "DATE=%year%" -T "TRACKNUMBER=%tracknr%" -T "GENRE=%genre%" %source%


TOC of the extracted CD

Track | Start | Length | Start sector | End sector
––––––––––––––––––––––––––––-
1 | 0:00.00 | 11:18.20 | 0 | 50869
2 | 11:18.20 | 5:33.40 | 50870 | 75884
3 | 16:51.60 | 8:36.53 | 75885 | 114637
4 | 25:28.38 | 5:22.49 | 114638 | 138836
5 | 30:51.12 | 8:55.63 | 138837 | 179024
6 | 39:47.00 | 3:30.17 | 179025 | 194791
7 | 43:17.17 | 6:43.01 | 194792 | 225017
8 | 50:00.18 | 6:15.59 | 225018 | 253201
9 | 56:16.02 | 5:26.66 | 253202 | 277717
10 | 61:42.68 | 7:36.56 | 277718 | 311973
11 | 69:19.49 | 5:51.13 | 311974 | 338311


Track 1

Filename I:\016 - Blank & Jones pres. So80s (So Eighties) Vol. 10 (SC 0350)\2-01. The Sisters of Mercy - This Corrosion (Long Version).wav

Pre-gap length 0:00:02.00

Peak level 95.7 %
Extraction speed 2.1 X
Track quality 99.9 %
Test CRC 9B61779C
Copy CRC 9B61779C
Accurately ripped (confidence 11) [2E4CE478] (AR v2)
Copy OK

Track 2

Filename I:\2016 - Blank & Jones pres. So80s (So Eighties) Vol. 10 (SC 0350)\2-02. The Cure - Boys Don't Cry (Resung & Club Mixed Extended 12'' Dance Version).wav

Pre-gap length 0:00:02.00

Peak level 95.7 %
Extraction speed 2.5 X
Track quality 100.0 %
Test CRC 9D0B63F5
Copy CRC 9D0B63F5
Accurately ripped (confidence 11) [018E0A6A] (AR v2)
Copy OK

Track 3

Filename I:\2016 - Blank & Jones pres. So80s (So Eighties) Vol. 10 (SC 0350)\2-03. The Alarm - Rain In The Summertime (Through The Haze Mix).wav

Pre-gap length 0:00:02.00

Peak level 95.7 %
Extraction speed 2.9 X
Track quality 100.0 %
Test CRC 29654CE4
Copy CRC 29654CE4
Accurately ripped (confidence 11) [6988B04C] (AR v2)
Copy OK

Track 4

Filename I:\2016 - Blank & Jones pres. So80s (So Eighties) Vol. 10 (SC 0350)\2-04. Camouflage - Love Is A Shield (Extended Version).wav

Pre-gap length 0:00:02.00

Peak level 95.7 %
Extraction speed 3.0 X
Track quality 100.0 %
Test CRC E64DD6F9
Copy CRC E64DD6F9
Accurately ripped (confidence 11) [FED4EA30] (AR v2)
Copy OK

Track 5

Filename I:\2016 - Blank & Jones pres. So80s (So Eighties) Vol. 10 (SC 0350)\2-05. Soft Cell - Tainted Love_Where Did Our Love Go (Original 12'' Version).wav

Pre-gap length 0:00:02.00

Peak level 96.3 %
Extraction speed 3.0 X
Track quality 99.9 %
Test CRC D54F2538
Copy CRC D54F2538
Accurately ripped (confidence 11) [1BE2DF89] (AR v2)
Copy OK

Track 6

Filename I:\2016 - Blank & Jones pres. So80s (So Eighties) Vol. 10 (SC 0350)\2-06. Fiat Lux - Secrets (Full Length Version).wav

Pre-gap length 0:00:02.00

Peak level 96.3 %
Extraction speed 3.2 X
Track quality 100.0 %
Test CRC 1CDCBF47
Copy CRC 1CDCBF47
Accurately ripped (confidence 11) [F2CD3E71] (AR v2)
Copy OK

Track 7

Filename I:\2016 - Blank & Jones pres. So80s (So Eighties) Vol. 10 (SC 0350)\2-07. Art Of Noise - Paranoimia (Feat. Max Headroom) (Extended Version).wav

Pre-gap length 0:00:02.00

Peak level 96.3 %
Extraction speed 3.0 X
Track quality 99.9 %
Test CRC 1C872F7A
Copy CRC 1C872F7A
Accurately ripped (confidence 11) [0D00FF9E] (AR v2)
Copy OK

Track 8

Filename I:\2016 - Blank & Jones pres. So80s (So Eighties) Vol. 10 (SC 0350)\2-08. Christians - Forgotten Town (12'' Version).wav

Pre-gap length 0:00:02.00

Peak level 95.7 %
Extraction speed 3.0 X
Track quality 99.9 %
Test CRC B265B778
Copy CRC B265B778
Accurately ripped (confidence 11) [98B61900] (AR v2)
Copy OK

Track 9

Filename I:\2016 - Blank & Jones pres. So80s (So Eighties) Vol. 10 (SC 0350)\2-09. Alison Moyet - Is This Love (L.A. Mix).wav

Pre-gap length 0:00:02.00

Peak level 95.7 %
Extraction speed 3.8 X
Track quality 100.0 %
Test CRC 3E2F5381
Copy CRC 3E2F5381
Accurately ripped (confidence 11) [AF9C2652] (AR v2)
Copy OK

Track 10

Filename I:\2016 - Blank & Jones pres. So80s (So Eighties) Vol. 10 (SC 0350)\2-10. Roxette - The Look (Big Red Mix).wav

Pre-gap length 0:00:02.00

Peak level 95.7 %
Extraction speed 4.1 X
Track quality 100.0 %
Test CRC 12E98A1D
Copy CRC 12E98A1D
Accurately ripped (confidence 11) [4D59491D] (AR v2)
Copy OK

Track 11

Filename I:\2016 - Blank & Jones pres. So80s (So Eighties) Vol. 10 (SC 0350)\2-11. The Bangles - Walk Like An Egyptian (Extended Dance Mix).wav

Pre-gap length 0:00:02.00

Peak level 95.7 %
Extraction speed 4.2 X
Track quality 100.0 %
Test CRC D9C6FE61
Copy CRC D9C6FE61
Accurately ripped (confidence 11) [B8B2497F] (AR v2)
Copy OK


All tracks accurately ripped

No errors occurred

End of status report

–– CUETools DB Plugin V2.1.6

[CTDB TOCID: blUy2eR7hyLj1LMyTNhXfhZh3xk-] found
Submit result: blUy2eR7hyLj1LMyTNhXfhZh3xk- has been confirmed
Track | CTDB Status
1 | (51/51) Accurately ripped
2 | (51/51) Accurately ripped
3 | (51/51) Accurately ripped
4 | (51/51) Accurately ripped
5 | (51/51) Accurately ripped
6 | (51/51) Accurately ripped
7 | (51/51) Accurately ripped
8 | (51/51) Accurately ripped
9 | (51/51) Accurately ripped
10 | (51/51) Accurately ripped
11 | (51/51) Accurately ripped


==== Log checksum 8EF3B43FB0AB9FE241A66F2ADCDD57D8CB30B92C9E82161E811110C1C2012046 ====

[CUETools log; Date: 01.03.2018 1:44:35; Version: 2.1.4]
[CTDB TOCID: blUy2eR7hyLj1LMyTNhXfhZh3xk-] found.
Track | CTDB Status
1 | (97/99) Accurately ripped
2 | (97/99) Accurately ripped
3 | (97/99) Accurately ripped
4 | (97/99) Accurately ripped
5 | (97/99) Accurately ripped
6 | (97/99) Accurately ripped
7 | (97/99) Accurately ripped
8 | (97/99) Accurately ripped
9 | (97/99) Accurately ripped
10 | (97/99) Accurately ripped
11 | (97/99) Accurately ripped
[AccurateRip ID: 0020f68f-0116bd23-92119e0b] found.
Track [ CRC | V2 ] Status
01 [20e02a14|2e4ce478] (02+47/49) Accurately ripped
02 [d45f43f3|018e0a6a] (02+47/49) Accurately ripped
03 [f60aba60|6988b04c] (02+47/49) Accurately ripped
04 [ad5a0656|fed4ea30] (02+47/49) Accurately ripped
05 [05841475|1be2df89] (02+47/49) Accurately ripped
06 [50dc8588|f2cd3e71] (02+47/49) Accurately ripped
07 [02bf61b0|0d00ff9e] (02+47/49) Accurately ripped
08 [52ce18b4|98b61900] (02+47/49) Accurately ripped
09 [938e8d51|af9c2652] (02+47/49) Accurately ripped
10 [0a6d349a|4d59491d] (02+47/49) Accurately ripped
11 [daf46c83|b8b2497f] (02+47/49) Accurately ripped

Track Peak [ CRC32 ] [W/O NULL] [ LOG ]
– 96,3 [EEE16DB7] [A24F03B6]
01 95,7 [9B61779C] [D2B6AB9B] CRC32
02 95,7 [9D0B63F5] [5FFB5549] CRC32
03 95,7 [29654CE4] [BD91D01A] CRC32
04 95,7 [E64DD6F9] [49A05436] CRC32
05 96,3 [D54F2538] [544CEA95] CRC32
06 96,3 [1CDCBF47] [625F584B] CRC32
07 96,3 [1C872F7A] [9628DAE4] CRC32
08 95,7 [B265B778] [42C0038D] CRC32
09 95,7 [3E2F5381] [A3770F61] CRC32
10 95,7 [12E98A1D] [0646563C] CRC32
11 95,7 [D9C6FE61] [64AF9012] CRC32

Exact Audio Copy V1.2 from 12. August 2016

EAC extraction logfile from 21. August 2016, 22:14

Various / So80s (Soeighties) 9 (Unmixed Compiled by Blank & Jones)

Used drive : ASUS DRW-24F1ST a Adapter: 1 ID: 2

Read mode : Secure
Utilize accurate stream : Yes
Defeat audio cache : Yes
Make use of C2 pointers : No

Read offset correction : 6
Overread into Lead-In and Lead-Out : No
Fill up missing offset samples with silence : Yes
Delete leading and trailing silent blocks : No
Null samples used in CRC calculations : Yes
Used interface : Native Win32 interface for Win NT & 2000
Gap handling : Appended to previous track

Used output format : User Defined Encoder
Selected bitrate : 896 kBit/s
Quality : High
Add ID3 tag : No
Command line compressor : C:\Program Files (x86)\Exact Audio Copy\Flac\flac.exe
Additional command line options : -8 -V -T "COMMENT=ripped by DrStandBy special for new-team.org" -T "ARTIST=%artist%" -T "TITLE=%title%" -T "ALBUM=%albumtitle%" -T "DATE=%year%" -T "TRACKNUMBER=%tracknr%" -T "GENRE=%genre%" %source%


TOC of the extracted CD

Track | Start | Length | Start sector | End sector
––––––––––––––––––––––––––––-
1 | 0:00.00 | 6:58.59 | 0 | 31408
2 | 6:58.59 | 6:01.42 | 31409 | 58525
3 | 13:00.26 | 7:10.32 | 58526 | 90807
4 | 20:10.58 | 5:52.05 | 90808 | 117212
5 | 26:02.63 | 8:47.67 | 117213 | 156804
6 | 34:50.55 | 8:02.01 | 156805 | 192955
7 | 42:52.56 | 5:34.56 | 192956 | 218061
8 | 48:27.37 | 5:27.50 | 218062 | 242636
9 | 53:55.12 | 8:12.51 | 242637 | 279587
10 | 62:07.63 | 6:10.64 | 279588 | 307401


Track 1

Filename I:\2016 - Blank & Jones pres. So80s (So Eighties) Vol. 10 (SC 0350)\3-01. Secession - The Magician (Pecky Plus Mix).wav

Pre-gap length 0:00:02.00

Peak level 95.7 %
Extraction speed 2.1 X
Track quality 100.0 %
Test CRC B07086E2
Copy CRC B07086E2
Accurately ripped (confidence 11) [B772D047] (AR v2)
Copy OK

Track 2

Filename I:\2016 - Blank & Jones pres. So80s (So Eighties) Vol. 10 (SC 0350)\3-02. Dizzi Heights - Would I Find Love (Extended Version).wav

Pre-gap length 0:00:02.00

Peak level 96.3 %
Extraction speed 2.1 X
Track quality 99.9 %
Test CRC E31B26ED
Copy CRC E31B26ED
Accurately ripped (confidence 11) [CAB9C098] (AR v2)
Copy OK

Track 3

Filename I:\2016 - Blank & Jones pres. So80s (So Eighties) Vol. 10 (SC 0350)\3-03. Kissing The Pink - Big Man Restless (Club Mix).wav

Pre-gap length 0:00:02.00

Peak level 96.3 %
Extraction speed 2.7 X
Track quality 100.0 %
Test CRC 207036BE
Copy CRC 207036BE
Accurately ripped (confidence 11) [8DFD66F3] (AR v2)
Copy OK

Track 4

Filename I:\2016 - Blank & Jones pres. So80s (So Eighties) Vol. 10 (SC 0350)\3-04. The Unknown Cases - Masimbabele (Original 12'' Version).wav

Pre-gap length 0:00:02.00

Peak level 95.7 %
Extraction speed 2.9 X
Track quality 100.0 %
Test CRC F0C7CAE2
Copy CRC F0C7CAE2
Accurately ripped (confidence 11) [35AA49A1] (AR v2)
Copy OK

Track 5

Filename I:\2016 - Blank & Jones pres. So80s (So Eighties) Vol. 10 (SC 0350)\3-05. Pete Bardens - In Dreams (High Velocity Mix).wav

Pre-gap length 0:00:01.74

Peak level 95.7 %
Extraction speed 2.8 X
Track quality 99.9 %
Test CRC 6A2D2F79
Copy CRC 6A2D2F79
Accurately ripped (confidence 11) [9697B3F5] (AR v2)
Copy OK

Track 6

Filename I:\2016 - Blank & Jones pres. So80s (So Eighties) Vol. 10 (SC 0350)\3-06. Blind Date - Your Heart Keeps Burning (Burning Mega Mix - The Glory Radio Drama Part 1).wav

Pre-gap length 0:00:02.00

Peak level 95.7 %
Extraction speed 3.4 X
Track quality 100.0 %
Test CRC 1B50CA75
Copy CRC 1B50CA75
Accurately ripped (confidence 11) [239FB1A4] (AR v2)
Copy OK

Track 7

Filename I:\2016 - Blank & Jones pres. So80s (So Eighties) Vol. 10 (SC 0350)\3-07. Huey Lewis & The News - New Drug (Called Love) (12'' Mix).wav

Pre-gap length 0:00:02.00

Peak level 96.0 %
Extraction speed 3.5 X
Track quality 100.0 %
Test CRC 6BE03D6F
Copy CRC 6BE03D6F
Accurately ripped (confidence 11) [27EE99B5] (AR v2)
Copy OK

Track 8

Filename I:\2016 - Blank & Jones pres. So80s (So Eighties) Vol. 10 (SC 0350)\3-08. The B-52's - Roam (Extended Mix).wav

Pre-gap length 0:00:02.00

Peak level 95.7 %
Extraction speed 2.9 X
Track quality 99.9 %
Test CRC 76B6B343
Copy CRC 76B6B343
Accurately ripped (confidence 11) [B07A46D4] (AR v2)
Copy OK

Track 9

Filename I:\2016 - Blank & Jones pres. So80s (So Eighties) Vol. 10 (SC 0350)\3-09. The Manhattan Transfer - Soul Food To Go (Extended Version).wav

Pre-gap length 0:00:02.00

Peak level 95.7 %
Extraction speed 3.3 X
Track quality 99.9 %
Test CRC F74D1B7D
Copy CRC F74D1B7D
Accurately ripped (confidence 11) [40232ED1] (AR v2)
Copy OK

Track 10

Filename I:\2016 - Blank & Jones pres. So80s (So Eighties) Vol. 10 (SC 0350)\3-10. Chris Rea - Touché D'Amour (Special Extended Remix).wav

Pre-gap length 0:00:02.00

Peak level 95.8 %
Extraction speed 3.2 X
Track quality 99.9 %
Test CRC 73FDBDD2
Copy CRC 73FDBDD2
Accurately ripped (confidence 11) [32B99B1B] (AR v2)
Copy OK


All tracks accurately ripped

No errors occurred

End of status report

–– CUETools DB Plugin V2.1.6

[CTDB TOCID: hYfaDIk6wMWvD76EpRprNVBLWvE-] found
Submit result: hYfaDIk6wMWvD76EpRprNVBLWvE- has been confirmed
Track | CTDB Status
1 | (50/50) Accurately ripped
2 | (50/50) Accurately ripped
3 | (50/50) Accurately ripped
4 | (50/50) Accurately ripped
5 | (50/50) Accurately ripped
6 | (50/50) Accurately ripped
7 | (50/50) Accurately ripped
8 | (50/50) Accurately ripped
9 | (50/50) Accurately ripped
10 | (50/50) Accurately ripped


==== Log checksum 2FD1F93DC04FD3D36518CCB99AA3C8224BF5C47C92576A8C8A9F01107B5272D8 ====

[CUETools log; Date: 01.03.2018 1:45:38; Version: 2.1.4]
[CTDB TOCID: hYfaDIk6wMWvD76EpRprNVBLWvE-] found.
Track | CTDB Status
1 | (97/99) Accurately ripped
2 | (97/99) Accurately ripped
3 | (97/99) Accurately ripped
4 | (97/99) Accurately ripped
5 | (96/99) Accurately ripped
6 | (96/99) Accurately ripped
7 | (97/99) Accurately ripped
8 | (97/99) Accurately ripped
9 | (97/99) Accurately ripped
10 | (97/99) Accurately ripped
[AccurateRip ID: 0019deae-00cf496b-8610020a] found.
Track [ CRC | V2 ] Status
01 [798d20b2|b772d047] (02+47/49) Accurately ripped
02 [5e2c5208|cab9c098] (02+47/49) Accurately ripped
03 [8184ba27|8dfd66f3] (02+47/49) Accurately ripped
04 [89a3c6e6|35aa49a1] (02+47/49) Accurately ripped
05 [f0f2f520|9697b3f5] (02+47/49) Accurately ripped
06 [8ad1b964|239fb1a4] (02+47/49) Accurately ripped
07 [2fbbbaf3|27ee99b5] (02+47/49) Accurately ripped
08 [00d902cb|b07a46d4] (02+47/49) Accurately ripped
09 [bb19eb1d|40232ed1] (02+47/49) Accurately ripped
10 [3f0d93f5|32b99b1b] (02+47/49) Accurately ripped

Track Peak [ CRC32 ] [W/O NULL] [ LOG ]
– 96,3 [12F9729E] [20E38AA2]
01 95,7 [B07086E2] [FAF06989] CRC32
02 96,3 [E31B26ED] [7FF498E7] CRC32
03 96,3 [207036BE] [B950B912] CRC32
04 95,7 [F0C7CAE2] [16349EE2] CRC32
05 95,7 [6A2D2F79] [DB7B56AD] CRC32
06 95,7 [1B50CA75] [B1555BB9] CRC32
07 96,0 [6BE03D6F] [BDD5886E] CRC32
08 95,7 [76B6B343] [85E1C1B7] CRC32
09 95,7 [F74D1B7D] [93AE1953] CRC32
10 95,8 [73FDBDD2] [BC8593E4] CRC32


Thanks to DrStandBy

See also:
V.A. - Blank & Jones Present So80s (So Eighties) Vol. 11 (2018)