Subcategories

V.A. - Blank & Jones Present So80s (So Eighties) Vol. 9 (2015)

Posted By: gribovar
V.A. - Blank & Jones Present So80s (So Eighties) Vol. 9 (2015)

V.A. - Blank & Jones Present So80s (So Eighties) Vol. 9 (2015)
EAC Rip | FLAC (tracks+.cue+log) - 1,38 GB | Covers - 1,18 GB
Genre: New Wave, Europop, Synth-pop | RAR 3% Rec. | Label: Soundcolours (SC 0345)

2014 has been an exceptional year for Blank & Jones and their so8os brand: they not only released the critically acclaimed artist edition for Alphaville to celebrate their 30th anniversary, they were also asked to put their hands on the ZTT catalogue an reconstruct some of the finest 80s productions by Frankie Goes to Hollywood, Propaganda and Art Of Noise. 2015 now starts with a Bang! It s been 1,5 years since so8os Volume 8, but in February, the long awaited Volume 9 will hit the streets as a triple CD Deluxe Box! All three CDs will be filled with tracks from Original Master Tapes, no vinyl rips. All unedited, unmixed pure Extended Versions!
CD 1 Tracklist:
01. John Waite - Missing You (Extended Version)
02. Fleetwood Mac - Little Lies (Extended Version)
03. Gino Vannelli - Wild Horses (Remix)
04. The Kane Gang - Closest Thing To Heaven (Full Version)
05. Latin Quarter - Radio Africa (Extended Version)
06. Sade - Paradise (Extended Remix)
07. Simply Red - Money's Too Tight (To Mention) (12'' Version)
08. The Cars - Hello Again (Remix Version)
09. Madness - Our House (Special Remix - Extended Dance Version)
10. Fox The Fox - Precious Little Diamond (Dub)
11. Debbie Harry - French Kissin' In The USA (Dance Mix)

Total time: 01:07:39

CD 2 Tracklist:
01. The Cure - Pictures Of You (Extended Re-Mix)
02. Steve Jones - Mercy (Long Version)
03. Ellis, Beggs & Howard - Big Bubbles, No Troubles (Final Mix)
04. Georgie Red - Help The Man (Save Ya Mix)
05. Seona Dancing - More To Lose (Extended Mix)
06. Animotion - Obsession (Dance Mix)
07. Duran Duran - All She Wants Is (US Master Dub)
08. Matthew Wilder - Break My Stride (Remix / Club Version)
09. Joe Cocker - You Can Leave Your Hat On (Extended Dressed Mix)
10. Al Jarreau - Moonlighting (Extended Remix)

Total time: 01:04:21

CD 3 Tracklist:
01. Afrika Bambaataa & Soulsonic Force - Planet Rock (Long Version)
02. Paul Hardcastle - 19 (The Final Story)
03. Ultravox - One Small Day (US Club Mix)
04. Jimmy Cliff - Treat The Youths Right (Special Mix)
05. Boulevard - Rainy Day In London (Full Length Version)
06. Spagna - Call Me (Special Viva Mix)
07. Glen Goldsmith - Dreaming (Extended Dance Mix)
08. New Order - Touched By The Hand Of Dub
09. Saâda Bonaire - Invitation (Full Length Version)
10. Yello - Live At The Roxy, N.Y. Dec. '83

Total time: 01:13:09

Exact Audio Copy V1.0 beta 3 from 29. August 2011

EAC extraction logfile from 11. April 2015, 18:52

Various / So80s (Soeighties) 9 (Unmixed Compiled by Blank & Jones)

Used drive : ASUS DRW-24F1ST a Adapter: 2 ID: 0

Read mode : Secure
Utilize accurate stream : Yes
Defeat audio cache : Yes
Make use of C2 pointers : No

Read offset correction : 6
Overread into Lead-In and Lead-Out : No
Fill up missing offset samples with silence : Yes
Delete leading and trailing silent blocks : No
Null samples used in CRC calculations : Yes
Used interface : Native Win32 interface for Win NT & 2000
Gap handling : Appended to previous track

Used output format : User Defined Encoder
Selected bitrate : 1024 kBit/s
Quality : High
Add ID3 tag : No
Command line compressor : C:\Program Files (x86)\Exact Audio Copy\Flac\flac.exe
Additional command line options : -8 -V -T "ARTIST=%artist%" -T "TITLE=%title%" -T "ALBUM=%albumtitle%" -T "DATE=%year%" -T "TRACKNUMBER=%tracknr%" -T "GENRE=%genre%" -T "COMMENT=ripped by DrStandBy" %source%


TOC of the extracted CD

Track | Start | Length | Start sector | End sector
––––––––––––––––––––––––––––-
1 | 0:00.00 | 7:04.73 | 0 | 31872
2 | 7:04.73 | 6:17.71 | 31873 | 60218
3 | 13:22.69 | 6:24.02 | 60219 | 89020
4 | 19:46.71 | 5:04.63 | 89021 | 111883
5 | 24:51.59 | 6:33.54 | 111884 | 141412
6 | 31:25.38 | 5:35.52 | 141413 | 166589
7 | 37:01.15 | 6:14.58 | 166590 | 194697
8 | 43:15.73 | 5:56.60 | 194698 | 221457
9 | 49:12.58 | 5:00.62 | 221458 | 244019
10 | 54:13.45 | 5:59.04 | 244020 | 270948
11 | 60:12.49 | 7:26.25 | 270949 | 304423


Track 1

Filename G:\Blank & Jones\So80s Series\2015 - Blank & Jones pres. So80s (So Eighties) Vol. 9 (SC 0345)\1-01. John Waite - Missing You (Extended Version).wav

Pre-gap length 0:00:02.00

Peak level 95.6 %
Extraction speed 1.9 X
Track quality 99.9 %
Test CRC 98402B08
Copy CRC 98402B08
Accurately ripped (confidence 11) [0E05B544] (AR v2)
Copy OK

Track 2

Filename G:\Blank & Jones\So80s Series\2015 - Blank & Jones pres. So80s (So Eighties) Vol. 9 (SC 0345)\1-02. Fleetwood Mac - Little Lies (Extended Version).wav

Pre-gap length 0:00:02.66

Peak level 95.6 %
Extraction speed 2.4 X
Track quality 100.0 %
Test CRC 08854236
Copy CRC 08854236
Accurately ripped (confidence 11) [6196EE28] (AR v2)
Copy OK

Track 3

Filename G:\Blank & Jones\So80s Series\2015 - Blank & Jones pres. So80s (So Eighties) Vol. 9 (SC 0345)\1-03. Gino Vannelli - Wild Horses (Remix).wav

Pre-gap length 0:00:02.00

Peak level 95.6 %
Extraction speed 2.7 X
Track quality 100.0 %
Test CRC B982C403
Copy CRC B982C403
Accurately ripped (confidence 11) [78A59A8E] (AR v2)
Copy OK

Track 4

Filename G:\Blank & Jones\So80s Series\2015 - Blank & Jones pres. So80s (So Eighties) Vol. 9 (SC 0345)\1-04. The Kane Gang - Closest Thing To Heaven (Full Version).wav

Pre-gap length 0:00:02.02

Peak level 96.0 %
Extraction speed 2.8 X
Track quality 100.0 %
Test CRC 8C808773
Copy CRC 8C808773
Accurately ripped (confidence 11) [2E40C823] (AR v2)
Copy OK

Track 5

Filename G:\Blank & Jones\So80s Series\2015 - Blank & Jones pres. So80s (So Eighties) Vol. 9 (SC 0345)\1-05. Latin Quarter - Radio Africa (Extended Version).wav

Pre-gap length 0:00:02.00

Peak level 95.6 %
Extraction speed 2.6 X
Track quality 99.9 %
Test CRC 592E0956
Copy CRC 592E0956
Accurately ripped (confidence 11) [53BCB258] (AR v2)
Copy OK

Track 6

Filename G:\Blank & Jones\So80s Series\2015 - Blank & Jones pres. So80s (So Eighties) Vol. 9 (SC 0345)\1-06. Sade - Paradise (Extended Remix).wav

Pre-gap length 0:00:02.00

Peak level 96.0 %
Extraction speed 3.2 X
Track quality 100.0 %
Test CRC C15ECD2E
Copy CRC C15ECD2E
Accurately ripped (confidence 11) [AB5C1F58] (AR v2)
Copy OK

Track 7

Filename G:\Blank & Jones\So80s Series\2015 - Blank & Jones pres. So80s (So Eighties) Vol. 9 (SC 0345)\1-07. Simply Red - Money's Too Tight (To Mention) (12'' Version).wav

Pre-gap length 0:00:02.01

Peak level 95.6 %
Extraction speed 3.4 X
Track quality 100.0 %
Test CRC E62CD547
Copy CRC E62CD547
Accurately ripped (confidence 11) [C4AE559C] (AR v2)
Copy OK

Track 8

Filename G:\Blank & Jones\So80s Series\2015 - Blank & Jones pres. So80s (So Eighties) Vol. 9 (SC 0345)\1-08. The Cars - Hello Again (Remix Version).wav

Pre-gap length 0:00:02.00

Peak level 95.6 %
Extraction speed 3.6 X
Track quality 100.0 %
Test CRC B4BD3256
Copy CRC B4BD3256
Accurately ripped (confidence 11) [41878E51] (AR v2)
Copy OK

Track 9

Filename G:\Blank & Jones\So80s Series\2015 - Blank & Jones pres. So80s (So Eighties) Vol. 9 (SC 0345)\1-09. Madness - Our House (Special Remix - Extended Dance Version).wav

Pre-gap length 0:00:02.00

Peak level 95.6 %
Extraction speed 3.6 X
Track quality 100.0 %
Test CRC 6A6F2ACE
Copy CRC 6A6F2ACE
Accurately ripped (confidence 11) [CB74DA45] (AR v2)
Copy OK

Track 10

Filename G:\Blank & Jones\So80s Series\2015 - Blank & Jones pres. So80s (So Eighties) Vol. 9 (SC 0345)\1-10. Fox The Fox - Precious Little Diamond (Dub).wav

Pre-gap length 0:00:02.00

Peak level 95.6 %
Extraction speed 3.8 X
Track quality 100.0 %
Test CRC FF4016DA
Copy CRC FF4016DA
Accurately ripped (confidence 11) [40962467] (AR v2)
Copy OK

Track 11

Filename G:\Blank & Jones\So80s Series\2015 - Blank & Jones pres. So80s (So Eighties) Vol. 9 (SC 0345)\1-11. Debbie Harry - French Kissin' In The USA (Dance Mix).wav

Pre-gap length 0:00:02.00

Peak level 95.6 %
Extraction speed 4.1 X
Track quality 100.0 %
Test CRC 9F4797E0
Copy CRC 9F4797E0
Accurately ripped (confidence 11) [17AB9F85] (AR v2)
Copy OK


All tracks accurately ripped

No errors occurred

End of status report

–– CUETools DB Plugin V2.1.4

[CTDB TOCID: nNv6wa.tEsSH2maw3IJ0i.gDDB8-] found
Submit result: nNv6wa.tEsSH2maw3IJ0i.gDDB8- has been confirmed
Track | CTDB Status
1 | (18/18) Accurately ripped
2 | (18/18) Accurately ripped
3 | (18/18) Accurately ripped
4 | (18/18) Accurately ripped
5 | (18/18) Accurately ripped
6 | (18/18) Accurately ripped
7 | (18/18) Accurately ripped
8 | (18/18) Accurately ripped
9 | (18/18) Accurately ripped
10 | (18/18) Accurately ripped
11 | (18/18) Accurately ripped


==== Log checksum CAD624B820B811BD9977B4CB9B2BB0972F9A324D8B25148941352AF882705ED4 ====

[CUETools log; Date: 01.03.2018 20:04:32; Version: 2.1.4]
[CTDB TOCID: nNv6wa.tEsSH2maw3IJ0i.gDDB8-] found.
Track | CTDB Status
1 | (96/96) Accurately ripped
2 | (96/96) Accurately ripped
3 | (96/96) Accurately ripped
4 | (96/96) Accurately ripped
5 | (96/96) Accurately ripped
6 | (96/96) Accurately ripped
7 | (96/96) Accurately ripped
8 | (96/96) Accurately ripped
9 | (96/96) Accurately ripped
10 | (96/96) Accurately ripped
11 | (96/96) Accurately ripped
[AccurateRip ID: 001c0605-00f112a5-a60fda0b] found.
Track [ CRC | V2 ] Status
01 [5c558e3c|0e05b544] (03+50/53) Accurately ripped
02 [771aef0c|6196ee28] (03+50/53) Accurately ripped
03 [b4401297|78a59a8e] (03+50/53) Accurately ripped
04 [3e55280a|2e40c823] (03+50/53) Accurately ripped
05 [43a45d82|53bcb258] (03+50/53) Accurately ripped
06 [d55b79ab|ab5c1f58] (03+50/53) Accurately ripped
07 [ccbd900c|c4ae559c] (03+50/53) Accurately ripped
08 [aa923838|41878e51] (03+50/53) Accurately ripped
09 [f60ea77c|cb74da45] (03+50/53) Accurately ripped
10 [0a063c21|40962467] (03+50/53) Accurately ripped
11 [3072b8ec|17ab9f85] (03+50/53) Accurately ripped

Track Peak [ CRC32 ] [W/O NULL] [ LOG ]
– 96,0 [1E3A3F4B] [2E5E5D83]
01 95,6 [98402B08] [AE745882] CRC32
02 95,6 [08854236] [6DCE7FD3] CRC32
03 95,6 [B982C403] [18E24D29] CRC32
04 96,0 [8C808773] [C7C3321C] CRC32
05 95,6 [592E0956] [A9AD613A] CRC32
06 96,0 [C15ECD2E] [5BACCEA5] CRC32
07 95,6 [E62CD547] [618DAE2E] CRC32
08 95,6 [B4BD3256] [8598F86D] CRC32
09 95,6 [6A6F2ACE] [A2232BCE] CRC32
10 95,6 [FF4016DA] [73158C1E] CRC32
11 95,6 [9F4797E0] [A8986B46] CRC32

Exact Audio Copy V1.0 beta 3 from 29. August 2011

EAC extraction logfile from 11. April 2015, 20:11

Various / So80s (Soeighties) 9 (Unmixed Compiled by Blank & Jones)

Used drive : ASUS DRW-24F1ST a Adapter: 2 ID: 0

Read mode : Secure
Utilize accurate stream : Yes
Defeat audio cache : Yes
Make use of C2 pointers : No

Read offset correction : 6
Overread into Lead-In and Lead-Out : No
Fill up missing offset samples with silence : Yes
Delete leading and trailing silent blocks : No
Null samples used in CRC calculations : Yes
Used interface : Native Win32 interface for Win NT & 2000
Gap handling : Appended to previous track

Used output format : User Defined Encoder
Selected bitrate : 1024 kBit/s
Quality : High
Add ID3 tag : No
Command line compressor : C:\Program Files (x86)\Exact Audio Copy\Flac\flac.exe
Additional command line options : -8 -V -T "ARTIST=%artist%" -T "TITLE=%title%" -T "ALBUM=%albumtitle%" -T "DATE=%year%" -T "TRACKNUMBER=%tracknr%" -T "GENRE=%genre%" -T "COMMENT=ripped by DrStandBy" %source%


TOC of the extracted CD

Track | Start | Length | Start sector | End sector
––––––––––––––––––––––––––––-
1 | 0:00.00 | 8:08.15 | 0 | 36614
2 | 8:08.15 | 5:05.33 | 36615 | 59522
3 | 13:13.48 | 9:06.12 | 59523 | 100484
4 | 22:19.60 | 7:20.09 | 100485 | 133493
5 | 29:39.69 | 6:06.69 | 133494 | 161012
6 | 35:46.63 | 6:02.24 | 161013 | 188186
7 | 41:49.12 | 6:46.39 | 188187 | 218675
8 | 48:35.51 | 5:05.66 | 218676 | 241616
9 | 53:41.42 | 6:23.36 | 241617 | 270377
10 | 60:05.03 | 4:15.44 | 270378 | 289546


Track 1

Filename G:\Blank & Jones\So80s Series\2015 - Blank & Jones pres. So80s (So Eighties) Vol. 9 (SC 0345)\2-01. The Cure - Pictures Of You (Extended Re-Mix).wav

Pre-gap length 0:00:02.00

Peak level 97.5 %
Extraction speed 5.4 X
Track quality 100.0 %
Test CRC 98F5EAD0
Copy CRC 98F5EAD0
Accurately ripped (confidence 11) [D14F8B99] (AR v2)
Copy OK

Track 2

Filename G:\Blank & Jones\So80s Series\2015 - Blank & Jones pres. So80s (So Eighties) Vol. 9 (SC 0345)\2-02. Steve Jones - Mercy (Long Version).wav

Pre-gap length 0:00:02.00

Peak level 95.6 %
Extraction speed 4.9 X
Track quality 99.9 %
Test CRC C28FC333
Copy CRC C28FC333
Accurately ripped (confidence 11) [FAC0F1AF] (AR v2)
Copy OK

Track 3

Filename G:\Blank & Jones\So80s Series\2015 - Blank & Jones pres. So80s (So Eighties) Vol. 9 (SC 0345)\2-03. Ellis, Beggs & Howard - Big Bubbles, No Troubles (Final Mix).wav

Pre-gap length 0:00:02.00

Peak level 96.0 %
Extraction speed 6.9 X
Track quality 100.0 %
Test CRC DD529F20
Copy CRC DD529F20
Accurately ripped (confidence 11) [D6992896] (AR v2)
Copy OK

Track 4

Filename G:\Blank & Jones\So80s Series\2015 - Blank & Jones pres. So80s (So Eighties) Vol. 9 (SC 0345)\2-04. Georgie Red - Help The Man (Save Ya Mix).wav

Pre-gap length 0:00:02.00

Peak level 95.6 %
Extraction speed 7.5 X
Track quality 100.0 %
Test CRC 2409A977
Copy CRC 2409A977
Accurately ripped (confidence 11) [7DFE19B5] (AR v2)
Copy OK

Track 5

Filename G:\Blank & Jones\So80s Series\2015 - Blank & Jones pres. So80s (So Eighties) Vol. 9 (SC 0345)\2-05. Seona Dancing - More To Lose (Extended Mix).wav

Pre-gap length 0:00:02.00

Peak level 97.5 %
Extraction speed 7.9 X
Track quality 100.0 %
Test CRC 07B781D2
Copy CRC 07B781D2
Accurately ripped (confidence 11) [6F6C7DF4] (AR v2)
Copy OK

Track 6

Filename G:\Blank & Jones\So80s Series\2015 - Blank & Jones pres. So80s (So Eighties) Vol. 9 (SC 0345)\2-06. Animotion - Obsession (Dance Mix).wav

Pre-gap length 0:00:02.00

Peak level 75.2 %
Extraction speed 8.3 X
Track quality 100.0 %
Test CRC 4505C2FA
Copy CRC 4505C2FA
Accurately ripped (confidence 11) [1C78CB74] (AR v2)
Copy OK

Track 7

Filename G:\Blank & Jones\So80s Series\2015 - Blank & Jones pres. So80s (So Eighties) Vol. 9 (SC 0345)\2-07. Duran Duran - All She Wants Is (US Master Dub).wav

Pre-gap length 0:00:02.00

Peak level 95.6 %
Extraction speed 8.7 X
Track quality 100.0 %
Test CRC EB2FF4B2
Copy CRC EB2FF4B2
Accurately ripped (confidence 11) [8E84C1E7] (AR v2)
Copy OK

Track 8

Filename G:\Blank & Jones\So80s Series\2015 - Blank & Jones pres. So80s (So Eighties) Vol. 9 (SC 0345)\2-08. Matthew Wilder - Break My Stride (Remix , Club Version).wav

Pre-gap length 0:00:02.00

Peak level 95.6 %
Extraction speed 8.8 X
Track quality 100.0 %
Test CRC 0EB6B66D
Copy CRC 0EB6B66D
Accurately ripped (confidence 11) [820B1794] (AR v2)
Copy OK

Track 9

Filename G:\Blank & Jones\So80s Series\2015 - Blank & Jones pres. So80s (So Eighties) Vol. 9 (SC 0345)\2-09. Joe Cocker - You Can Leave Your Hat On (Extended Dressed Mix).wav

Pre-gap length 0:00:02.00

Peak level 95.6 %
Extraction speed 7.9 X
Track quality 99.9 %
Test CRC 605FF170
Copy CRC 605FF170
Accurately ripped (confidence 11) [AFB6DD30] (AR v2)
Copy OK

Track 10

Filename G:\Blank & Jones\So80s Series\2015 - Blank & Jones pres. So80s (So Eighties) Vol. 9 (SC 0345)\2-10. Al Jarreau - Moonlighting (Extended Remix).wav

Pre-gap length 0:00:02.00

Peak level 95.6 %
Extraction speed 9.2 X
Track quality 100.0 %
Test CRC B1C07ECE
Copy CRC B1C07ECE
Accurately ripped (confidence 11) [D7D0F1E3] (AR v2)
Copy OK


All tracks accurately ripped

No errors occurred

End of status report

–– CUETools DB Plugin V2.1.4

[CTDB TOCID: vtM84V6AHWGy09AAepU62NnYM_w-] found
Submit result: vtM84V6AHWGy09AAepU62NnYM_w- has been confirmed
Track | CTDB Status
1 | (18/18) Accurately ripped
2 | (18/18) Accurately ripped
3 | (18/18) Accurately ripped
4 | (18/18) Accurately ripped
5 | (18/18) Accurately ripped
6 | (18/18) Accurately ripped
7 | (18/18) Accurately ripped
8 | (18/18) Accurately ripped
9 | (18/18) Accurately ripped
10 | (18/18) Accurately ripped


==== Log checksum 181746F60B9BDAD6BF929D0D67238DFF43EFBA6510C8834D1EAD57F47FF1AEEC ====

[CUETools log; Date: 01.03.2018 20:05:08; Version: 2.1.4]
[CTDB TOCID: vtM84V6AHWGy09AAepU62NnYM_w-] found.
Track | CTDB Status
1 | (96/96) Accurately ripped
2 | (96/96) Accurately ripped
3 | (96/96) Accurately ripped
4 | (95/96) Accurately ripped
5 | (96/96) Accurately ripped
6 | (96/96) Accurately ripped
7 | (96/96) Accurately ripped
8 | (96/96) Accurately ripped
9 | (96/96) Accurately ripped
10 | (96/96) Accurately ripped
[AccurateRip ID: 0019eecf-00ccbb8b-830f140a] found.
Track [ CRC | V2 ] Status
01 [18c5214a|d14f8b99] (03+50/53) Accurately ripped
02 [5d0e89dd|fac0f1af] (03+50/53) Accurately ripped
03 [10709b5f|d6992896] (03+50/53) Accurately ripped
04 [5c41b5c5|7dfe19b5] (03+50/53) Accurately ripped
05 [0739196c|6f6c7df4] (03+50/53) Accurately ripped
06 [c8c6e1d0|1c78cb74] (03+50/53) Accurately ripped
07 [a9245530|8e84c1e7] (03+50/53) Accurately ripped
08 [c9a05d26|820b1794] (03+50/53) Accurately ripped
09 [08166c8b|afb6dd30] (03+50/53) Accurately ripped
10 [70f50fe9|d7d0f1e3] (03+50/53) Accurately ripped

Track Peak [ CRC32 ] [W/O NULL] [ LOG ]
– 97,5 [A045C9DD] [D78774E5]
01 97,5 [98F5EAD0] [F0EFF5C5] CRC32
02 95,6 [C28FC333] [30CD3621] CRC32
03 96,0 [DD529F20] [07D736A3] CRC32
04 95,6 [2409A977] [B86480A8] CRC32
05 97,5 [07B781D2] [03F82FB1] CRC32
06 75,2 [4505C2FA] [39C92ED9] CRC32
07 95,6 [EB2FF4B2] [7348644C] CRC32
08 95,6 [0EB6B66D] [90633FEC] CRC32
09 95,6 [605FF170] [2902D817] CRC32
10 95,6 [B1C07ECE] [BF5DD901] CRC32

Exact Audio Copy V1.0 beta 3 from 29. August 2011

EAC extraction logfile from 11. April 2015, 21:06

Various / So80s (Soeighties) 9 (Unmixed Compiled by Blank & Jones)

Used drive : ASUS DRW-24F1ST a Adapter: 2 ID: 0

Read mode : Secure
Utilize accurate stream : Yes
Defeat audio cache : Yes
Make use of C2 pointers : No

Read offset correction : 6
Overread into Lead-In and Lead-Out : No
Fill up missing offset samples with silence : Yes
Delete leading and trailing silent blocks : No
Null samples used in CRC calculations : Yes
Used interface : Native Win32 interface for Win NT & 2000
Gap handling : Appended to previous track

Used output format : User Defined Encoder
Selected bitrate : 1024 kBit/s
Quality : High
Add ID3 tag : No
Command line compressor : C:\Program Files (x86)\Exact Audio Copy\Flac\flac.exe
Additional command line options : -8 -V -T "ARTIST=%artist%" -T "TITLE=%title%" -T "ALBUM=%albumtitle%" -T "DATE=%year%" -T "TRACKNUMBER=%tracknr%" -T "GENRE=%genre%" -T "COMMENT=ripped by DrStandBy" %source%


TOC of the extracted CD

Track | Start | Length | Start sector | End sector
––––––––––––––––––––––––––––-
1 | 0:00.00 | 7:30.17 | 0 | 33766
2 | 7:30.17 | 8:34.33 | 33767 | 72349
3 | 16:04.50 | 7:52.01 | 72350 | 107750
4 | 23:56.51 | 6:52.10 | 107751 | 138660
5 | 30:48.61 | 4:24.25 | 138661 | 158485
6 | 35:13.11 | 5:43.28 | 158486 | 184238
7 | 40:56.39 | 6:08.69 | 184239 | 211907
8 | 47:05.33 | 5:34.58 | 211908 | 237015
9 | 52:40.16 | 5:26.05 | 237016 | 261470
10 | 58:06.21 | 15:02.44 | 261471 | 329164


Track 1

Filename G:\Blank & Jones\So80s Series\2015 - Blank & Jones pres. So80s (So Eighties) Vol. 9 (SC 0345)\3-01. Afrika Bambaataa & Soulsonic Force - Planet Rock (Long Version).wav

Pre-gap length 0:00:02.00

Peak level 97.5 %
Extraction speed 2.1 X
Track quality 100.0 %
Test CRC 688AEBFF
Copy CRC 688AEBFF
Accurately ripped (confidence 11) [B95AC7A3] (AR v2)
Copy OK

Track 2

Filename G:\Blank & Jones\So80s Series\2015 - Blank & Jones pres. So80s (So Eighties) Vol. 9 (SC 0345)\3-02. Paul Hardcastle - 19 (The Final Story).wav

Pre-gap length 0:00:02.09

Peak level 97.4 %
Extraction speed 2.5 X
Track quality 100.0 %
Test CRC AE487EF1
Copy CRC AE487EF1
Accurately ripped (confidence 11) [29DD6664] (AR v2)
Copy OK

Track 3

Filename G:\Blank & Jones\So80s Series\2015 - Blank & Jones pres. So80s (So Eighties) Vol. 9 (SC 0345)\3-03. Ultravox - One Small Day (US Club Mix).wav

Pre-gap length 0:00:05.48

Peak level 96.0 %
Extraction speed 2.8 X
Track quality 100.0 %
Test CRC 99BAD4FB
Copy CRC 99BAD4FB
Accurately ripped (confidence 11) [A0B9BF9F] (AR v2)
Copy OK

Track 4

Filename G:\Blank & Jones\So80s Series\2015 - Blank & Jones pres. So80s (So Eighties) Vol. 9 (SC 0345)\3-04. Jimmy Cliff - Treat The Youths Right (Special Mix).wav

Pre-gap length 0:00:02.00

Peak level 95.6 %
Extraction speed 3.1 X
Track quality 100.0 %
Test CRC DC28AF92
Copy CRC DC28AF92
Accurately ripped (confidence 11) [23323A45] (AR v2)
Copy OK

Track 5

Filename G:\Blank & Jones\So80s Series\2015 - Blank & Jones pres. So80s (So Eighties) Vol. 9 (SC 0345)\3-05. Boulevard - Rainy Day In London (Full Length Version).wav

Pre-gap length 0:00:02.00

Peak level 95.6 %
Extraction speed 3.1 X
Track quality 100.0 %
Test CRC 0ECB2967
Copy CRC 0ECB2967
Accurately ripped (confidence 11) [724FFE9C] (AR v2)
Copy OK

Track 6

Filename G:\Blank & Jones\So80s Series\2015 - Blank & Jones pres. So80s (So Eighties) Vol. 9 (SC 0345)\3-06. Spagna - Call Me (Special Viva Mix).wav

Pre-gap length 0:00:02.00

Peak level 97.5 %
Extraction speed 3.3 X
Track quality 100.0 %
Test CRC 38067E32
Copy CRC 38067E32
Accurately ripped (confidence 11) [66158CE2] (AR v2)
Copy OK

Track 7

Filename G:\Blank & Jones\So80s Series\2015 - Blank & Jones pres. So80s (So Eighties) Vol. 9 (SC 0345)\3-07. Glen Goldsmith - Dreaming (Extended Dance Mix).wav

Pre-gap length 0:00:02.00

Peak level 97.5 %
Extraction speed 3.5 X
Track quality 100.0 %
Test CRC EB741552
Copy CRC EB741552
Accurately ripped (confidence 11) [904395FD] (AR v2)
Copy OK

Track 8

Filename G:\Blank & Jones\So80s Series\2015 - Blank & Jones pres. So80s (So Eighties) Vol. 9 (SC 0345)\3-08. New Order - Touched By The Hand Of Dub.wav

Pre-gap length 0:00:02.00

Peak level 95.6 %
Extraction speed 3.6 X
Track quality 100.0 %
Test CRC 19D54E1A
Copy CRC 19D54E1A
Accurately ripped (confidence 11) [6D09CBE9] (AR v2)
Copy OK

Track 9

Filename G:\Blank & Jones\So80s Series\2015 - Blank & Jones pres. So80s (So Eighties) Vol. 9 (SC 0345)\3-09. Saâda Bonaire - Invitation (Full Length Version).wav

Pre-gap length 0:00:02.00

Peak level 96.0 %
Extraction speed 3.7 X
Track quality 100.0 %
Test CRC 12508F4A
Copy CRC 12508F4A
Accurately ripped (confidence 11) [0003C7A2] (AR v2)
Copy OK

Track 10

Filename G:\Blank & Jones\So80s Series\2015 - Blank & Jones pres. So80s (So Eighties) Vol. 9 (SC 0345)\3-10. Yello - Live At The Roxy, N.Y. Dec. '83.wav

Pre-gap length 0:00:02.40

Peak level 95.6 %
Extraction speed 4.3 X
Track quality 100.0 %
Test CRC BC7A7C9E
Copy CRC BC7A7C9E
Accurately ripped (confidence 11) [5124683B] (AR v2)
Copy OK


All tracks accurately ripped

No errors occurred

End of status report

–– CUETools DB Plugin V2.1.4

[CTDB TOCID: gDjum1fSfgOOaNrO8bHjU5kYEbs-] found
Submit result: gDjum1fSfgOOaNrO8bHjU5kYEbs- has been confirmed
Track | CTDB Status
1 | (18/18) Accurately ripped
2 | (18/18) Accurately ripped
3 | (18/18) Accurately ripped
4 | (18/18) Accurately ripped
5 | (18/18) Accurately ripped
6 | (18/18) Accurately ripped
7 | (18/18) Accurately ripped
8 | (18/18) Accurately ripped
9 | (18/18) Accurately ripped
10 | (18/18) Accurately ripped


==== Log checksum ACCC6571CCBF3097595FD25A705157B264083F892BBDA56F4B6B2333078A356F ====

[CUETools log; Date: 01.03.2018 20:05:37; Version: 2.1.4]
[CTDB TOCID: gDjum1fSfgOOaNrO8bHjU5kYEbs-] found.
Track | CTDB Status
1 | (96/97) Accurately ripped
2 | (96/97) Accurately ripped
3 | (96/97) Accurately ripped
4 | (96/97) Accurately ripped
5 | (96/97) Accurately ripped
6 | (96/97) Accurately ripped
7 | (96/97) Accurately ripped
8 | (96/97) Accurately ripped
9 | (96/97) Accurately ripped
10 | (96/97) Accurately ripped
[AccurateRip ID: 001a789e-00d14008-9211240a] found.
Track [ CRC | V2 ] Status
01 [712252e5|b95ac7a3] (02+30/32) Accurately ripped
02 [0954fda4|29dd6664] (02+31/33) Accurately ripped
03 [8fea26ab|a0b9bf9f] (02+31/33) Accurately ripped
04 [b82cbdd7|23323a45] (02+31/33) Accurately ripped
05 [f97b9aa4|724ffe9c] (02+31/33) Accurately ripped
06 [0075fefa|66158ce2] (02+31/33) Accurately ripped
07 [4c75ff6d|904395fd] (02+31/33) Accurately ripped
08 [4b3e9d9e|6d09cbe9] (02+31/33) Accurately ripped
09 [a071cb61|0003c7a2] (02+31/33) Accurately ripped
10 [46845b2d|5124683b] (02+31/33) Accurately ripped

Track Peak [ CRC32 ] [W/O NULL] [ LOG ]
– 97,5 [16F73080] [0E0A02B0]
01 97,5 [688AEBFF] [EC303224] CRC32
02 97,4 [AE487EF1] [E169A9C0] CRC32
03 96,0 [99BAD4FB] [78C0DB81] CRC32
04 95,6 [DC28AF92] [D614800B] CRC32
05 95,6 [0ECB2967] [98B08CE8] CRC32
06 97,5 [38067E32] [982ABB85] CRC32
07 97,5 [EB741552] [14DEB453] CRC32
08 95,6 [19D54E1A] [2B79A4AF] CRC32
09 96,0 [12508F4A] [467D1331] CRC32
10 95,6 [BC7A7C9E] [54A02684] CRC32

Thanks to DrStandBy

See also:
V.A. - Blank & Jones Present So80s (So Eighties) Vol. 10 (2016)
V.A. - Blank & Jones Present So80s (So Eighties) Vol. 11 (2018)