Subcategories

V.A. – Bob Dylan · The 30th Anniversary Concert Celebration (1993)

Posted By: boogie-de
V.A. – Bob Dylan · The 30th Anniversary Concert Celebration (1993)

V.A. – Bob Dylan · The 30th Anniversary Concert Celebration (1993)
XLD Flac+Cue+Log = 1 GB | Mp3 VBR0 = 324 MB | Scans 400 dpi jpg | RAR
2 CD | Columbia COL 474000-2 | Folk Rock | USA

Live at Madison Square Garden

From RateYourMusic:
Damn, that's some unequal album. First of all, almost every artist here is way past his prime time. Eddie Vedder is exception, and maybe Young, with his recent "Ragged Glory" fame. Many of these versions are horrible, and really, Mellencamp sets new levels of Dylan-covering horridity. Most of these artist are playing songs not suited for them. Carter and Cash are really terrible in their "It ain't me, Babe"… Now Dylan has so many great country songs, why not play them? On the other hand, however, Carpenter is also lame with "You Ain't Going Nowhere". I guess, Byrds' version is hard to beat. And that's the problem with covering Dylan – everyone already did this. And especially if you are 50 years old and your voice is long gone. But, I gotta say, black artists here come up really good, especially O'Jays, and Wonder is cool too. Obviously, Vedder is a winner. But Kristofferson, Harrison and Petty are also great. And, on the grand finale we have this fucking ear porn "Knocking on Heavens Door." Overall, avoid this, if you are a completist, but if you're curious, it's a good curiosity.
Tracks
01. John Mellencamp · Like a Rolling Stone 06:54
02. John Mellencamp · Leopard‐Skin Pill‐Box Hat 04:20
03. Kris Kristofferson · Introduction 00:56
04. Stevie Wonder · Blowin’ in the Wind 08:54
05. Lou Reed · Foot of Pride 08:48
06. Eddie Vedder & Mike McCready · Masters of War 05:06
07. Tracy Chapman · The Times They Are A‐Changin’ 03:01
08. June Carter & Johnny Cash · It Ain’t Me, Babe 03:50
09. Willie Nelson · What Was It You Wanted 05:47
10. Kris Kristofferson · I’ll Be Your Baby Tonight 03:05
11. Johnny Winter · Highway 61 Revisited 05:06
12. Ron Wood · Seven Days 05:26
13. Richie Havens · Just Like a Woman 05:50
14. Robbie O’Connell & Tommy Makem & the Clancy Brothers · When the Ship Comes In 04:24
15. Mary Chapin Carpenter & Rosanne Cash & Shawn Colvin · You Ain’t Goin’ Nowhere 03:52
16. Neil Young · Just Like Tom Thumb’s Blues 05:38
17. Neil Young · All Along the Watchtower 06:21
18. Chrissie Hynde · I Shall Be Released 04:26
19. Eric Clapton · Don’t Think Twice, It’s All Right 06:10
20. The O'Jays · Emotionally Yours 05:43
21. The Band · When I Paint My Masterpiece 04:23
22. George Harrison · Absolutely Sweet Marie 04:44
23. Tom Petty & the Heartbreakers · License to Kill 04:53
24. Tom Petty & the Heartbreakers · Rainy Day Women #12 & 35 04:45
25. Roger McGuinn · Mr. Tambourine Man 04:10
26. Bob Dylan · It’s Alright, Ma (I’m Only Bleeding) 06:21
27. Bob Dylan & Roger McGuinn & Tom Petty & Neil Young & Eric Clapton & George Harrison · My Back Pages 04:40
28. Bob Dylan · Knockin’ on Heaven’s Door 05:38
29. Bob Dylan · Girl From the North Country 05:12
Total time: 2:28:12

X Lossless Decoder version 20130720 (144.0)

XLD extraction logfile from 2013-08-04 16:21:08 +0200

Bob Dylan / Bob Dylan: The 30th Anniversary Concert Celebration

Used drive : PLEXTOR DVDR PX-716A (revision 1.11)
Media type : Pressed CD

Ripper mode : CDParanoia III 10.2
Disable audio cache : OK for the drive with a cache less than 2750KiB
Make use of C2 pointers : NO
Read offset correction : 30
Max retry count : 5
Gap status : Analyzed, Not appended

TOC of the extracted CD
Track | Start | Length | Start sector | End sector
––––––––––––––––––––––––––––-
1 | 00:00:00 | 06:54:12 | 0 | 31061
2 | 06:54:12 | 04:19:70 | 31062 | 50556
3 | 11:14:07 | 00:55:68 | 50557 | 54749
4 | 12:10:00 | 08:53:62 | 54750 | 94786
5 | 21:03:62 | 08:47:65 | 94787 | 134376
6 | 29:51:52 | 05:06:30 | 134377 | 157356
7 | 34:58:07 | 03:01:18 | 157357 | 170949
8 | 37:59:25 | 03:50:05 | 170950 | 188204
9 | 41:49:30 | 05:47:12 | 188205 | 214241
10 | 47:36:42 | 03:04:50 | 214242 | 228091
11 | 50:41:17 | 05:05:63 | 228092 | 251029
12 | 55:47:05 | 05:26:30 | 251030 | 275509
13 | 61:13:35 | 05:50:00 | 275510 | 301759
14 | 67:03:35 | 04:24:00 | 301760 | 321559
15 | 71:27:35 | 03:52:20 | 321560 | 338979

All Tracks
Statistics
Read error : 0
Skipped (treated as error) : 0
Edge jitter error (maybe fixed) : 0
Atom jitter error (maybe fixed) : 0
Drift error (maybe fixed) : 0
Dropped bytes error (maybe fixed) : 0
Duplicated bytes error (maybe fixed) : 0

Track 01
Filename : /Volumes/Baustelle/temp/Dylan/01 John Mellencamp - Like a Rolling Stone.flac
/Volumes/Baustelle/temp/Dylan/01 John Mellencamp - Like a Rolling Stone.mp3
/Volumes/Baustelle/temp/Dylan/01 John Mellencamp - Like a Rolling Stone.m4a
Pre-gap length : 00:02:00

CRC32 hash : 94C34325
CRC32 hash (skip zero) : 295EF5CF
Statistics
Read error : 0
Skipped (treated as error) : 0
Edge jitter error (maybe fixed) : 0
Atom jitter error (maybe fixed) : 0
Drift error (maybe fixed) : 0
Dropped bytes error (maybe fixed) : 0
Duplicated bytes error (maybe fixed) : 0

Track 02
Filename : /Volumes/Baustelle/temp/Dylan/02 John Mellencamp - Leopard‚ÄêSkin Pill‚ÄêBox Hat.flac
/Volumes/Baustelle/temp/Dylan/02 John Mellencamp - Leopard‚ÄêSkin Pill‚ÄêBox Hat.mp3
/Volumes/Baustelle/temp/Dylan/02 John Mellencamp - Leopard‚ÄêSkin Pill‚ÄêBox Hat.m4a

CRC32 hash : 453EE962
CRC32 hash (skip zero) : 2613BB1F
Statistics
Read error : 0
Skipped (treated as error) : 0
Edge jitter error (maybe fixed) : 0
Atom jitter error (maybe fixed) : 0
Drift error (maybe fixed) : 0
Dropped bytes error (maybe fixed) : 0
Duplicated bytes error (maybe fixed) : 0

Track 03
Filename : /Volumes/Baustelle/temp/Dylan/03 Kris Kristofferson - Introduction.flac
/Volumes/Baustelle/temp/Dylan/03 Kris Kristofferson - Introduction.mp3
/Volumes/Baustelle/temp/Dylan/03 Kris Kristofferson - Introduction.m4a

CRC32 hash : 5E5B11B2
CRC32 hash (skip zero) : 955F0259
Statistics
Read error : 0
Skipped (treated as error) : 0
Edge jitter error (maybe fixed) : 0
Atom jitter error (maybe fixed) : 0
Drift error (maybe fixed) : 0
Dropped bytes error (maybe fixed) : 0
Duplicated bytes error (maybe fixed) : 0

Track 04
Filename : /Volumes/Baustelle/temp/Dylan/04 Stevie Wonder - Blowin’ in the Wind.flac
/Volumes/Baustelle/temp/Dylan/04 Stevie Wonder - Blowin’ in the Wind.mp3
/Volumes/Baustelle/temp/Dylan/04 Stevie Wonder - Blowin’ in the Wind.m4a

CRC32 hash : 418A7CA3
CRC32 hash (skip zero) : 429DA1B4
Statistics
Read error : 0
Skipped (treated as error) : 0
Edge jitter error (maybe fixed) : 0
Atom jitter error (maybe fixed) : 0
Drift error (maybe fixed) : 0
Dropped bytes error (maybe fixed) : 0
Duplicated bytes error (maybe fixed) : 0

Track 05
Filename : /Volumes/Baustelle/temp/Dylan/05 Lou Reed - Foot of Pride.flac
/Volumes/Baustelle/temp/Dylan/05 Lou Reed - Foot of Pride.mp3
/Volumes/Baustelle/temp/Dylan/05 Lou Reed - Foot of Pride.m4a

CRC32 hash : BABDCEC4
CRC32 hash (skip zero) : 271EE9FA
Statistics
Read error : 0
Skipped (treated as error) : 0
Edge jitter error (maybe fixed) : 0
Atom jitter error (maybe fixed) : 0
Drift error (maybe fixed) : 0
Dropped bytes error (maybe fixed) : 0
Duplicated bytes error (maybe fixed) : 0

Track 06
Filename : /Volumes/Baustelle/temp/Dylan/06 Eddie Vedder & Mike McCready - Masters of War.flac
/Volumes/Baustelle/temp/Dylan/06 Eddie Vedder & Mike McCready - Masters of War.mp3
/Volumes/Baustelle/temp/Dylan/06 Eddie Vedder & Mike McCready - Masters of War.m4a

CRC32 hash : 3CF4CA1C
CRC32 hash (skip zero) : 82488B54
Statistics
Read error : 0
Skipped (treated as error) : 0
Edge jitter error (maybe fixed) : 0
Atom jitter error (maybe fixed) : 0
Drift error (maybe fixed) : 0
Dropped bytes error (maybe fixed) : 0
Duplicated bytes error (maybe fixed) : 0

Track 07
Filename : /Volumes/Baustelle/temp/Dylan/07 Tracy Chapman - The Times They Are A‐Changin’.flac
/Volumes/Baustelle/temp/Dylan/07 Tracy Chapman - The Times They Are A‐Changin’.mp3
/Volumes/Baustelle/temp/Dylan/07 Tracy Chapman - The Times They Are A‐Changin’.m4a

CRC32 hash : CE4DD42C
CRC32 hash (skip zero) : 00066E06
Statistics
Read error : 0
Skipped (treated as error) : 0
Edge jitter error (maybe fixed) : 0
Atom jitter error (maybe fixed) : 0
Drift error (maybe fixed) : 0
Dropped bytes error (maybe fixed) : 0
Duplicated bytes error (maybe fixed) : 0

Track 08
Filename : /Volumes/Baustelle/temp/Dylan/08 Johnny Cash & June Carter Cash - It Ain’t Me, Babe.flac
/Volumes/Baustelle/temp/Dylan/08 Johnny Cash & June Carter Cash - It Ain’t Me, Babe.mp3
/Volumes/Baustelle/temp/Dylan/08 Johnny Cash & June Carter Cash - It Ain’t Me, Babe.m4a

CRC32 hash : 08E561D3
CRC32 hash (skip zero) : 85837A59
Statistics
Read error : 0
Skipped (treated as error) : 0
Edge jitter error (maybe fixed) : 0
Atom jitter error (maybe fixed) : 0
Drift error (maybe fixed) : 0
Dropped bytes error (maybe fixed) : 0
Duplicated bytes error (maybe fixed) : 0

Track 09
Filename : /Volumes/Baustelle/temp/Dylan/09 Willie Nelson - What Was It You Wanted.flac
/Volumes/Baustelle/temp/Dylan/09 Willie Nelson - What Was It You Wanted.mp3
/Volumes/Baustelle/temp/Dylan/09 Willie Nelson - What Was It You Wanted.m4a

CRC32 hash : 61F43CFF
CRC32 hash (skip zero) : 2BC3A6A9
Statistics
Read error : 0
Skipped (treated as error) : 0
Edge jitter error (maybe fixed) : 0
Atom jitter error (maybe fixed) : 0
Drift error (maybe fixed) : 0
Dropped bytes error (maybe fixed) : 0
Duplicated bytes error (maybe fixed) : 0

Track 10
Filename : /Volumes/Baustelle/temp/Dylan/10 Kris Kristofferson - I’ll Be Your Baby Tonight.flac
/Volumes/Baustelle/temp/Dylan/10 Kris Kristofferson - I’ll Be Your Baby Tonight.mp3
/Volumes/Baustelle/temp/Dylan/10 Kris Kristofferson - I’ll Be Your Baby Tonight.m4a

CRC32 hash : F32333A0
CRC32 hash (skip zero) : CEDC4F53
Statistics
Read error : 0
Skipped (treated as error) : 0
Edge jitter error (maybe fixed) : 0
Atom jitter error (maybe fixed) : 0
Drift error (maybe fixed) : 0
Dropped bytes error (maybe fixed) : 0
Duplicated bytes error (maybe fixed) : 0

Track 11
Filename : /Volumes/Baustelle/temp/Dylan/11 Johnny Winter - Highway 61 Revisited.flac
/Volumes/Baustelle/temp/Dylan/11 Johnny Winter - Highway 61 Revisited.mp3
/Volumes/Baustelle/temp/Dylan/11 Johnny Winter - Highway 61 Revisited.m4a

CRC32 hash : 8F7E61AD
CRC32 hash (skip zero) : F5122FFA
Statistics
Read error : 0
Skipped (treated as error) : 0
Edge jitter error (maybe fixed) : 0
Atom jitter error (maybe fixed) : 0
Drift error (maybe fixed) : 0
Dropped bytes error (maybe fixed) : 0
Duplicated bytes error (maybe fixed) : 0

Track 12
Filename : /Volumes/Baustelle/temp/Dylan/12 Ron Wood - Seven Days.flac
/Volumes/Baustelle/temp/Dylan/12 Ron Wood - Seven Days.mp3
/Volumes/Baustelle/temp/Dylan/12 Ron Wood - Seven Days.m4a

CRC32 hash : A334BE4D
CRC32 hash (skip zero) : 056D2574
Statistics
Read error : 0
Skipped (treated as error) : 0
Edge jitter error (maybe fixed) : 0
Atom jitter error (maybe fixed) : 0
Drift error (maybe fixed) : 0
Dropped bytes error (maybe fixed) : 0
Duplicated bytes error (maybe fixed) : 0

Track 13
Filename : /Volumes/Baustelle/temp/Dylan/13 Richie Havens - Just Like a Woman.flac
/Volumes/Baustelle/temp/Dylan/13 Richie Havens - Just Like a Woman.mp3
/Volumes/Baustelle/temp/Dylan/13 Richie Havens - Just Like a Woman.m4a

CRC32 hash : A85F8DE8
CRC32 hash (skip zero) : 15CB2949
Statistics
Read error : 0
Skipped (treated as error) : 0
Edge jitter error (maybe fixed) : 0
Atom jitter error (maybe fixed) : 0
Drift error (maybe fixed) : 0
Dropped bytes error (maybe fixed) : 0
Duplicated bytes error (maybe fixed) : 0

Track 14
Filename : /Volumes/Baustelle/temp/Dylan/14 The Clancy Brothers & Robbie O’Connell feat. Tommy Makem - When the Ship Comes In.flac
/Volumes/Baustelle/temp/Dylan/14 The Clancy Brothers & Robbie O’Connell feat. Tommy Makem - When the Ship Comes In.mp3
/Volumes/Baustelle/temp/Dylan/14 The Clancy Brothers & Robbie O’Connell feat. Tommy Makem - When the Ship Comes In.m4a

CRC32 hash : 613443F2
CRC32 hash (skip zero) : 2415834D
Statistics
Read error : 0
Skipped (treated as error) : 0
Edge jitter error (maybe fixed) : 0
Atom jitter error (maybe fixed) : 0
Drift error (maybe fixed) : 0
Dropped bytes error (maybe fixed) : 0
Duplicated bytes error (maybe fixed) : 0

Track 15
Filename : /Volumes/Baustelle/temp/Dylan/15 Mary Chapin Carpenter, Rosanne Cash & Shawn Colvin - You Ain’t Goin’ Nowhere.flac
/Volumes/Baustelle/temp/Dylan/15 Mary Chapin Carpenter, Rosanne Cash & Shawn Colvin - You Ain’t Goin’ Nowhere.mp3
/Volumes/Baustelle/temp/Dylan/15 Mary Chapin Carpenter, Rosanne Cash & Shawn Colvin - You Ain’t Goin’ Nowhere.m4a

CRC32 hash : 4AAE235C
CRC32 hash (skip zero) : C0E2BFC7
Statistics
Read error : 0
Skipped (treated as error) : 0
Edge jitter error (maybe fixed) : 0
Atom jitter error (maybe fixed) : 0
Drift error (maybe fixed) : 0
Dropped bytes error (maybe fixed) : 0
Duplicated bytes error (maybe fixed) : 0

No errors occurred

End of status report

X Lossless Decoder version 20130720 (144.0)

XLD extraction logfile from 2013-08-04 16:35:45 +0200

Bob Dylan / Bob Dylan: The 30th Anniversary Concert Celebration

Used drive : PLEXTOR DVDR PX-716A (revision 1.11)
Media type : Pressed CD

Ripper mode : CDParanoia III 10.2
Disable audio cache : OK for the drive with a cache less than 2750KiB
Make use of C2 pointers : NO
Read offset correction : 30
Max retry count : 5
Gap status : Analyzed, Appended

TOC of the extracted CD
Track | Start | Length | Start sector | End sector
––––––––––––––––––––––––––––-
1 | 00:00:00 | 05:38:00 | 0 | 25349
2 | 05:38:00 | 06:20:50 | 25350 | 53899
3 | 11:58:50 | 04:26:07 | 53900 | 73856
4 | 16:24:57 | 06:09:70 | 73857 | 101601
5 | 22:34:52 | 05:43:30 | 101602 | 127356
6 | 28:18:07 | 04:23:05 | 127357 | 147086
7 | 32:41:12 | 04:43:40 | 147087 | 168351
8 | 37:24:52 | 04:53:03 | 168352 | 190329
9 | 42:17:55 | 04:44:37 | 190330 | 211666
10 | 47:02:17 | 04:10:13 | 211667 | 230429
11 | 51:12:30 | 06:21:30 | 230430 | 259034
12 | 57:33:60 | 04:39:35 | 259035 | 279994
13 | 62:13:20 | 05:38:27 | 279995 | 305371
14 | 67:51:47 | 05:12:13 | 305372 | 328784

List of alternate offset correction values
# | Absolute | Relative | Confidence
–––––––––––––––––––––
1 | 1 | -29 | 34
2 | -253 | -283 | 22
3 | -841 | -871 | 6
4 | -828 | -858 | 2

AccurateRip Summary (DiscID: 002631cf-0193fe52-c3111f0e)
Track 01 : OK (v1+v2, confidence 80/144)
Track 02 : OK (v1+v2, confidence 82/147)
Track 03 : OK (v1+v2, confidence 82/147)
Track 04 : OK (v1+v2, confidence 83/147)
Track 05 : OK (v1+v2, confidence 82/146)
Track 06 : OK (v1+v2, confidence 82/148)
Track 07 : OK (v1+v2, confidence 83/147)
Track 08 : OK (v1+v2, confidence 81/147)
Track 09 : OK (v1+v2, confidence 82/147)
Track 10 : OK (v1+v2, confidence 80/146)
Track 11 : OK (v1+v2, confidence 79/144)
Track 12 : OK (v1+v2, confidence 78/143)
Track 13 : OK (v1+v2, confidence 77/143)
Track 14 : OK (v1+v2, confidence 76/141)
->All tracks accurately ripped.

All Tracks
Statistics
Read error : 0
Skipped (treated as error) : 0
Edge jitter error (maybe fixed) : 0
Atom jitter error (maybe fixed) : 0
Drift error (maybe fixed) : 0
Dropped bytes error (maybe fixed) : 0
Duplicated bytes error (maybe fixed) : 0

Track 01
Filename : /Volumes/Baustelle/temp/Dylan/CD2/01 Neil Young - Just Like Tom Thumb’s Blues.flac
/Volumes/Baustelle/temp/Dylan/CD2/01 Neil Young - Just Like Tom Thumb’s Blues.mp3
/Volumes/Baustelle/temp/Dylan/CD2/01 Neil Young - Just Like Tom Thumb’s Blues.m4a
Pre-gap length : 00:02:00

CRC32 hash : E0E5A63D
CRC32 hash (skip zero) : B6620A84
AccurateRip v1 signature : A7AB7CF8
AccurateRip v2 signature : 3B6CEDD4
->Accurately ripped (v1+v2, confidence 53+27/144)
Statistics
Read error : 0
Skipped (treated as error) : 0
Edge jitter error (maybe fixed) : 0
Atom jitter error (maybe fixed) : 0
Drift error (maybe fixed) : 0
Dropped bytes error (maybe fixed) : 0
Duplicated bytes error (maybe fixed) : 0

Track 02
Filename : /Volumes/Baustelle/temp/Dylan/CD2/02 Neil Young - All Along the Watchtower.flac
/Volumes/Baustelle/temp/Dylan/CD2/02 Neil Young - All Along the Watchtower.mp3
/Volumes/Baustelle/temp/Dylan/CD2/02 Neil Young - All Along the Watchtower.m4a

CRC32 hash : 39444A40
CRC32 hash (skip zero) : C321BE91
AccurateRip v1 signature : 2A2FE844
AccurateRip v2 signature : A5781CDA
->Accurately ripped (v1+v2, confidence 54+28/147)
Statistics
Read error : 0
Skipped (treated as error) : 0
Edge jitter error (maybe fixed) : 0
Atom jitter error (maybe fixed) : 0
Drift error (maybe fixed) : 0
Dropped bytes error (maybe fixed) : 0
Duplicated bytes error (maybe fixed) : 0

Track 03
Filename : /Volumes/Baustelle/temp/Dylan/CD2/03 Chrissie Hynde - I Shall Be Released.flac
/Volumes/Baustelle/temp/Dylan/CD2/03 Chrissie Hynde - I Shall Be Released.mp3
/Volumes/Baustelle/temp/Dylan/CD2/03 Chrissie Hynde - I Shall Be Released.m4a

CRC32 hash : 84F07E6B
CRC32 hash (skip zero) : C51C8430
AccurateRip v1 signature : C5BCFD3D
AccurateRip v2 signature : FF0A76F6
->Accurately ripped (v1+v2, confidence 54+28/147)
Statistics
Read error : 0
Skipped (treated as error) : 0
Edge jitter error (maybe fixed) : 0
Atom jitter error (maybe fixed) : 0
Drift error (maybe fixed) : 0
Dropped bytes error (maybe fixed) : 0
Duplicated bytes error (maybe fixed) : 0

Track 04
Filename : /Volumes/Baustelle/temp/Dylan/CD2/04 Eric Clapton - Don’t Think Twice, It’s All Right.flac
/Volumes/Baustelle/temp/Dylan/CD2/04 Eric Clapton - Don’t Think Twice, It’s All Right.mp3
/Volumes/Baustelle/temp/Dylan/CD2/04 Eric Clapton - Don’t Think Twice, It’s All Right.m4a

CRC32 hash : B5AC611F
CRC32 hash (skip zero) : AFD1DFB6
AccurateRip v1 signature : A40051EE
AccurateRip v2 signature : 707A9514
->Accurately ripped (v1+v2, confidence 55+28/147)
Statistics
Read error : 0
Skipped (treated as error) : 0
Edge jitter error (maybe fixed) : 0
Atom jitter error (maybe fixed) : 0
Drift error (maybe fixed) : 0
Dropped bytes error (maybe fixed) : 0
Duplicated bytes error (maybe fixed) : 0

Track 05
Filename : /Volumes/Baustelle/temp/Dylan/CD2/05 The O'Jays - Emotionally Yours.flac
/Volumes/Baustelle/temp/Dylan/CD2/05 The O'Jays - Emotionally Yours.mp3
/Volumes/Baustelle/temp/Dylan/CD2/05 The O'Jays - Emotionally Yours.m4a

CRC32 hash : A687B1B8
CRC32 hash (skip zero) : 4AA7A297
AccurateRip v1 signature : F3FD9058
AccurateRip v2 signature : F2C426AD
->Accurately ripped (v1+v2, confidence 54+28/146)
Statistics
Read error : 0
Skipped (treated as error) : 0
Edge jitter error (maybe fixed) : 0
Atom jitter error (maybe fixed) : 0
Drift error (maybe fixed) : 0
Dropped bytes error (maybe fixed) : 0
Duplicated bytes error (maybe fixed) : 0

Track 06
Filename : /Volumes/Baustelle/temp/Dylan/CD2/06 The Band - When I Paint My Masterpiece.flac
/Volumes/Baustelle/temp/Dylan/CD2/06 The Band - When I Paint My Masterpiece.mp3
/Volumes/Baustelle/temp/Dylan/CD2/06 The Band - When I Paint My Masterpiece.m4a

CRC32 hash : A1C2A02A
CRC32 hash (skip zero) : BFAF1F43
AccurateRip v1 signature : B8B931CF
AccurateRip v2 signature : 33A460C4
->Accurately ripped (v1+v2, confidence 54+28/148)
Statistics
Read error : 0
Skipped (treated as error) : 0
Edge jitter error (maybe fixed) : 0
Atom jitter error (maybe fixed) : 0
Drift error (maybe fixed) : 0
Dropped bytes error (maybe fixed) : 0
Duplicated bytes error (maybe fixed) : 0

Track 07
Filename : /Volumes/Baustelle/temp/Dylan/CD2/07 George Harrison - Absolutely Sweet Marie.flac
/Volumes/Baustelle/temp/Dylan/CD2/07 George Harrison - Absolutely Sweet Marie.mp3
/Volumes/Baustelle/temp/Dylan/CD2/07 George Harrison - Absolutely Sweet Marie.m4a

CRC32 hash : 4C95F9A1
CRC32 hash (skip zero) : 8C405593
AccurateRip v1 signature : BEA78FAD
AccurateRip v2 signature : 02A284D8
->Accurately ripped (v1+v2, confidence 55+28/147)
Statistics
Read error : 0
Skipped (treated as error) : 0
Edge jitter error (maybe fixed) : 0
Atom jitter error (maybe fixed) : 0
Drift error (maybe fixed) : 0
Dropped bytes error (maybe fixed) : 0
Duplicated bytes error (maybe fixed) : 0

Track 08
Filename : /Volumes/Baustelle/temp/Dylan/CD2/08 Tom Petty & the Heartbreakers - License to Kill.flac
/Volumes/Baustelle/temp/Dylan/CD2/08 Tom Petty & the Heartbreakers - License to Kill.mp3
/Volumes/Baustelle/temp/Dylan/CD2/08 Tom Petty & the Heartbreakers - License to Kill.m4a

CRC32 hash : A8DBB4C8
CRC32 hash (skip zero) : 9626DF25
AccurateRip v1 signature : 12CDCBC7
AccurateRip v2 signature : A9B262A5
->Accurately ripped (v1+v2, confidence 53+28/147)
Statistics
Read error : 0
Skipped (treated as error) : 0
Edge jitter error (maybe fixed) : 0
Atom jitter error (maybe fixed) : 0
Drift error (maybe fixed) : 0
Dropped bytes error (maybe fixed) : 0
Duplicated bytes error (maybe fixed) : 0

Track 09
Filename : /Volumes/Baustelle/temp/Dylan/CD2/09 Tom Petty & the Heartbreakers - Rainy Day Women #12 & 35.flac
/Volumes/Baustelle/temp/Dylan/CD2/09 Tom Petty & the Heartbreakers - Rainy Day Women #12 & 35.mp3
/Volumes/Baustelle/temp/Dylan/CD2/09 Tom Petty & the Heartbreakers - Rainy Day Women #12 & 35.m4a

CRC32 hash : 7F0130D1
CRC32 hash (skip zero) : 4F0EB0A3
AccurateRip v1 signature : 7C009BEE
AccurateRip v2 signature : BCE85D98
->Accurately ripped (v1+v2, confidence 55+27/147)
Statistics
Read error : 0
Skipped (treated as error) : 0
Edge jitter error (maybe fixed) : 0
Atom jitter error (maybe fixed) : 0
Drift error (maybe fixed) : 0
Dropped bytes error (maybe fixed) : 0
Duplicated bytes error (maybe fixed) : 0

Track 10
Filename : /Volumes/Baustelle/temp/Dylan/CD2/10 Roger McGuinn - Mr. Tambourine Man.flac
/Volumes/Baustelle/temp/Dylan/CD2/10 Roger McGuinn - Mr. Tambourine Man.mp3
/Volumes/Baustelle/temp/Dylan/CD2/10 Roger McGuinn - Mr. Tambourine Man.m4a

CRC32 hash : E3DB199F
CRC32 hash (skip zero) : 1F76ECA6
AccurateRip v1 signature : 7726AB03
AccurateRip v2 signature : 76DCA4B9
->Accurately ripped (v1+v2, confidence 52+28/146)
Statistics
Read error : 0
Skipped (treated as error) : 0
Edge jitter error (maybe fixed) : 0
Atom jitter error (maybe fixed) : 0
Drift error (maybe fixed) : 0
Dropped bytes error (maybe fixed) : 0
Duplicated bytes error (maybe fixed) : 0

Track 11
Filename : /Volumes/Baustelle/temp/Dylan/CD2/11 Bob Dylan - It’s Alright, Ma (I’m Only Bleeding).flac
/Volumes/Baustelle/temp/Dylan/CD2/11 Bob Dylan - It’s Alright, Ma (I’m Only Bleeding).mp3
/Volumes/Baustelle/temp/Dylan/CD2/11 Bob Dylan - It’s Alright, Ma (I’m Only Bleeding).m4a

CRC32 hash : 150EDB28
CRC32 hash (skip zero) : 94EDF4E4
AccurateRip v1 signature : D0DC8528
AccurateRip v2 signature : ABD68177
->Accurately ripped (v1+v2, confidence 53+26/144)
Statistics
Read error : 0
Skipped (treated as error) : 0
Edge jitter error (maybe fixed) : 0
Atom jitter error (maybe fixed) : 0
Drift error (maybe fixed) : 0
Dropped bytes error (maybe fixed) : 0
Duplicated bytes error (maybe fixed) : 0

Track 12
Filename : /Volumes/Baustelle/temp/Dylan/CD2/12 Bob Dylan, Roger McGuinn, Tom Petty, Neil Young, Eric Clapton & George Harrison - My Back Pages.flac
/Volumes/Baustelle/temp/Dylan/CD2/12 Bob Dylan, Roger McGuinn, Tom Petty, Neil Young, Eric Clapton & George Harrison - My Back Pages.mp3
/Volumes/Baustelle/temp/Dylan/CD2/12 Bob Dylan, Roger McGuinn, Tom Petty, Neil Young, Eric Clapton & George Harrison - My Back Pages.m4a

CRC32 hash : 9D11BEEA
CRC32 hash (skip zero) : 63D8A586
AccurateRip v1 signature : 47BCE233
AccurateRip v2 signature : EEBDD2E5
->Accurately ripped (v1+v2, confidence 51+27/143)
Statistics
Read error : 0
Skipped (treated as error) : 0
Edge jitter error (maybe fixed) : 0
Atom jitter error (maybe fixed) : 0
Drift error (maybe fixed) : 0
Dropped bytes error (maybe fixed) : 0
Duplicated bytes error (maybe fixed) : 0

Track 13
Filename : /Volumes/Baustelle/temp/Dylan/CD2/13 Bob Dylan - Knockin’ on Heaven’s Door.flac
/Volumes/Baustelle/temp/Dylan/CD2/13 Bob Dylan - Knockin’ on Heaven’s Door.mp3
/Volumes/Baustelle/temp/Dylan/CD2/13 Bob Dylan - Knockin’ on Heaven’s Door.m4a

CRC32 hash : 43D7248B
CRC32 hash (skip zero) : 3E725BFB
AccurateRip v1 signature : 00A0A8ED
AccurateRip v2 signature : BAC9D73A
->Accurately ripped (v1+v2, confidence 50+27/143)
Statistics
Read error : 0
Skipped (treated as error) : 0
Edge jitter error (maybe fixed) : 0
Atom jitter error (maybe fixed) : 0
Drift error (maybe fixed) : 0
Dropped bytes error (maybe fixed) : 0
Duplicated bytes error (maybe fixed) : 0

Track 14
Filename : /Volumes/Baustelle/temp/Dylan/CD2/14 Bob Dylan - Girl From the North Country.flac
/Volumes/Baustelle/temp/Dylan/CD2/14 Bob Dylan - Girl From the North Country.mp3
/Volumes/Baustelle/temp/Dylan/CD2/14 Bob Dylan - Girl From the North Country.m4a

CRC32 hash : F3B0C975
CRC32 hash (skip zero) : A6CA2DF1
AccurateRip v1 signature : B86A98A3
AccurateRip v2 signature : ACFED817
->Accurately ripped (v1+v2, confidence 50+26/141)
Statistics
Read error : 0
Skipped (treated as error) : 0
Edge jitter error (maybe fixed) : 0
Atom jitter error (maybe fixed) : 0
Drift error (maybe fixed) : 0
Dropped bytes error (maybe fixed) : 0
Duplicated bytes error (maybe fixed) : 0

No errors occurred

End of status report