Subcategories

V.A. - Break n' Bossa, Chapter 6 (2003)

Posted By: gribovar
V.A. - Break n' Bossa, Chapter 6 (2003)

V.A. - Break n' Bossa, Chapter 6 (2003)
EAC Rip | FLAC (tracks+.cue+log) - 794 MB | MP3 CBR 320 kbps (LAME 3.93) - 295 MB | Covers - 92 MB
Genre: Bossa Nova, Nu Jazz | RAR 3% Rec. | Label: Schema Records (SCCD 361)

Really appreciated both by listeners & critics, more than just a compilation, Break n' Bossa has been, during the years, the exact mirror of a music scene, rather, it was the project that literally invented a new music genre, giving a connotation & a point of reference to the growing up scene. Schema Records helped in its development with all its artists. You could think that a vol. 6 was too much. That after 5 years of Break n' Bossa it's too easy to fall into cliches. But at Schema we think different & we are going to show you we are right. Featured artists on this double disc include The Dining Rooms, Nicola Conte, Buscemi, Paul & Mark, United Future Organization, Soulstance & Big Bossa.
CD 1 Tracklist:
01. Soulstance - Zenith
02. Puddu Varano - Running With The Devil (Buscemi Remix)
03. Eli Goulart - Destino (Ben Human Instrumental Rework)
04. Hipnosis - Black Forest Stomp (Gerardo Frisina Remix)
05. S-Tone Inc. - Revelation
06. United Future Organization - Listen Love
07. Big Bossa - Carnival Espirito
08. Drumagick - Malandragem
09. Soulstance - Lift Up
10. Big Bang - Clouds
11. Paul & Mark - Guaio A Caracas

Total time: 56:32

CD 2 Tracklist:
01. Hird - Keep You Hird
02. Buscemi - Midnight Session
03. Cai - Silver N' Jazz
04. The Five Corners Quintet - Trading Eights
05. Gerardo Frisina - Sophisticated Samba
06. Pathless - Forecast
07. Nicola Conte - Arabesque (Micatone Remix)
08. Povo - Uam Uam
09. Buscemi - Feliz Viaje
10. Vuca - Corsa Notturna
11. Frank Hernandez - Barloventenho Blues (Gerardo Frisina Remix)
12. The Dining Rooms - Tunnel (Fragmentorchestra Remix)
13. The Dining Rooms - Tunnel (Original)

Total time: 01:08:38

Exact Audio Copy V1.0 beta 4 from 7. December 2014

EAC extraction logfile from 23. November 2015, 0:20

Various Artists / Break n' Bossa Chapter 6 CD1

Used drive : ASUS DRW-24B3ST Adapter: 1 ID: 2

Read mode : Secure
Utilize accurate stream : Yes
Defeat audio cache : Yes
Make use of C2 pointers : No

Read offset correction : 6
Overread into Lead-In and Lead-Out : No
Fill up missing offset samples with silence : Yes
Delete leading and trailing silent blocks : No
Null samples used in CRC calculations : Yes
Used interface : Native Win32 interface for Win NT & 2000
Gap handling : Appended to previous track

Used output format : User Defined Encoder
Selected bitrate : 896 kBit/s
Quality : High
Add ID3 tag : No
Command line compressor : C:\Program Files (x86)\Exact Audio Copy\Flac\flac.exe
Additional command line options : -8 -V -T "ARTIST=%artist%" -T "TITLE=%title%" -T "ALBUM=%albumtitle%" -T "DATE=%year%" -T "TRACKNUMBER=%tracknr%" -T "GENRE=%genre%" -T "COMMENT=ripped by Oleandris" %source%


TOC of the extracted CD

Track | Start | Length | Start sector | End sector
––––––––––––––––––––––––––––-
1 | 0:00.00 | 5:26.37 | 0 | 24486
2 | 5:26.37 | 4:28.00 | 24487 | 44586
3 | 9:54.37 | 5:34.00 | 44587 | 69636
4 | 15:28.37 | 7:16.22 | 69637 | 102358
5 | 22:44.59 | 5:09.02 | 102359 | 125535
6 | 27:53.61 | 4:16.39 | 125536 | 144774
7 | 32:10.25 | 4:16.68 | 144775 | 164042
8 | 36:27.18 | 5:01.14 | 164043 | 186631
9 | 41:28.32 | 4:47.29 | 186632 | 208185
10 | 46:15.61 | 5:28.31 | 208186 | 232816
11 | 51:44.17 | 4:47.57 | 232817 | 254398


Track 1

Filename F:\ЗАГРУЗКИ\ Break n' Bossa Collection (1999-2008)\ 2003 - chapter 6 2CD\CD1\01. Soulstance - Zenith.wav

Pre-gap length 0:00:02.00

Peak level 100.0 %
Extraction speed 3.5 X
Track quality 100.0 %
Test CRC 009C54A5
Copy CRC 009C54A5
Accurately ripped (confidence 2) [8D4ACD2F] (AR v2)
Copy OK

Track 2

Filename F:\ЗАГРУЗКИ\ Break n' Bossa Collection (1999-2008)\ 2003 - chapter 6 2CD\CD1\02. Puddu Varano - Running With The Devil (Buscemi Remix).wav

Peak level 99.8 %
Extraction speed 4.0 X
Track quality 100.0 %
Test CRC 6EC26E46
Copy CRC 6EC26E46
Accurately ripped (confidence 2) [E389001C] (AR v2)
Copy OK

Track 3

Filename F:\ЗАГРУЗКИ\ Break n' Bossa Collection (1999-2008)\ 2003 - chapter 6 2CD\CD1\03. Eli Goulart - Destino (Ben Human Instrumental Rework).wav

Peak level 99.2 %
Extraction speed 3.8 X
Track quality 99.9 %
Test CRC A8468893
Copy CRC A8468893
Accurately ripped (confidence 2) [840D419D] (AR v2)
Copy OK

Track 4

Filename F:\ЗАГРУЗКИ\ Break n' Bossa Collection (1999-2008)\ 2003 - chapter 6 2CD\CD1\04. Hipnosis - Black Forest Stomp (Gerardo Frisina Remix).wav

Peak level 99.0 %
Extraction speed 5.1 X
Track quality 100.0 %
Test CRC 5CFBF098
Copy CRC 5CFBF098
Accurately ripped (confidence 2) [44116636] (AR v2)
Copy OK

Track 5

Filename F:\ЗАГРУЗКИ\ Break n' Bossa Collection (1999-2008)\ 2003 - chapter 6 2CD\CD1\05. S-Tone Inc. - Revelation.wav

Peak level 96.6 %
Extraction speed 5.3 X
Track quality 100.0 %
Test CRC DE0222AB
Copy CRC DE0222AB
Accurately ripped (confidence 2) [C9A83CC2] (AR v2)
Copy OK

Track 6

Filename F:\ЗАГРУЗКИ\ Break n' Bossa Collection (1999-2008)\ 2003 - chapter 6 2CD\CD1\06. United Future Organization - Listen Love.wav

Peak level 97.7 %
Extraction speed 5.5 X
Track quality 100.0 %
Test CRC 7AB37EC0
Copy CRC 7AB37EC0
Accurately ripped (confidence 2) [3F991FF1] (AR v2)
Copy OK

Track 7

Filename F:\ЗАГРУЗКИ\ Break n' Bossa Collection (1999-2008)\ 2003 - chapter 6 2CD\CD1\07. Big Bossa - Carnival Espirito.wav

Peak level 100.0 %
Extraction speed 5.7 X
Track quality 100.0 %
Test CRC EABBB8EA
Copy CRC EABBB8EA
Accurately ripped (confidence 2) [40A49B95] (AR v2)
Copy OK

Track 8

Filename F:\ЗАГРУЗКИ\ Break n' Bossa Collection (1999-2008)\ 2003 - chapter 6 2CD\CD1\08. Drumagick - Malandragem.wav

Peak level 97.6 %
Extraction speed 6.1 X
Track quality 100.0 %
Test CRC E5929929
Copy CRC E5929929
Accurately ripped (confidence 2) [580DAF3E] (AR v2)
Copy OK

Track 9

Filename F:\ЗАГРУЗКИ\ Break n' Bossa Collection (1999-2008)\ 2003 - chapter 6 2CD\CD1\09. Soulstance - Lift Up.wav

Peak level 100.0 %
Extraction speed 6.3 X
Track quality 100.0 %
Test CRC C410DEA1
Copy CRC C410DEA1
Accurately ripped (confidence 2) [D5C4D687] (AR v2)
Copy OK

Track 10

Filename F:\ЗАГРУЗКИ\ Break n' Bossa Collection (1999-2008)\ 2003 - chapter 6 2CD\CD1\10. Big Bang - Clouds.wav

Peak level 97.1 %
Extraction speed 6.7 X
Track quality 100.0 %
Test CRC F44C24D3
Copy CRC F44C24D3
Accurately ripped (confidence 2) [060A77AB] (AR v2)
Copy OK

Track 11

Filename F:\ЗАГРУЗКИ\ Break n' Bossa Collection (1999-2008)\ 2003 - chapter 6 2CD\CD1\11. Paul & Mark - Guaio A Caracas.wav

Peak level 99.9 %
Extraction speed 7.0 X
Track quality 100.0 %
Test CRC D4424690
Copy CRC D4424690
Accurately ripped (confidence 2) [20FCD722] (AR v2)
Copy OK


All tracks accurately ripped

No errors occurred

End of status report

–– CUETools DB Plugin V2.1.4

[CTDB TOCID: Ciax6J2HcdWq0VhxkWKJu8xCKUQ-] found
Submit result: Ciax6J2HcdWq0VhxkWKJu8xCKUQ- has been confirmed
Track | CTDB Status
1 | (3/3) Accurately ripped
2 | (3/3) Accurately ripped
3 | (3/3) Accurately ripped
4 | (3/3) Accurately ripped
5 | (3/3) Accurately ripped
6 | (3/3) Accurately ripped
7 | (3/3) Accurately ripped
8 | (3/3) Accurately ripped
9 | (3/3) Accurately ripped
10 | (3/3) Accurately ripped
11 | (3/3) Accurately ripped


==== Log checksum A6C7958D32F24FDB4E5D646FDD06CC8D5849AF73CFAE6AC12D6C9EAD11C3E278 ====

[CUETools log; Date: 13.03.2020 22:43:11; Version: 2.1.4]
[CTDB TOCID: Ciax6J2HcdWq0VhxkWKJu8xCKUQ-] found.
Track | CTDB Status
1 | (11/11) Accurately ripped
2 | (11/11) Accurately ripped
3 | (11/11) Accurately ripped
4 | (11/11) Accurately ripped
5 | (11/11) Accurately ripped
6 | (11/11) Accurately ripped
7 | (11/11) Accurately ripped
8 | (11/11) Accurately ripped
9 | (11/11) Accurately ripped
10 | (11/11) Accurately ripped
11 | (11/11) Accurately ripped
[AccurateRip ID: 0017c3d2-00cce2bb-a50d3f0b] found.
Track [ CRC | V2 ] Status
01 [cd8f464f|8d4acd2f] (2+4/6) Accurately ripped
02 [fd439b59|e389001c] (2+4/6) Accurately ripped
03 [58dae1db|840d419d] (2+4/6) Accurately ripped
04 [2d3c0599|44116636] (2+4/6) Accurately ripped
05 [1a090e09|c9a83cc2] (2+4/6) Accurately ripped
06 [2161c3d2|3f991ff1] (2+4/6) Accurately ripped
07 [7c4694fc|40a49b95] (2+4/6) Accurately ripped
08 [072f895f|580daf3e] (0+4/4) Accurately ripped
09 [f0e563b7|d5c4d687] (2+4/6) Accurately ripped
10 [4beeb8b9|060a77ab] (2+4/6) Accurately ripped
11 [8733bb0e|20fcd722] (2+4/6) Accurately ripped

Track Peak [ CRC32 ] [W/O NULL] [ LOG ]
– 100,0 [7BFB2E41] [41C9A4CE]
01 100,0 [009C54A5] [DC16944C] CRC32
02 99,8 [6EC26E46] [9406A229] CRC32
03 99,2 [A8468893] [B22863EF] CRC32
04 99,0 [5CFBF098] [69210EDF] CRC32
05 96,6 [DE0222AB] [BDC40370] CRC32
06 97,7 [7AB37EC0] [F3D29AF6] CRC32
07 100,0 [EABBB8EA] [623897D0] CRC32
08 97,6 [E5929929] [1555E111] CRC32
09 100,0 [C410DEA1] [DE451ACC] CRC32
10 97,1 [F44C24D3] [E9247F30] CRC32
11 99,9 [D4424690] [A502068B] CRC32

Exact Audio Copy V1.0 beta 4 from 7. December 2014

EAC extraction logfile from 23. November 2015, 0:20

Various Artists / Break N' Bossa Chapter 6 CD2

Used drive : PLEXTOR DVDR PX-L890SA Adapter: 1 ID: 0

Read mode : Secure
Utilize accurate stream : Yes
Defeat audio cache : Yes
Make use of C2 pointers : No

Read offset correction : 6
Overread into Lead-In and Lead-Out : No
Fill up missing offset samples with silence : Yes
Delete leading and trailing silent blocks : No
Null samples used in CRC calculations : Yes
Used interface : Native Win32 interface for Win NT & 2000
Gap handling : Appended to previous track

Used output format : User Defined Encoder
Selected bitrate : 896 kBit/s
Quality : High
Add ID3 tag : No
Command line compressor : C:\Program Files (x86)\Exact Audio Copy\Flac\flac.exe
Additional command line options : -8 -V -T "ARTIST=%artist%" -T "TITLE=%title%" -T "ALBUM=%albumtitle%" -T "DATE=%year%" -T "TRACKNUMBER=%tracknr%" -T "GENRE=%genre%" -T "COMMENT=ripped by Oleandris" %source%


TOC of the extracted CD

Track | Start | Length | Start sector | End sector
––––––––––––––––––––––––––––-
1 | 0:00.00 | 6:23.45 | 0 | 28769
2 | 6:23.45 | 3:45.43 | 28770 | 45687
3 | 10:09.13 | 5:04.33 | 45688 | 68520
4 | 15:13.46 | 5:00.47 | 68521 | 91067
5 | 20:14.18 | 3:18.72 | 91068 | 105989
6 | 23:33.15 | 6:52.00 | 105990 | 136889
7 | 30:25.15 | 5:32.15 | 136890 | 161804
8 | 35:57.30 | 5:11.49 | 161805 | 185178
9 | 41:09.04 | 5:37.69 | 185179 | 210522
10 | 46:46.73 | 6:00.58 | 210523 | 237580
11 | 52:47.56 | 6:11.10 | 237581 | 265415
12 | 58:58.66 | 5:47.19 | 265416 | 291459
13 | 64:46.10 | 3:51.72 | 291460 | 308856


Track 1

Filename F:\ЗАГРУЗКИ\ Break n' Bossa Collection (1999-2008)\ 2003 - chapter 6 2CD\CD2\01. Hird - Keep You Hird.wav

Pre-gap length 0:00:02.00

Peak level 86.0 %
Extraction speed 3.7 X
Track quality 100.0 %
Test CRC BC313850
Copy CRC BC313850
Accurately ripped (confidence 2) [A815F91C] (AR v2)
Copy OK

Track 2

Filename F:\ЗАГРУЗКИ\ Break n' Bossa Collection (1999-2008)\ 2003 - chapter 6 2CD\CD2\02. Buscemi - Midnight Session.wav

Peak level 86.0 %
Extraction speed 4.0 X
Track quality 100.0 %
Test CRC 1B24697A
Copy CRC 1B24697A
Accurately ripped (confidence 2) [84932387] (AR v2)
Copy OK

Track 3

Filename F:\ЗАГРУЗКИ\ Break n' Bossa Collection (1999-2008)\ 2003 - chapter 6 2CD\CD2\03. Cai - Silver N' Jazz.wav

Peak level 86.0 %
Extraction speed 3.8 X
Track quality 99.9 %
Test CRC 23BEA1A3
Copy CRC 23BEA1A3
Accurately ripped (confidence 2) [8FADE3CB] (AR v2)
Copy OK

Track 4

Filename F:\ЗАГРУЗКИ\ Break n' Bossa Collection (1999-2008)\ 2003 - chapter 6 2CD\CD2\04. Five Corners Quintet, The - Trading Eights.wav

Peak level 86.0 %
Extraction speed 4.8 X
Track quality 100.0 %
Test CRC F1AB0777
Copy CRC F1AB0777
Accurately ripped (confidence 2) [5DFA01DD] (AR v2)
Copy OK

Track 5

Filename F:\ЗАГРУЗКИ\ Break n' Bossa Collection (1999-2008)\ 2003 - chapter 6 2CD\CD2\05. Gerardo Frisina - Sophisticated Samba.wav

Peak level 75.7 %
Extraction speed 4.8 X
Track quality 100.0 %
Test CRC F9FD46AB
Copy CRC F9FD46AB
Accurately ripped (confidence 2) [D9B898DE] (AR v2)
Copy OK

Track 6

Filename F:\ЗАГРУЗКИ\ Break n' Bossa Collection (1999-2008)\ 2003 - chapter 6 2CD\CD2\06. Pathless - Forecast.wav

Peak level 86.0 %
Extraction speed 4.8 X
Track quality 99.9 %
Test CRC D557E0D5
Copy CRC D557E0D5
Accurately ripped (confidence 2) [30AA56BF] (AR v2)
Copy OK

Track 7

Filename F:\ЗАГРУЗКИ\ Break n' Bossa Collection (1999-2008)\ 2003 - chapter 6 2CD\CD2\07. Nicola Conte - Arabesque (Micatone Remix).wav

Peak level 86.0 %
Extraction speed 5.8 X
Track quality 100.0 %
Test CRC 5DE83B07
Copy CRC 5DE83B07
Accurately ripped (confidence 2) [0F8380EC] (AR v2)
Copy OK

Track 8

Filename F:\ЗАГРУЗКИ\ Break n' Bossa Collection (1999-2008)\ 2003 - chapter 6 2CD\CD2\08. Povo - Uam Uam.wav

Peak level 81.8 %
Extraction speed 6.0 X
Track quality 100.0 %
Test CRC F7EC64B2
Copy CRC F7EC64B2
Accurately ripped (confidence 2) [2C3556B6] (AR v2)
Copy OK

Track 9

Filename F:\ЗАГРУЗКИ\ Break n' Bossa Collection (1999-2008)\ 2003 - chapter 6 2CD\CD2\09. Buscemi - Feliz Viaje.wav

Peak level 70.9 %
Extraction speed 6.3 X
Track quality 100.0 %
Test CRC D0B2E3A0
Copy CRC D0B2E3A0
Accurately ripped (confidence 2) [ACF149E1] (AR v2)
Copy OK

Track 10

Filename F:\ЗАГРУЗКИ\ Break n' Bossa Collection (1999-2008)\ 2003 - chapter 6 2CD\CD2\10. Vuca - Corsa Notturna.wav

Peak level 86.0 %
Extraction speed 6.6 X
Track quality 100.0 %
Test CRC 7066B167
Copy CRC 7066B167
Accurately ripped (confidence 2) [9392CB73] (AR v2)
Copy OK

Track 11

Filename F:\ЗАГРУЗКИ\ Break n' Bossa Collection (1999-2008)\ 2003 - chapter 6 2CD\CD2\11. Frank Hernandez - Barloventenho Blues (Gerardo Frisina Remix).wav

Peak level 86.0 %
Extraction speed 6.9 X
Track quality 100.0 %
Test CRC 5D41ECF0
Copy CRC 5D41ECF0
Accurately ripped (confidence 2) [D4B2DDCB] (AR v2)
Copy OK

Track 12

Filename F:\ЗАГРУЗКИ\ Break n' Bossa Collection (1999-2008)\ 2003 - chapter 6 2CD\CD2\12. The Dining Rooms - Tunnel (Fragment Orchestra Remix).wav

Peak level 86.0 %
Extraction speed 6.0 X
Track quality 99.9 %
Test CRC 653C2A9B
Copy CRC 653C2A9B
Accurately ripped (confidence 2) [8A8213CE] (AR v2)
Copy OK

Track 13

Filename F:\ЗАГРУЗКИ\ Break n' Bossa Collection (1999-2008)\ 2003 - chapter 6 2CD\CD2\13. The Dining Rooms - Tunnel (Original).wav

Peak level 99.9 %
Extraction speed 7.0 X
Track quality 100.0 %
Test CRC B68C697E
Copy CRC B68C697E
Accurately ripped (confidence 2) [9BCBAD64] (AR v2)
Copy OK


All tracks accurately ripped

No errors occurred

End of status report

–– CUETools DB Plugin V2.1.4

[CTDB TOCID: SycufHCG1a5E08nHKIwybdADrHI-] found
Submit result: SycufHCG1a5E08nHKIwybdADrHI- has been confirmed
Track | CTDB Status
1 | (3/3) Accurately ripped
2 | (3/3) Accurately ripped
3 | (3/3) Accurately ripped
4 | (3/3) Accurately ripped
5 | (3/3) Accurately ripped
6 | (3/3) Accurately ripped
7 | (3/3) Accurately ripped
8 | (3/3) Accurately ripped
9 | (3/3) Accurately ripped
10 | (3/3) Accurately ripped
11 | (3/3) Accurately ripped
12 | (3/3) Accurately ripped
13 | (3/3) Accurately ripped


==== Log checksum 908ECAD5782ABB5189F5E2C73A4C0DE12D447873BBFFDC32E92AA98C2731E5AA ====

[CUETools log; Date: 13.03.2020 22:43:39; Version: 2.1.4]
[CTDB TOCID: SycufHCG1a5E08nHKIwybdADrHI-] found.
Track | CTDB Status
1 | (10/10) Accurately ripped
2 | (10/10) Accurately ripped
3 | (10/10) Accurately ripped
4 | (10/10) Accurately ripped
5 | (10/10) Accurately ripped
6 | (10/10) Accurately ripped
7 | (10/10) Accurately ripped
8 | (10/10) Accurately ripped
9 | (10/10) Accurately ripped
10 | (10/10) Accurately ripped
11 | (10/10) Accurately ripped
12 | (10/10) Accurately ripped
13 | ( 8/10) Accurately ripped
[AccurateRip ID: 00209e94-01480021-bb10160d] found.
Track [ CRC | V2 ] Status
01 [1a2c0a89|a815f91c] (2+4/6) Accurately ripped
02 [afd768ec|84932387] (2+4/6) Accurately ripped
03 [8e9cf174|8fade3cb] (2+4/6) Accurately ripped
04 [f9968b7b|5dfa01dd] (2+4/6) Accurately ripped
05 [9cd9a2d2|d9b898de] (2+4/6) Accurately ripped
06 [1f1ce3c1|30aa56bf] (2+4/6) Accurately ripped
07 [5846a38a|0f8380ec] (2+4/6) Accurately ripped
08 [36b0be5c|2c3556b6] (2+4/6) Accurately ripped
09 [d03a38aa|acf149e1] (0+4/4) Accurately ripped
10 [e79c24f9|9392cb73] (0+4/4) Accurately ripped
11 [6dfc479f|d4b2ddcb] (2+4/6) Accurately ripped
12 [f76ff6b7|8a8213ce] (2+4/6) Accurately ripped
13 [15ce03ab|9bcbad64] (2+4/6) Accurately ripped

Track Peak [ CRC32 ] [W/O NULL] [ LOG ]
– 99,9 [B9E48FBF] [6700F54B]
01 86,0 [BC313850] [933F62BC] CRC32
02 86,0 [1B24697A] [0EA0C5E5] CRC32
03 86,0 [23BEA1A3] [417ED155] CRC32
04 86,0 [F1AB0777] [8F3409A1] CRC32
05 75,7 [F9FD46AB] [7E97E8C6] CRC32
06 86,0 [D557E0D5] [CA385BCD] CRC32
07 86,0 [5DE83B07] [818E565C] CRC32
08 81,8 [F7EC64B2] [8F7AD818] CRC32
09 70,9 [D0B2E3A0] [139CA978] CRC32
10 86,0 [7066B167] [1AF4FA73] CRC32
11 86,0 [5D41ECF0] [AA4C2CA9] CRC32
12 86,0 [653C2A9B] [6940BF48] CRC32
13 99,9 [B68C697E] [F70A1F97] CRC32

Thanks to Oleandris

See also:
V.A. - Break n' Bossa, Chapter 1 (1999)
V.A. - Break n' Bossa, Chapter 2 (1999)
V.A. - Break n' Bossa, Chapter 3 (2000)
V.A. - Break n' Bossa, Chapter 4 (2001)
V.A. - Break n' Bossa, Chapter 5 (2002)