Subcategories

VA - Buddha-Bar XI By Ravin (2009)

Posted By: uff
VA - Buddha-Bar XI By Ravin (2009)

VA - Buddha-Bar XI By Ravin (2009)
Chillout | 2cd | EAC Rip | Flac + Cue + Log | covers
George V/Wagram, WAG 350 | rel: 2009 | 1170Mb

After Dubai, Sao Paolo, Cairo, Beirut, the Buddha-Bar development reaches Kiev. After twelve years of success and 10 compilations, George v is proud to announce the Buddha-Bar XI release. In this opus, Ravin makes us travel in Kiev, the Ukrainian capital.
A fresh, dynamic and very trendy selection with a furiously fashionable packaging ; please welcome the brand new Buddha-Bar. On the first cd, the chic and lounge atmosphere is always predominant. We discover real jewels such as : Melle Caro, Evabe, Ayoe Angelica… the second cd is as hype as usual.
The traditional « elegant electro » ambiance takes place and distils magic titles with love and passion. Tracks like « my Danjer sound » de Dj Danjer, « consequences » de blank & jones will become classics!

Track listing
cd1:
01. Niyaz - Iman (3:32)
02. The Bombay Dub Orchestra - Journey (4:12)
03. Riccardo Eberspacher - Setira (4:15)
04. Ayoe Angelica - Dr Jekyll (3:50)
05. Christos Stylianou Feat. Maria Latsinou - Smell Of Roses (V-Sag Dub Mix) (4:06)
06. Carlos Campos & Ravin - Kiyamah (5:19)
07. Nitin Sawhney Feat. Ojos De Brujo - Shadowland (3:18)
08. Mathieu & Florzinho - Maha-Amba (5:29)
09. Astyplaz - Zaira (3:37)
10. Sarma - Falling Stars (5:23)
11. Dj Disse & Batina Bager Feat. Fred Astaire - Cheek To Cheek (3:22)
12. Sunset Blvd - Loving You (4:42)
13. Angel Tears - Purple Orchid (5:01)
14. Woolfy vs Projections - We Were There (5:14)
15. Nina & Chris Present Zeep - Agua (3:21)
16. Serafim Tsotsonis - Small 2 (3:20)
17. Me Caro & Franck García - Mon Ange (5:20)

cd2:
01. Bahramji Feat. Mashti - My Life (5:19)
02. Dj A - Piano Dream (5:02)
03. Rucyl - Love In War (Pete Gust KID Remix) (3:50)
04. Asli Gungor & Ferhat Gocer - Kalp Kalbe Karsi Hsyn Krdy Remix (4:39)
05. Silky Sunday - Friend (Sandy Rivera Remix) (5:46)
06. Glender - Echoes (4:20)
07. Dave Seaman - Gobbledygook Remixes (Funkagenda Repulse Mix) (3:53)
08. Riham - Erja Ya Habebi (DJ Srulik Einhorn Mix) (6:38)
09. Loreena Mckennitt - Marrakesh Night Market (V-Sag Remix) (5:03)
10. Dj Danjer - My Danjer Sound (5:10)
11. De-Tuned - Sitar (4:28)
12. Dj Tatana - Spring Breeze (Martin Roth Summer Style Remix) (5:43)
13. Sumo Feat. Rigas - Tribute (6:24)
14. Taho - Shambhalla (WINK Interpretation) (4:56)
15. Dj Orkidea & David West - God's Garden (5:27)


Exact Audio Copy V1.0 beta 1 from 15. November 2010

EAC extraction logfile from 1. October 2012, 9:52

Various / Buddha Bar XI By Ravin CD1 - Lavra

Used drive : ASUS DRW-24B3ST Adapter: 3 ID: 0

Read mode : Secure
Utilize accurate stream : Yes
Defeat audio cache : Yes
Make use of C2 pointers : No

Read offset correction : 6
Overread into Lead-In and Lead-Out : No
Fill up missing offset samples with silence : Yes
Delete leading and trailing silent blocks : No
Null samples used in CRC calculations : Yes
Used interface : Native Win32 interface for Win NT & 2000
Gap handling : Appended to previous track

Used output format : User Defined Encoder
Selected bitrate : 1024 kBit/s
Quality : High
Add ID3 tag : No
Command line compressor : C:\Program Files\Exact Audio Copy\Flac\flac.exe
Additional command line options : -8 -V -T "ARTIST=%a" -T "TITLE=%t" -T "ALBUM=%g" -T "DATE=%y" -T "TRACKNUMBER=%n" -T "GENRE=%m" -T "COMMENT=ripped by Oleandris" %s


TOC of the extracted CD

Track | Start | Length | Start sector | End sector
––––––––––––––––––––––––––––-
1 | 0:00.00 | 3:32.41 | 0 | 15940
2 | 3:32.41 | 4:12.00 | 15941 | 34840
3 | 7:44.41 | 4:15.00 | 34841 | 53965
4 | 11:59.41 | 3:50.06 | 53966 | 71221
5 | 15:49.47 | 4:06.33 | 71222 | 89704
6 | 19:56.05 | 5:19.69 | 89705 | 113698
7 | 25:15.74 | 3:18.49 | 113699 | 128597
8 | 28:34.48 | 5:29.36 | 128598 | 153308
9 | 34:04.09 | 3:37.53 | 153309 | 169636
10 | 37:41.62 | 5:23.50 | 169637 | 193911
11 | 43:05.37 | 3:22.27 | 193912 | 209088
12 | 46:27.64 | 4:42.10 | 209089 | 230248
13 | 51:09.74 | 5:01.48 | 230249 | 252871
14 | 56:11.47 | 5:14.58 | 252872 | 276479
15 | 61:26.30 | 3:21.16 | 276480 | 291570
16 | 64:47.46 | 3:20.37 | 291571 | 306607
17 | 68:08.08 | 5:20.09 | 306608 | 330616


Track 1

Filename F:\ЗАГРУЗКИ\ Buddha-Bar Collection I-XIV\11. Buddha-Bar XI By Ravin 2CD (2009)\CD1 Lavra\01. Niyaz - Iman.wav

Pre-gap length 0:00:02.00

Peak level 98.5 %
Extraction speed 3.7 X
Track quality 100.0 %
Test CRC 6CE17400
Copy CRC 6CE17400
Accurately ripped (confidence 8) [F08BFE54]
Copy OK

Track 2

Filename F:\ЗАГРУЗКИ\ Buddha-Bar Collection I-XIV\11. Buddha-Bar XI By Ravin 2CD (2009)\CD1 Lavra\02. The Bombay Dub Orchestra - Journey.wav

Peak level 100.0 %
Extraction speed 3.4 X
Track quality 99.9 %
Test CRC 070A213E
Copy CRC 070A213E
Accurately ripped (confidence 9) [1DA2E00D]
Copy OK

Track 3

Filename F:\ЗАГРУЗКИ\ Buddha-Bar Collection I-XIV\11. Buddha-Bar XI By Ravin 2CD (2009)\CD1 Lavra\03. Riccardo Eberspacher - Setira.wav

Peak level 100.0 %
Extraction speed 3.7 X
Track quality 99.9 %
Test CRC 4903401D
Copy CRC 4903401D
Accurately ripped (confidence 9) [6EFDB46E]
Copy OK

Track 4

Filename F:\ЗАГРУЗКИ\ Buddha-Bar Collection I-XIV\11. Buddha-Bar XI By Ravin 2CD (2009)\CD1 Lavra\04. Ayoe Angelica - Dr Jekyll.wav

Peak level 100.0 %
Extraction speed 4.8 X
Track quality 100.0 %
Test CRC 72FC11EA
Copy CRC 72FC11EA
Accurately ripped (confidence 9) [E24B1C43]
Copy OK

Track 5

Filename F:\ЗАГРУЗКИ\ Buddha-Bar Collection I-XIV\11. Buddha-Bar XI By Ravin 2CD (2009)\CD1 Lavra\05. Christos Stylianou Feat. Maria Latsinou - Smell Of Roses (V-Sag Dub Mix).wav

Peak level 100.0 %
Extraction speed 5.2 X
Track quality 100.0 %
Test CRC D4B83DAB
Copy CRC D4B83DAB
Accurately ripped (confidence 9) [BD2FE111]
Copy OK

Track 6

Filename F:\ЗАГРУЗКИ\ Buddha-Bar Collection I-XIV\11. Buddha-Bar XI By Ravin 2CD (2009)\CD1 Lavra\06. Carlos Campos & Ravin - Kiyamah.wav

Peak level 100.0 %
Extraction speed 5.7 X
Track quality 100.0 %
Test CRC 5000863E
Copy CRC 5000863E
Accurately ripped (confidence 9) [837E983E]
Copy OK

Track 7

Filename F:\ЗАГРУЗКИ\ Buddha-Bar Collection I-XIV\11. Buddha-Bar XI By Ravin 2CD (2009)\CD1 Lavra\07. Nitin Sawhney Feat. Ojos De Brujo - Shadowland.wav

Peak level 100.0 %
Extraction speed 5.5 X
Track quality 100.0 %
Test CRC 48B7ED8F
Copy CRC 48B7ED8F
Accurately ripped (confidence 9) [BEA70EC1]
Copy OK

Track 8

Filename F:\ЗАГРУЗКИ\ Buddha-Bar Collection I-XIV\11. Buddha-Bar XI By Ravin 2CD (2009)\CD1 Lavra\08. Mathieu & Florzinho - Maha-Amba.wav

Peak level 93.6 %
Extraction speed 6.2 X
Track quality 100.0 %
Test CRC 5082285B
Copy CRC 5082285B
Accurately ripped (confidence 9) [EC6C2C2E]
Copy OK

Track 9

Filename F:\ЗАГРУЗКИ\ Buddha-Bar Collection I-XIV\11. Buddha-Bar XI By Ravin 2CD (2009)\CD1 Lavra\09. Astyplaz - Zaira.wav

Peak level 100.0 %
Extraction speed 6.1 X
Track quality 100.0 %
Test CRC DE2EC54A
Copy CRC DE2EC54A
Accurately ripped (confidence 9) [7794EF4D]
Copy OK

Track 10

Filename F:\ЗАГРУЗКИ\ Buddha-Bar Collection I-XIV\11. Buddha-Bar XI By Ravin 2CD (2009)\CD1 Lavra\10. Sarma - Falling Stars.wav

Peak level 100.0 %
Extraction speed 6.8 X
Track quality 100.0 %
Test CRC 6CFAC67E
Copy CRC 6CFAC67E
Accurately ripped (confidence 9) [1E41E8F5]
Copy OK

Track 11

Filename F:\ЗАГРУЗКИ\ Buddha-Bar Collection I-XIV\11. Buddha-Bar XI By Ravin 2CD (2009)\CD1 Lavra\11. Dj Disse & Batina Bager Feat. Fred Astaire - Cheek To Cheek.wav

Peak level 100.0 %
Extraction speed 6.6 X
Track quality 100.0 %
Test CRC 54F8121C
Copy CRC 54F8121C
Accurately ripped (confidence 9) [177D45FD]
Copy OK

Track 12

Filename F:\ЗАГРУЗКИ\ Buddha-Bar Collection I-XIV\11. Buddha-Bar XI By Ravin 2CD (2009)\CD1 Lavra\12. Sunset Blvd - Loving You.wav

Peak level 100.0 %
Extraction speed 7.1 X
Track quality 100.0 %
Test CRC F1B2394D
Copy CRC F1B2394D
Accurately ripped (confidence 9) [5D67F16F]
Copy OK

Track 13

Filename F:\ЗАГРУЗКИ\ Buddha-Bar Collection I-XIV\11. Buddha-Bar XI By Ravin 2CD (2009)\CD1 Lavra\13. Angel Tears - Purple Orchid.wav

Peak level 100.0 %
Extraction speed 7.4 X
Track quality 100.0 %
Test CRC 0F8F6FDA
Copy CRC 0F8F6FDA
Accurately ripped (confidence 9) [A1ECF372]
Copy OK

Track 14

Filename F:\ЗАГРУЗКИ\ Buddha-Bar Collection I-XIV\11. Buddha-Bar XI By Ravin 2CD (2009)\CD1 Lavra\14. Woolfy vs Projections - We Were There.wav

Peak level 100.0 %
Extraction speed 6.3 X
Track quality 99.9 %
Test CRC 03174B88
Copy CRC 03174B88
Accurately ripped (confidence 9) [81124F0B]
Copy OK

Track 15

Filename F:\ЗАГРУЗКИ\ Buddha-Bar Collection I-XIV\11. Buddha-Bar XI By Ravin 2CD (2009)\CD1 Lavra\15. Nina & Chris Present Zeep - Agua.wav

Peak level 100.0 %
Extraction speed 5.6 X
Track quality 99.9 %
Test CRC D975AA15
Copy CRC D975AA15
Accurately ripped (confidence 9) [8A6CC551]
Copy OK

Track 16

Filename F:\ЗАГРУЗКИ\ Buddha-Bar Collection I-XIV\11. Buddha-Bar XI By Ravin 2CD (2009)\CD1 Lavra\16. Serafim Tsotsonis - Small 2.wav

Peak level 100.0 %
Extraction speed 7.5 X
Track quality 100.0 %
Test CRC FCF62AD0
Copy CRC FCF62AD0
Accurately ripped (confidence 9) [94782C4E]
Copy OK

Track 17

Filename F:\ЗАГРУЗКИ\ Buddha-Bar Collection I-XIV\11. Buddha-Bar XI By Ravin 2CD (2009)\CD1 Lavra\17. Me Caro & Franck Garcнa - Mon Ange.wav

Peak level 95.8 %
Extraction speed 6.7 X
Track quality 99.9 %
Test CRC F78E5925
Copy CRC F78E5925
Accurately ripped (confidence 9) [17392E0D]
Copy OK


All tracks accurately ripped

No errors occurred

End of status report

==== Log checksum 9ECB305C40C8048127AA450C4AB1DF9A762003DDD77FD0B8634408A0ECD54640 ====

––

Exact Audio Copy V1.0 beta 1 from 15. November 2010

EAC extraction logfile from 1. October 2012, 9:52

Various / Buddha Bar XI CD2 Khreschatik

Used drive : PLEXTOR DVDR PX-L890SA Adapter: 5 ID: 0

Read mode : Secure
Utilize accurate stream : Yes
Defeat audio cache : Yes
Make use of C2 pointers : No

Read offset correction : 6
Overread into Lead-In and Lead-Out : No
Fill up missing offset samples with silence : Yes
Delete leading and trailing silent blocks : No
Null samples used in CRC calculations : Yes
Used interface : Native Win32 interface for Win NT & 2000
Gap handling : Appended to previous track

Used output format : User Defined Encoder
Selected bitrate : 1024 kBit/s
Quality : High
Add ID3 tag : No
Command line compressor : C:\Program Files\Exact Audio Copy\Flac\flac.exe
Additional command line options : -8 -V -T "ARTIST=%a" -T "TITLE=%t" -T "ALBUM=%g" -T "DATE=%y" -T "TRACKNUMBER=%n" -T "GENRE=%m" -T "COMMENT=ripped by Oleandris" %s


TOC of the extracted CD

Track | Start | Length | Start sector | End sector
––––––––––––––––––––––––––––-
1 | 0:00.00 | 5:19.03 | 0 | 23927
2 | 5:19.03 | 5:02.12 | 23928 | 46589
3 | 10:21.15 | 3:50.36 | 46590 | 63875
4 | 14:11.51 | 4:39.03 | 63876 | 84803
5 | 18:50.54 | 5:46.12 | 84804 | 110765
6 | 24:36.66 | 4:20.36 | 110766 | 130301
7 | 28:57.27 | 3:53.07 | 130302 | 147783
8 | 32:50.34 | 6:38.00 | 147784 | 177633
9 | 39:28.34 | 5:03.18 | 177634 | 200376
10 | 44:31.52 | 5:10.51 | 200377 | 223677
11 | 49:42.28 | 4:28.26 | 223678 | 243803
12 | 54:10.54 | 5:43.56 | 243804 | 269584
13 | 59:54.35 | 6:24.57 | 269585 | 298441
14 | 66:19.17 | 4:56.23 | 298442 | 320664
15 | 71:15.40 | 5:27.27 | 320665 | 345216


Track 1

Filename F:\ЗАГРУЗКИ\ Buddha-Bar Collection I-XIV\11. Buddha-Bar XI By Ravin 2CD (2009)\CD2 Khreschatik\01. Bahramji Feat. Mashti - My Life.wav

Pre-gap length 0:00:02.00

Peak level 99.7 %
Extraction speed 4.1 X
Track quality 100.0 %
Test CRC 3812D604
Copy CRC 3812D604
Accurately ripped (confidence 9) [32342F24]
Copy OK

Track 2

Filename F:\ЗАГРУЗКИ\ Buddha-Bar Collection I-XIV\11. Buddha-Bar XI By Ravin 2CD (2009)\CD2 Khreschatik\02. Dj A - Piano Dream.wav

Peak level 100.0 %
Extraction speed 3.8 X
Track quality 99.9 %
Test CRC 11F636DD
Copy CRC 11F636DD
Accurately ripped (confidence 9) [193EAE7E]
Copy OK

Track 3

Filename F:\ЗАГРУЗКИ\ Buddha-Bar Collection I-XIV\11. Buddha-Bar XI By Ravin 2CD (2009)\CD2 Khreschatik\03. Rucyl - Love In War (Pete Gust KID Remix).wav

Peak level 100.0 %
Extraction speed 3.8 X
Track quality 99.9 %
Test CRC 57F93601
Copy CRC 57F93601
Accurately ripped (confidence 9) [E21E875F]
Copy OK

Track 4

Filename F:\ЗАГРУЗКИ\ Buddha-Bar Collection I-XIV\11. Buddha-Bar XI By Ravin 2CD (2009)\CD2 Khreschatik\04. Asli Gungor & Ferhat Gocer - Kalp Kalbe Karsi Hsyn Krdy Remix.wav

Peak level 100.0 %
Extraction speed 5.2 X
Track quality 100.0 %
Test CRC 393024DB
Copy CRC 393024DB
Accurately ripped (confidence 9) [B5D77858]
Copy OK

Track 5

Filename F:\ЗАГРУЗКИ\ Buddha-Bar Collection I-XIV\11. Buddha-Bar XI By Ravin 2CD (2009)\CD2 Khreschatik\05. Silky Sunday - Friend (Sandy Rivera Remix).wav

Peak level 87.1 %
Extraction speed 5.7 X
Track quality 100.0 %
Test CRC 949F5650
Copy CRC 949F5650
Accurately ripped (confidence 9) [84FC48D8]
Copy OK

Track 6

Filename F:\ЗАГРУЗКИ\ Buddha-Bar Collection I-XIV\11. Buddha-Bar XI By Ravin 2CD (2009)\CD2 Khreschatik\06. Glender - Echoes.wav

Peak level 99.9 %
Extraction speed 5.8 X
Track quality 100.0 %
Test CRC C8AEF263
Copy CRC C8AEF263
Accurately ripped (confidence 9) [9FC06822]
Copy OK

Track 7

Filename F:\ЗАГРУЗКИ\ Buddha-Bar Collection I-XIV\11. Buddha-Bar XI By Ravin 2CD (2009)\CD2 Khreschatik\07. Dave Seaman - Gobbledygook Remixes (Funkagenda Repulse Mix).wav

Peak level 100.0 %
Extraction speed 4.7 X
Track quality 99.9 %
Test CRC D7B68664
Copy CRC D7B68664
Accurately ripped (confidence 9) [34D2BE3D]
Copy OK

Track 8

Filename F:\ЗАГРУЗКИ\ Buddha-Bar Collection I-XIV\11. Buddha-Bar XI By Ravin 2CD (2009)\CD2 Khreschatik\08. Riham - Erja Ya Habebi (DJ Srulik Einhorn Mix).wav

Peak level 98.2 %
Extraction speed 6.7 X
Track quality 100.0 %
Test CRC EF43C4CC
Copy CRC EF43C4CC
Accurately ripped (confidence 9) [63D9997A]
Copy OK

Track 9

Filename F:\ЗАГРУЗКИ\ Buddha-Bar Collection I-XIV\11. Buddha-Bar XI By Ravin 2CD (2009)\CD2 Khreschatik\09. Loreena Mckennitt - Marrakesh Night Market (V-Sag Remix).wav

Peak level 100.0 %
Extraction speed 6.8 X
Track quality 100.0 %
Test CRC 60FD6506
Copy CRC 60FD6506
Accurately ripped (confidence 9) [3F148ABC]
Copy OK

Track 10

Filename F:\ЗАГРУЗКИ\ Buddha-Bar Collection I-XIV\11. Buddha-Bar XI By Ravin 2CD (2009)\CD2 Khreschatik\10. Dj Danjer - My Danjer Sound.wav

Peak level 100.0 %
Extraction speed 7.1 X
Track quality 100.0 %
Test CRC 731606F6
Copy CRC 731606F6
Accurately ripped (confidence 9) [3DE24ACF]
Copy OK

Track 11

Filename F:\ЗАГРУЗКИ\ Buddha-Bar Collection I-XIV\11. Buddha-Bar XI By Ravin 2CD (2009)\CD2 Khreschatik\11. De-Tuned - Sitar.wav

Peak level 100.0 %
Extraction speed 7.3 X
Track quality 100.0 %
Test CRC 551E6015
Copy CRC 551E6015
Accurately ripped (confidence 9) [74287B84]
Copy OK

Track 12

Filename F:\ЗАГРУЗКИ\ Buddha-Bar Collection I-XIV\11. Buddha-Bar XI By Ravin 2CD (2009)\CD2 Khreschatik\12. Dj Tatana - Spring Breeze (Martin Roth Summer Style Remix).wav

Peak level 75.8 %
Extraction speed 7.7 X
Track quality 100.0 %
Test CRC 81BB7496
Copy CRC 81BB7496
Accurately ripped (confidence 9) [403C64FF]
Copy OK

Track 13

Filename F:\ЗАГРУЗКИ\ Buddha-Bar Collection I-XIV\11. Buddha-Bar XI By Ravin 2CD (2009)\CD2 Khreschatik\13. Sumo Feat. Rigas - Tribute.wav

Peak level 100.0 %
Extraction speed 8.0 X
Track quality 100.0 %
Test CRC 754BC570
Copy CRC 754BC570
Accurately ripped (confidence 9) [E0CCE9B5]
Copy OK

Track 14

Filename F:\ЗАГРУЗКИ\ Buddha-Bar Collection I-XIV\11. Buddha-Bar XI By Ravin 2CD (2009)\CD2 Khreschatik\14. Taho - Shambhalla (WINK Interpretation).wav

Peak level 86.7 %
Extraction speed 8.2 X
Track quality 100.0 %
Test CRC F919EEFE
Copy CRC F919EEFE
Accurately ripped (confidence 9) [57903FBA]
Copy OK

Track 15

Filename F:\ЗАГРУЗКИ\ Buddha-Bar Collection I-XIV\11. Buddha-Bar XI By Ravin 2CD (2009)\CD2 Khreschatik\15. Dj Orkidea & David West - God's Garden.wav

Peak level 99.4 %
Extraction speed 8.5 X
Track quality 100.0 %
Test CRC F88910DC
Copy CRC F88910DC
Accurately ripped (confidence 8) [9C08F65B]
Copy OK


All tracks accurately ripped

No errors occurred

End of status report

==== Log checksum 73FC0371626CF28483F32F263F9FFF9933924FE8BF4F40C4909751B35FB33296 ====



[CUETools log; Date: 2017. 02. 21. 8:27:42; Version: 2.1.6]
[CTDB TOCID: WzEJOoLP4yIEeYVSmSPe31zv43o-] found.
Track | CTDB Status
1 | (46/47) Accurately ripped
2 | (46/47) Accurately ripped
3 | (46/47) Accurately ripped
4 | (46/47) Accurately ripped
5 | (46/47) Accurately ripped
6 | (46/47) Accurately ripped
7 | (46/47) Accurately ripped
8 | (46/47) Accurately ripped
9 | (46/47) Accurately ripped
10 | (46/47) Accurately ripped
11 | (45/47) Accurately ripped
12 | (46/47) Accurately ripped
13 | (46/47) Accurately ripped
14 | (44/47) Accurately ripped
15 | (46/47) Accurately ripped
16 | (45/47) Accurately ripped
17 | (44/47) Accurately ripped
[AccurateRip ID: 002c974c-02392249-09113811] found.
Track [ CRC | V2 ] Status
01 [f08bfe54|4a8f74a7] (35+30/74) Accurately ripped
02 [1da2e00d|c0c95dbc] (34+31/74) Accurately ripped
03 [6efdb46e|c466331d] (34+31/74) Accurately ripped
04 [e24b1c43|a58e038f] (34+31/74) Accurately ripped
05 [bd2fe111|8d7bf9d3] (34+31/74) Accurately ripped
06 [837e983e|9c87ebb7] (34+31/74) Accurately ripped
07 [bea70ec1|f4496b7f] (34+31/74) Accurately ripped
08 [ec6c2c2e|d757384c] (34+31/74) Accurately ripped
09 [7794ef4d|9ebfc635] (34+31/74) Accurately ripped
10 [1e41e8f5|83af3e8e] (34+31/74) Accurately ripped
11 [177d45fd|91cc21b6] (33+31/73) Accurately ripped
12 [5d67f16f|27afcedc] (34+31/74) Accurately ripped
13 [a1ecf372|1491120b] (34+31/74) Accurately ripped
14 [81124f0b|97538579] (34+31/74) Accurately ripped
15 [8a6cc551|f6a0580e] (34+31/74) Accurately ripped
16 [94782c4e|f943369b] (34+31/74) Accurately ripped
17 [17392e0d|89229eaf] (31+31/73) Accurately ripped
Offsetted by -676:
01 [bc21c953] (02/74) Accurately ripped
02 [f7fd18a2] (02/74) Accurately ripped
03 [4e8c2e44] (02/74) Accurately ripped
04 [cf4b637b] (02/74) Accurately ripped
05 [31b02f76] (02/74) Accurately ripped
06 [9d0874f4] (02/74) Accurately ripped
07 [834e851a] (02/74) Accurately ripped
08 [421756fe] (02/74) Accurately ripped
09 [7c821550] (02/74) Accurately ripped
10 [288ce58e] (02/74) Accurately ripped
11 [e04d6eae] (02/73) Accurately ripped
12 [dfb2cd34] (02/74) Accurately ripped
13 [183480a2] (02/74) Accurately ripped
14 [d75b5301] (02/74) Accurately ripped
15 [3e4db60c] (02/74) Accurately ripped
16 [5678a16a] (02/74) Accurately ripped
17 [1865e8e2] (02/73) Accurately ripped
Offsetted by -664:
01 [a7edc4bf] (00/74) No match (V2 was not tested)
02 [8e388fb2] (00/74) No match (V2 was not tested)
03 [fffb5416] (00/74) No match (V2 was not tested)
04 [b375b2a3] (00/74) No match (V2 was not tested)
05 [3ad659a3] (00/74) No match (V2 was not tested)
06 [a49a802f] (00/74) No match (V2 was not tested)
07 [b8fb3df3] (00/74) No match (V2 was not tested)
08 [b61f9550] (00/74) No match (V2 was not tested)
09 [d70fa2d3] (00/74) No match (V2 was not tested)
10 [2874aebb] (00/74) No match (V2 was not tested)
11 [1fa37a48] (00/73) No match (V2 was not tested)
12 [23f67034] (00/74) No match (V2 was not tested)
13 [0c7fdbb1] (00/74) No match (V2 was not tested)
14 [15b4ea80] (00/74) No match (V2 was not tested)
15 [ddd83495] (00/74) No match (V2 was not tested)
16 [bd9cd414] (00/74) No match (V2 was not tested)
17 [77a6f2f5] (00/73) No match (V2 was not tested)
Offsetted by -74:
01 [157a3d4a] (00/74) No match (V2 was not tested)
02 [e2e8dac7] (00/74) No match (V2 was not tested)
03 [939ab978] (00/74) No match (V2 was not tested)
04 [2be57a39] (00/74) No match (V2 was not tested)
05 [f5e24464] (00/74) No match (V2 was not tested)
06 [80fe5096] (00/74) No match (V2 was not tested)
07 [97eb5c89] (00/74) No match (V2 was not tested)
08 [c93c18f9] (00/74) No match (V2 was not tested)
09 [97777a73] (00/74) No match (V2 was not tested)
10 [08cb9438] (00/74) No match (V2 was not tested)
11 [d7161c5f] (00/73) No match (V2 was not tested)
12 [eecea64c] (00/74) No match (V2 was not tested)
13 [5762799c] (00/74) No match (V2 was not tested)
14 [2134883c] (00/74) No match (V2 was not tested)
15 [224ae665] (00/74) No match (V2 was not tested)
16 [c5f27176] (00/74) No match (V2 was not tested)
17 [aaadb6db] (00/73) No match (V2 was not tested)
Offsetted by -6:
01 [40b9022b] (00/74) No match (V2 was not tested)
02 [b188a305] (00/74) No match (V2 was not tested)
03 [e9d4534c] (00/74) No match (V2 was not tested)
04 [e77dd023] (00/74) No match (V2 was not tested)
05 [30cf494d] (00/74) No match (V2 was not tested)
06 [b7c2d80d] (00/74) No match (V2 was not tested)
07 [a2321e63] (00/74) No match (V2 was not tested)
08 [2e2c9ccf] (00/74) No match (V2 was not tested)
09 [7b659981] (00/74) No match (V2 was not tested)
10 [59aecb6c] (00/74) No match (V2 was not tested)
11 [2fd85138] (00/73) No match (V2 was not tested)
12 [be360385] (00/74) No match (V2 was not tested)
13 [4ca1c1d0] (00/74) No match (V2 was not tested)
14 [510772ff] (00/74) No match (V2 was not tested)
15 [1f59ecd0] (00/74) No match (V2 was not tested)
16 [a0493415] (00/74) No match (V2 was not tested)
17 [c9c1a7d6] (00/73) No match (V2 was not tested)

Track Peak [ CRC32 ] [W/O NULL] [ LOG ]
– 100,0 [1E0F9C53] [848D9BBA]
01 98,5 [6CE17400] [5BEAC544] CRC32
02 100,0 [070A213E] [35527C55] CRC32
03 100,0 [4903401D] [3A3F2FBC] CRC32
04 100,0 [72FC11EA] [BF4DA7BA] CRC32
05 100,0 [D4B83DAB] [88CFA0F0] CRC32
06 100,0 [5000863E] [A598E3BC] CRC32
07 100,0 [48B7ED8F] [B679CEE9] CRC32
08 93,6 [5082285B] [BF2A2FC1] CRC32
09 100,0 [DE2EC54A] [998DCAEC] CRC32
10 100,0 [6CFAC67E] [145C616B] CRC32
11 100,0 [54F8121C] [AC5B53F5] CRC32
12 100,0 [F1B2394D] [43019575] CRC32
13 100,0 [0F8F6FDA] [21B50548] CRC32
14 100,0 [03174B88] [A79D4A8D] CRC32
15 100,0 [D975AA15] [EB1CEA66] CRC32
16 100,0 [FCF62AD0] [16CEDBE2] CRC32
17 95,8 [F78E5925] [9AFFC007] CRC32



[CUETools log; Date: 2017. 02. 21. 8:28:09; Version: 2.1.6]
[CTDB TOCID: dyJ4ydAeibyoShxT9j2wjHuSoXo-] found.
Track | CTDB Status
1 | (38/39) Accurately ripped
2 | (39/39) Accurately ripped
3 | (39/39) Accurately ripped
4 | (39/39) Accurately ripped
5 | (39/39) Accurately ripped
6 | (39/39) Accurately ripped
7 | (39/39) Accurately ripped
8 | (39/39) Accurately ripped
9 | (39/39) Accurately ripped
10 | (38/39) Accurately ripped
11 | (38/39) Accurately ripped
12 | (39/39) Accurately ripped
13 | (39/39) Accurately ripped
14 | (39/39) Accurately ripped
15 | (39/39) Accurately ripped
[AccurateRip ID: 002901dc-01d3642b-e611fa0f] found.
Track [ CRC | V2 ] Status
01 [32342f24|5f80ca24] (33+31/68) Accurately ripped
02 [193eae7e|2dd3b9e7] (34+31/67) Accurately ripped
03 [e21e875f|0e0e2ffa] (33+31/66) Accurately ripped
04 [b5d77858|ee04cf56] (33+31/68) Accurately ripped
05 [84fc48d8|fdc8f156] (33+31/68) Accurately ripped
06 [9fc06822|35331255] (33+31/66) Accurately ripped
07 [34d2be3d|d37d0dc9] (33+31/66) Accurately ripped
08 [63d9997a|3c67f793] (33+31/68) Accurately ripped
09 [3f148abc|305f33e9] (33+31/66) Accurately ripped
10 [3de24acf|fb1d14dc] (32+31/65) Accurately ripped
11 [74287b84|89740af6] (33+31/66) Accurately ripped
12 [403c64ff|72832416] (34+31/67) Accurately ripped
13 [e0cce9b5|657c7ba5] (33+31/66) Accurately ripped
14 [57903fba|c35a579d] (33+31/66) Accurately ripped
15 [9c08f65b|61ffe368] (33+30/65) Accurately ripped
Offsetted by -1343:
01 [12ad3d11] (00/68) No match (V2 was not tested)
02 [e1e6b927] (00/67) No match (V2 was not tested)
03 [5b90f9b8] (00/66) No match (V2 was not tested)
04 [afa20307] (00/68) No match (V2 was not tested)
05 [6116fbcf] (00/68) No match (V2 was not tested)
06 [15395489] (00/66) No match (V2 was not tested)
07 [313e1efe] (00/66) No match (V2 was not tested)
08 [752a5c43] (00/68) No match (V2 was not tested)
09 [17c11cf1] (00/66) No match (V2 was not tested)
10 [bc2b2713] (00/65) No match (V2 was not tested)
11 [278c4a0e] (00/66) No match (V2 was not tested)
12 [1721b339] (00/67) No match (V2 was not tested)
13 [0d998038] (00/66) No match (V2 was not tested)
14 [61463433] (00/66) No match (V2 was not tested)
15 [8cce9389] (00/65) No match (V2 was not tested)
Offsetted by -676:
01 [9831444e] (02/68) Accurately ripped
02 [66f94cca] (00/67) No match (V2 was not tested)
03 [d21df7fb] (00/66) No match (V2 was not tested)
04 [91534bd0] (02/68) Accurately ripped
05 [616a2b21] (02/68) Accurately ripped
06 [d5123fac] (00/66) No match
07 [c6de2b34] (00/66) No match
08 [671e5d48] (02/68) Accurately ripped
09 [ac93d2b5] (00/66) No match
10 [f0007b99] (00/65) No match
11 [c8631389] (00/66) No match
12 [dab85ea9] (00/67) No match
13 [19072a9b] (00/66) No match (V2 was not tested)
14 [88dda2e3] (00/66) No match
15 [bc9009f4] (00/65) No match
Offsetted by -664:
01 [d77307b0] (00/68) No match (V2 was not tested)
02 [2db4a6b2] (00/67) No match (V2 was not tested)
03 [e75b7986] (00/66) No match (V2 was not tested)
04 [f04eac09] (00/68) No match (V2 was not tested)
05 [d1c81e59] (00/68) No match (V2 was not tested)
06 [94b45212] (00/66) No match (V2 was not tested)
07 [f76da3b7] (00/66) No match (V2 was not tested)
08 [8ddf58f4] (00/68) No match (V2 was not tested)
09 [2893effa] (00/66) No match (V2 was not tested)
10 [75a64201] (00/65) No match (V2 was not tested)
11 [83a328df] (00/66) No match (V2 was not tested)
12 [d3663c0b] (00/67) No match (V2 was not tested)
13 [1f8b998b] (00/66) No match (V2 was not tested)
14 [754c4485] (00/66) No match (V2 was not tested)
15 [0de3d6fa] (00/65) No match (V2 was not tested)
Offsetted by -6:
01 [36eaabf9] (00/68) No match (V2 was not tested)
02 [2472b259] (00/67) No match (V2 was not tested)
03 [d5d482a8] (00/66) No match (V2 was not tested)
04 [d2ada8ee] (00/68) No match (V2 was not tested)
05 [2dc10847] (00/68) No match (V2 was not tested)
06 [9055c5ef] (00/66) No match (V2 was not tested)
07 [0e625828] (00/66) No match (V2 was not tested)
08 [81b95532] (00/68) No match (V2 was not tested)
09 [863e5cc0] (00/66) No match (V2 was not tested)
10 [d398f5e8] (00/65) No match (V2 was not tested)
11 [d20edac6] (00/66) No match (V2 was not tested)
12 [095b2d46] (00/67) No match (V2 was not tested)
13 [3d1985b4] (00/66) No match (V2 was not tested)
14 [c695011c] (00/66) No match (V2 was not tested)
15 [c23aa8ac] (00/65) No match (V2 was not tested)

Track Peak [ CRC32 ] [W/O NULL] [ LOG ]
– 100,0 [601C3B6F] [E234D752]
01 99,7 [3812D604] [70AE48D0] CRC32
02 100,0 [11F636DD] [36A94CB2] CRC32
03 100,0 [57F93601] [C931FAC5] CRC32
04 100,0 [393024DB] [01E7A561] CRC32
05 87,1 [949F5650] [3E55E3D2] CRC32
06 99,9 [C8AEF263] [B1F594BA] CRC32
07 100,0 [D7B68664] [19F16F3A] CRC32
08 98,2 [EF43C4CC] [0B13D463] CRC32
09 100,0 [60FD6506] [FE4EDBC8] CRC32
10 100,0 [731606F6] [AD9E9761] CRC32
11 100,0 [551E6015] [44D19A42] CRC32
12 75,8 [81BB7496] [60857A23] CRC32
13 100,0 [754BC570] [566F243D] CRC32
14 86,7 [F919EEFE] [3318CAC3] CRC32
15 99,4 [F88910DC] [CCB67129] CRC32




Thx to oleandris