Subcategories

VA - Buena Vista Cuba: Música de Cuba (2005)

Posted By: jclane
VA - Buena Vista Cuba: Música de Cuba (2005)

VA - Buena Vista Cuba: Música de Cuba (2005)
XLD Rip | 2CDs | FLAC Image + Cue + Log => 936 MB | MP3 CBR @320 kbps => 313 MB | Full scans => 155 MB
Label: Music Ddigital / Delta Music GmbH. | Catalog.#: 55 996 | Genre: Afro-Cuban Jazz

Buena Vista Cuba is a Compilation of traditional cuban music, released in 2005 on the Delta Music label.
CD1

01. Ima América - Guantanamera - 04:07
02. Jorge De Souza - Sonríe - 03:51
03. Grandes Artistas De Cuba - Siboney - 03:40
04. Ng La Banda Murakamis - Mambo - 06:19
05. Franco Garcia - Casual Encuentro - 03:36
06. Los Van Van - Ya Empezó La Fiesta - 05:57
07. Issac Delgado - Vamos A Andar - 04:45
08. Pachito Alonso - La Habana Me Queda Chiquita - 04:36
09. Marco Valdez - Sí Señor - 04:11
10. Bemba Colorá - Bamboleo - 04:26
11. Grandes Artistas De Cuba - Échale Salsita - 02:44
12. Valdeci Oliveira - Volverás - 03:43
13. Duke Pachanga - Chan-Chan - 03:14
14. Anais Abreu - Alma - 04:39
15. Posi Collantes - Hoy Mi Voz - 06:20


X Lossless Decoder version 20120407 (140.0)

XLD extraction logfile from 2012-05-05 02:41:11 +0300

VA / Buena Vista Cuba CD1

Used drive : MATSHITA DVD-R UJ-898 (revision HC09)

Ripper mode : XLD Secure Ripper
Disable audio cache : OK for the drive with a cache less than 1375KiB
Make use of C2 pointers : NO
Read offset correction : 102
Max retry count : 20
Gap status : Analyzed, Appended

TOC of the extracted CD
Track | Start | Length | Start sector | End sector
––––––––––––––––––––––––––––-
1 | 00:00:00 | 04:07:50 | 0 | 18574
2 | 04:07:50 | 03:51:61 | 18575 | 35960
3 | 07:59:36 | 03:40:46 | 35961 | 52506
4 | 11:40:07 | 06:19:49 | 52507 | 80980
5 | 17:59:56 | 03:36:65 | 80981 | 97245
6 | 21:36:46 | 05:57:16 | 97246 | 124036
7 | 27:33:62 | 04:45:13 | 124037 | 145424
8 | 32:19:00 | 04:36:21 | 145425 | 166145
9 | 36:55:21 | 04:11:15 | 166146 | 184985
10 | 41:06:36 | 04:26:01 | 184986 | 204936
11 | 45:32:37 | 02:44:72 | 204937 | 217308
12 | 48:17:34 | 03:43:26 | 217309 | 234059
13 | 52:00:60 | 03:14:53 | 234060 | 248662
14 | 55:15:38 | 04:39:38 | 248663 | 269625
15 | 59:55:01 | 06:20:50 | 269626 | 298175

AccurateRip Summary
Track 01 : NG
Track 02 : NG
Track 03 : NG
Track 04 : NG
Track 05 : NG
Track 06 : NG
Track 07 : NG
Track 08 : NG
Track 09 : NG
Track 10 : NG
Track 11 : NG
Track 12 : NG
Track 13 : NG
Track 14 : NG
Track 15 : NG
->0 track(s) accurately ripped, 15 track(s) not, 0 track(s) not found

All Tracks
Filename : /Users/macuser/Music/myRips/VA-buena vista cuba(2CD)-2005/01 VA - Buena Vista Cuba CD1.flac
Album gain : -8.87 dB
Peak : 0.988586
CRC32 hash (test run) : E0D26C0A
CRC32 hash : E0D26C0A
CRC32 hash (skip zero) : 67796395
Statistics
Read error : 0
Jitter error (maybe fixed) : 0
Retry sector count : 0
Damaged sector count : 0

Track 01
Pre-gap length : 00:02:00

Track gain : -7.54 dB
Peak : 0.988586
CRC32 hash (test run) : 08F0514D
CRC32 hash : 08F0514D
CRC32 hash (skip zero) : 1094DEBA
AccurateRip signature : A1C231CA
->Rip may not be accurate.
Statistics
Read error : 0
Jitter error (maybe fixed) : 0
Retry sector count : 0
Damaged sector count : 0

Track 02

Track gain : -8.13 dB
Peak : 0.988586
CRC32 hash (test run) : 17D7712D
CRC32 hash : 17D7712D
CRC32 hash (skip zero) : DD033B3B
AccurateRip signature : 41F10710
->Rip may not be accurate.
Statistics
Read error : 0
Jitter error (maybe fixed) : 0
Retry sector count : 0
Damaged sector count : 0

Track 03

Track gain : -9.78 dB
Peak : 0.982452
CRC32 hash (test run) : 30BB89C8
CRC32 hash : 30BB89C8
CRC32 hash (skip zero) : 44E2BC97
AccurateRip signature : 6B24D035
->Rip may not be accurate.
Statistics
Read error : 0
Jitter error (maybe fixed) : 0
Retry sector count : 0
Damaged sector count : 0

Track 04

Track gain : -9.84 dB
Peak : 0.988586
CRC32 hash (test run) : 879A7BEB
CRC32 hash : 879A7BEB
CRC32 hash (skip zero) : 793B11D0
AccurateRip signature : 5BD96762
->Rip may not be accurate.
Statistics
Read error : 0
Jitter error (maybe fixed) : 0
Retry sector count : 0
Damaged sector count : 0

Track 05

Track gain : -6.37 dB
Peak : 0.988586
CRC32 hash (test run) : 373A08ED
CRC32 hash : 373A08ED
CRC32 hash (skip zero) : F73B9338
AccurateRip signature : 96317079
->Rip may not be accurate.
Statistics
Read error : 0
Jitter error (maybe fixed) : 0
Retry sector count : 0
Damaged sector count : 0

Track 06

Track gain : -9.09 dB
Peak : 0.988586
CRC32 hash (test run) : 43FCD02A
CRC32 hash : 43FCD02A
CRC32 hash (skip zero) : 09FF78F3
AccurateRip signature : 7F7128EE
->Rip may not be accurate.
Statistics
Read error : 0
Jitter error (maybe fixed) : 0
Retry sector count : 0
Damaged sector count : 0

Track 07

Track gain : -8.99 dB
Peak : 0.988586
CRC32 hash (test run) : 27A22379
CRC32 hash : 27A22379
CRC32 hash (skip zero) : E5BB557D
AccurateRip signature : 964C2D9E
->Rip may not be accurate.
Statistics
Read error : 0
Jitter error (maybe fixed) : 0
Retry sector count : 0
Damaged sector count : 0

Track 08

Track gain : -8.57 dB
Peak : 0.977234
CRC32 hash (test run) : A867D025
CRC32 hash : A867D025
CRC32 hash (skip zero) : EC26F64E
AccurateRip signature : 1CC38788
->Rip may not be accurate.
Statistics
Read error : 0
Jitter error (maybe fixed) : 0
Retry sector count : 0
Damaged sector count : 0

Track 09

Track gain : -7.03 dB
Peak : 0.988586
CRC32 hash (test run) : 58CFDF00
CRC32 hash : 58CFDF00
CRC32 hash (skip zero) : C6C830D1
AccurateRip signature : 6FF502C3
->Rip may not be accurate.
Statistics
Read error : 0
Jitter error (maybe fixed) : 0
Retry sector count : 0
Damaged sector count : 0

Track 10

Track gain : -8.73 dB
Peak : 0.975677
CRC32 hash (test run) : CB6EADCA
CRC32 hash : CB6EADCA
CRC32 hash (skip zero) : 9DAFE8A2
AccurateRip signature : 2BCC119D
->Rip may not be accurate.
Statistics
Read error : 0
Jitter error (maybe fixed) : 0
Retry sector count : 0
Damaged sector count : 0

Track 11

Track gain : -8.16 dB
Peak : 0.988586
CRC32 hash (test run) : 3FCA1B18
CRC32 hash : 3FCA1B18
CRC32 hash (skip zero) : C90EB9C4
AccurateRip signature : 9D217440
->Rip may not be accurate.
Statistics
Read error : 0
Jitter error (maybe fixed) : 0
Retry sector count : 0
Damaged sector count : 0

Track 12

Track gain : -8.27 dB
Peak : 0.988586
CRC32 hash (test run) : ED7D13A0
CRC32 hash : ED7D13A0
CRC32 hash (skip zero) : F914FDC2
AccurateRip signature : 9137DF50
->Rip may not be accurate.
Statistics
Read error : 0
Jitter error (maybe fixed) : 0
Retry sector count : 0
Damaged sector count : 0

Track 13

Track gain : -9.38 dB
Peak : 0.988586
CRC32 hash (test run) : EDAC32EC
CRC32 hash : EDAC32EC
CRC32 hash (skip zero) : E300A5B0
AccurateRip signature : C35F6DE7
->Rip may not be accurate.
Statistics
Read error : 0
Jitter error (maybe fixed) : 0
Retry sector count : 0
Damaged sector count : 0

Track 14

Track gain : -10.49 dB
Peak : 0.988586
CRC32 hash (test run) : 48E0FADC
CRC32 hash : 48E0FADC
CRC32 hash (skip zero) : 1F5245E3
AccurateRip signature : 76A7A9E7
->Rip may not be accurate.
Statistics
Read error : 0
Jitter error (maybe fixed) : 0
Retry sector count : 0
Damaged sector count : 0

Track 15

Track gain : -6.75 dB
Peak : 0.988586
CRC32 hash (test run) : 68B4A049
CRC32 hash : 68B4A049
CRC32 hash (skip zero) : 2DB23E1F
AccurateRip signature : 5AF4C908
->Rip may not be accurate.
Statistics
Read error : 0
Jitter error (maybe fixed) : 0
Retry sector count : 0
Damaged sector count : 0

Some inconsistencies found

End of status rep


[CUETools log; Date: 9/9/2013 9:35:19 PM; Version: 2.1.4]
[AccurateRip ID: 00244b8b-019aca57-df0f870f] found.
Track [ CRC | V2 ] Status
01 [a1c231ca|d856178a] (0+0/2) No match
02 [41f10710|6b499689] (0+0/2) No match
03 [6b24d035|574510b6] (0+0/2) No match
04 [5bd96762|acd340ff] (0+0/2) No match
05 [96317079|34ceb634] (0+0/2) No match
06 [7f7128ee|fe9e9f0b] (0+0/2) No match
07 [964c2d9e|bd0fc17f] (0+0/2) No match
08 [1cc38788|c141c028] (0+0/2) No match
09 [6ff502c3|8c7516e5] (0+0/2) No match
10 [2bcc119d|bd4aa4e7] (0+0/2) No match
11 [9d217440|3f9ab6e6] (0+0/2) No match
12 [9137df50|269afae7] (0+0/2) No match
13 [c35f6de7|52d00642] (0+0/2) No match
14 [76a7a9e7|9733ab86] (0+0/2) No match
15 [5af4c908|359cf945] (0+0/2) No match

Track Peak [ CRC32 ] [W/O NULL]
– 98.8 [E0D26C0A] [67796395]
01 98.8 [08F0514D] [1094DEBA]
02 98.8 [17D7712D] [DD033B3B]
03 98.2 [30BB89C8] [44E2BC97]
04 98.8 [879A7BEB] [793B11D0]
05 98.8 [373A08ED] [F73B9338]
06 98.8 [43FCD02A] [09FF78F3]
07 98.8 [27A22379] [E5BB557D]
08 97.7 [A867D025] [EC26F64E]
09 98.8 [58CFDF00] [C6C830D1]
10 97.5 [CB6EADCA] [9DAFE8A2]
11 98.8 [3FCA1B18] [C90EB9C4]
12 98.8 [ED7D13A0] [F914FDC2]
13 98.8 [EDAC32EC] [E300A5B0]
14 98.8 [48E0FADC] [1F5245E3]
15 98.8 [68B4A049] [2DB23E1F]


CD2

01. Gonzales - Mi corazón hace tic-tac - 03:11
02. Anacaono - A amarme decidete - 05:34
03. Los Van Van - Llévala a tu vacilón - 06:49
04. Valdeci Oliveira - Pandara - 03:53
05. Issac Delgado - Yo te quería María - 03:46
06. Ng La Banda - Los sitios entero - 03:51
07. Posi Collantes - Bacuranao - 03:16
08. Grandes Artistas De Cuba - El manisero - 04:00
09. Anais Abreu - Una decepción - 05:34
10. Jorge Moreno - Vuela - 03:52
11. Adalberto AlvarezY - Que tu quieres que te den - 05:27
12. Valdeci Oliveira - Oye como va - 04:25
13. Voces Del Sur - Yo te seguiré - 05:30
14. Ima América - Lo que me gusta de ti - 04:00
15. Katharina - Dos gardenias - Bolero - 03:03


X Lossless Decoder version 20120407 (140.0)

XLD extraction logfile from 2012-05-04 22:28:29 +0300

VA / Musica de Cuba CD2

Used drive : MATSHITA DVD-R UJ-898 (revision HC09)

Ripper mode : XLD Secure Ripper
Disable audio cache : OK for the drive with a cache less than 1375KiB
Make use of C2 pointers : NO
Read offset correction : 102
Max retry count : 20
Gap status : Analyzed, Appended

TOC of the extracted CD
Track | Start | Length | Start sector | End sector
––––––––––––––––––––––––––––-
1 | 00:00:00 | 03:11:41 | 0 | 14365
2 | 03:11:41 | 05:34:05 | 14366 | 39420
3 | 08:45:46 | 06:49:34 | 39421 | 70129
4 | 15:35:05 | 03:53:38 | 70130 | 87642
5 | 19:28:43 | 03:46:42 | 87643 | 104634
6 | 23:15:10 | 03:51:60 | 104635 | 122019
7 | 27:06:70 | 03:16:62 | 122020 | 136781
8 | 30:23:57 | 04:00:54 | 136782 | 154835
9 | 34:24:36 | 05:34:25 | 154836 | 179910
10 | 39:58:61 | 03:52:74 | 179911 | 197384
11 | 43:51:60 | 05:27:14 | 197385 | 221923
12 | 49:18:74 | 04:25:69 | 221924 | 241867
13 | 53:44:68 | 05:30:17 | 241868 | 266634
14 | 59:15:10 | 04:00:33 | 266635 | 284667
15 | 63:15:43 | 03:03:27 | 284668 | 298419

AccurateRip Summary
Track 01 : NG
Track 02 : NG
Track 03 : NG
Track 04 : NG
Track 05 : NG
Track 06 : NG
Track 07 : NG
Track 08 : NG
Track 09 : NG
Track 10 : NG
Track 11 : NG
Track 12 : NG
Track 13 : NG
Track 14 : NG
Track 15 : NG
->0 track(s) accurately ripped, 15 track(s) not, 0 track(s) not found

All Tracks
Filename : /Users/macuser/Music/myRips/VA-buena vista cuba(2CD)-2005/01 VA - Musica de Cuba CD2.flac
Album gain : -9.21 dB
Peak : 0.988586
CRC32 hash (test run) : 01144D72
CRC32 hash : 01144D72
CRC32 hash (skip zero) : AFAD5B2E
Statistics
Read error : 0
Jitter error (maybe fixed) : 0
Retry sector count : 0
Damaged sector count : 0

Track 01
Pre-gap length : 00:02:00

Track gain : -7.29 dB
Peak : 0.988586
CRC32 hash (test run) : 8289F7B3
CRC32 hash : 8289F7B3
CRC32 hash (skip zero) : CA7B5F0C
AccurateRip signature : 74D69F6B
->Rip may not be accurate.
Statistics
Read error : 0
Jitter error (maybe fixed) : 0
Retry sector count : 0
Damaged sector count : 0

Track 02

Track gain : -9.96 dB
Peak : 0.988556
CRC32 hash (test run) : C98B037C
CRC32 hash : C98B037C
CRC32 hash (skip zero) : EDFA77D5
AccurateRip signature : 282A2EA9
->Rip may not be accurate.
Statistics
Read error : 0
Jitter error (maybe fixed) : 0
Retry sector count : 0
Damaged sector count : 0

Track 03

Track gain : -9.68 dB
Peak : 0.988556
CRC32 hash (test run) : CCA36539
CRC32 hash : CCA36539
CRC32 hash (skip zero) : 2543A56D
AccurateRip signature : AFE91A24
->Rip may not be accurate.
Statistics
Read error : 0
Jitter error (maybe fixed) : 0
Retry sector count : 0
Damaged sector count : 0

Track 04

Track gain : -8.31 dB
Peak : 0.988586
CRC32 hash (test run) : 1474EA2F
CRC32 hash : 1474EA2F
CRC32 hash (skip zero) : 66298E4B
AccurateRip signature : 4B2E4ED9
->Rip may not be accurate.
Statistics
Read error : 0
Jitter error (maybe fixed) : 0
Retry sector count : 0
Damaged sector count : 0

Track 05

Track gain : -8.67 dB
Peak : 0.988556
CRC32 hash (test run) : EE8F5C39
CRC32 hash : EE8F5C39
CRC32 hash (skip zero) : 6801F76A
AccurateRip signature : EC876D1D
->Rip may not be accurate.
Statistics
Read error : 0
Jitter error (maybe fixed) : 0
Retry sector count : 0
Damaged sector count : 0

Track 06

Track gain : -10.04 dB
Peak : 0.988586
CRC32 hash (test run) : 5368198A
CRC32 hash : 5368198A
CRC32 hash (skip zero) : C37BF7F3
AccurateRip signature : 1076418B
->Rip may not be accurate.
Statistics
Read error : 0
Jitter error (maybe fixed) : 0
Retry sector count : 0
Damaged sector count : 0

Track 07

Track gain : -7.14 dB
Peak : 0.988586
CRC32 hash (test run) : 7B0461D7
CRC32 hash : 7B0461D7
CRC32 hash (skip zero) : 30AE6B55
AccurateRip signature : 1C2C58FC
->Rip may not be accurate.
Statistics
Read error : 0
Jitter error (maybe fixed) : 0
Retry sector count : 0
Damaged sector count : 0

Track 08

Track gain : -10.29 dB
Peak : 0.988586
CRC32 hash (test run) : 94D088EF
CRC32 hash : 94D088EF
CRC32 hash (skip zero) : 586BC45A
AccurateRip signature : FF018FCC
->Rip may not be accurate.
Statistics
Read error : 0
Jitter error (maybe fixed) : 0
Retry sector count : 0
Damaged sector count : 0

Track 09

Track gain : -10.43 dB
Peak : 0.988586
CRC32 hash (test run) : 7A841026
CRC32 hash : 7A841026
CRC32 hash (skip zero) : 1A9E588D
AccurateRip signature : 414BAA66
->Rip may not be accurate.
Statistics
Read error : 0
Jitter error (maybe fixed) : 0
Retry sector count : 0
Damaged sector count : 0

Track 10

Track gain : -8.01 dB
Peak : 0.988586
CRC32 hash (test run) : 04D9C1F0
CRC32 hash : 04D9C1F0
CRC32 hash (skip zero) : E59B78A6
AccurateRip signature : F14ED646
->Rip may not be accurate.
Statistics
Read error : 0
Jitter error (maybe fixed) : 0
Retry sector count : 0
Damaged sector count : 0

Track 11

Track gain : -9.17 dB
Peak : 0.988556
CRC32 hash (test run) : 62E14A35
CRC32 hash : 62E14A35
CRC32 hash (skip zero) : CFFAD4D7
AccurateRip signature : 43356BFE
->Rip may not be accurate.
Statistics
Read error : 0
Jitter error (maybe fixed) : 0
Retry sector count : 0
Damaged sector count : 0

Track 12

Track gain : -6.70 dB
Peak : 0.988556
CRC32 hash (test run) : F4BCD797
CRC32 hash : F4BCD797
CRC32 hash (skip zero) : 7AB92423
AccurateRip signature : 8D5ED852
->Rip may not be accurate.
Statistics
Read error : 0
Jitter error (maybe fixed) : 0
Retry sector count : 0
Damaged sector count : 0

Track 13

Track gain : -8.13 dB
Peak : 0.988525
CRC32 hash (test run) : D1FC62BC
CRC32 hash : D1FC62BC
CRC32 hash (skip zero) : A9A22A3E
AccurateRip signature : 8DA2D1AD
->Rip may not be accurate.
Statistics
Read error : 0
Jitter error (maybe fixed) : 0
Retry sector count : 0
Damaged sector count : 0

Track 14

Track gain : -8.58 dB
Peak : 0.988586
CRC32 hash (test run) : 45985E80
CRC32 hash : 45985E80
CRC32 hash (skip zero) : DD96B8F4
AccurateRip signature : 7DF10BE6
->Rip may not be accurate.
Statistics
Read error : 0
Jitter error (maybe fixed) : 0
Retry sector count : 0
Damaged sector count : 0

Track 15

Track gain : -9.30 dB
Peak : 0.988525
CRC32 hash (test run) : 55690CD7
CRC32 hash : 55690CD7
CRC32 hash (skip zero) : 621B0B84
AccurateRip signature : 8E01681A
->Rip may not be accurate.
Statistics
Read error : 0
Jitter error (maybe fixed) : 0
Retry sector count : 0
Damaged sector count : 0

Some inconsistencies found

End of status report


[CUETools log; Date: 9/9/2013 9:39:13 PM; Version: 2.1.4]
[AccurateRip ID: 0024efa4-01a1f358-dc0f8a0f] found.
Track [ CRC | V2 ] Status
01 [74d69f6b|b096417d] (0+0/2) No match
02 [282a2ea9|7779809c] (0+0/2) No match
03 [afe91a24|da9b001f] (0+0/2) No match
04 [4b2e4ed9|9b2fb98d] (0+0/2) No match
05 [ec876d1d|9b68869c] (0+0/2) No match
06 [1076418b|b5a5d7b1] (0+0/2) No match
07 [1c2c58fc|3c05ff2d] (0+0/2) No match
08 [ff018fcc|6e049422] (0+0/2) No match
09 [414baa66|b3bce15d] (0+0/2) No match
10 [f14ed646|1818eed2] (0+0/2) No match
11 [43356bfe|fc52fa9f] (0+0/2) No match
12 [8d5ed852|f9dbf3a8] (0+0/2) No match
13 [8da2d1ad|113d5ca1] (0+0/2) No match
14 [7df10be6|d9f03236] (0+0/2) No match
15 [8e01681a|ad0154b0] (0+0/2) No match

Track Peak [ CRC32 ] [W/O NULL]
– 98.8 [01144D72] [AFAD5B2E]
01 98.8 [8289F7B3] [CA7B5F0C]
02 98.8 [C98B037C] [EDFA77D5]
03 98.8 [CCA36539] [2543A56D]
04 98.8 [1474EA2F] [66298E4B]
05 98.8 [EE8F5C39] [6801F76A]
06 98.8 [5368198A] [C37BF7F3]
07 98.8 [7B0461D7] [30AE6B55]
08 98.8 [94D088EF] [586BC45A]
09 98.8 [7A841026] [1A9E588D]
10 98.8 [04D9C1F0] [E59B78A6]
11 98.8 [62E14A35] [CFFAD4D7]
12 98.8 [F4BCD797] [7AB92423]
13 98.8 [D1FC62BC] [A9A22A3E]
14 98.8 [45985E80] [DD96B8F4]
15 98.8 [55690CD7] [621B0B84]


–––––––––––––––––––––––––––––––––––––––––-

Released Date: 2005
Format: 2 x CD, Compilation
Length: 1:06:15 (CD1) | 1:06:18 (CD2)

VA - Buena Vista Cuba: Música de Cuba (2005)
VA - Buena Vista Cuba: Música de Cuba (2005)
VA - Buena Vista Cuba: Música de Cuba (2005)

CD Rip by igaann

If you have any questions about this publication, please send me a private message.