VA - Christmas Hits: 50 Original Classics (2007)

Posted By: Pisulik
VA - Christmas Hits: 50 Original Classics (2007)

VA - Christmas Hits: 50 Original Classics (2007)
EAC Rip | FLAC (Tracks) +cue, log, artworks - 765 MB | MP3 CBR 320 kbps - 334 MB | 02:24:23
Jazz, Vocal Jazz, Christmas | Label: Not Now Music | Release Year: 2007

This festive season enjoy a collection of best loved Christmas songs from a selection of classic singers. 'Christmas Hits' comprises of 50 digitally remastered tracks across 2CDs making this set the perfect stocking filler for any music lover. Featuring iconic tracks from Bing Crosby, Judy Garland, Frank Sinatra, Doris Day, Eartha Kitt and many more and including both chart toppers and traditional carols, this compilation makes for an excellent soundtrack to your Christmas.

TRACKLIST

CD1

01. Bing Crosby – White Christmas
02. Judy Garland – Have Yourself A Merry Little Christmas
03. Nat 'King' Cole – The Christmas Song (Merry Christmas To You)
04. Eartha Kitt – Santa Baby
05. Frank Sinatra – Santa Claus Is Comin' To Town
06. Leroy Anderson And His Orchestra – Sleigh Ride
07. Doris Day – Here Comes Santa Claus
08. Perry Como – Winter Wonderland
09. Woody Herman – Let It Snow, Let It Snow, Let It Snow
10. Frank Sinatra – Jingle Bells
11. Bing Crosby – Rudolph The Red-Nosed Reindeer
12. Gene Autry – Frosty The Snowman
13. Spike Jones And His City Slickers – (All I Want For Christmas) Is My Two Front Teeth
14. Perry Como – It's Beginning To Look A Lot Like Christmas
15. Margaret Whiting & Jimmy Wakely – Silver Bells
16. Nat 'King' Cole – The Little Boy That Santa Claus Forgot
17. Andrews Sisters – Christmas Island
18. Dickie Valentine – Christmas Alphabet
19. Ernest Tubb – Blue Christmas
20. Russ Morgan And His Orchestra – The Night Before Christmas Song
21. Bing Crosby – I'll Be Home For Christmas
22. Frank Sinatra – Christmas Dreaming (A Little Early This Year)
23. Nat 'King' Cole – The Little Christmas Tree
24. David Whitfield – Santo Natale (Merry Christmas)
25. The Goons – Iøm Walking Backwards For Christmas

Exact Audio Copy V0.99 prebeta 3 from 28. July 2007

EAC extraction logfile from 3. November 2007, 21:33

50 Original Classics (Disc 1) / Various - Christmas Hit's

Used drive : HL-DT-STDVDRRW GSA-H30L Adapter: 0 ID: 1

Read mode : Secure
Utilize accurate stream : Yes
Defeat audio cache : Yes
Make use of C2 pointers : No

Read offset correction : 102
Overread into Lead-In and Lead-Out : Yes
Fill up missing offset samples with silence : Yes
Delete leading and trailing silent blocks : No
Null samples used in CRC calculations : Yes
Used interface : Installed external ASPI interface
Gap handling : Appended to previous track

Used output format : User Defined Encoder
Selected bitrate : 1024 kBit/s
Quality : High
Add ID3 tag : Yes
Command line compressor : C:\flac-1.2.1b\flac.exe
Additional command line options : -6 -V -T "artist=%a" -T "title=%t" -T "album=%g" -T "date=%y" -T "tracknumber=%n" -T "genre=%m" -T comment="%e" -T "comment=(oan)" %s


TOC of the extracted CD

Track | Start | Length | Start sector | End sector
––––––––––––––––––––––––––––-
1 | 0:00.00 | 3:05.34 | 0 | 13908
2 | 3:05.34 | 2:44.49 | 13909 | 26257
3 | 5:50.08 | 3:12.16 | 26258 | 40673
4 | 9:02.24 | 3:24.01 | 40674 | 55974
5 | 12:26.25 | 2:36.28 | 55975 | 67702
6 | 15:02.53 | 3:02.46 | 67703 | 81398
7 | 18:05.24 | 2:41.64 | 81399 | 93537
8 | 20:47.13 | 2:32.50 | 93538 | 104987
9 | 23:19.63 | 3:17.28 | 104988 | 119790
10 | 26:37.16 | 2:35.21 | 119791 | 131436
11 | 29:12.37 | 2:16.00 | 131437 | 141636
12 | 31:28.37 | 2:55.72 | 141637 | 154833
13 | 34:24.34 | 3:11.52 | 154834 | 169210
14 | 37:36.11 | 2:40.37 | 169211 | 181247
15 | 40:16.48 | 2:54.73 | 181248 | 194370
16 | 43:11.46 | 2:33.33 | 194371 | 205878
17 | 45:45.04 | 2:39.58 | 205879 | 217861
18 | 48:24.62 | 2:07.58 | 217862 | 227444
19 | 50:32.45 | 2:48.61 | 227445 | 240105
20 | 53:21.31 | 3:15.69 | 240106 | 254799
21 | 56:37.25 | 2:59.02 | 254800 | 268226
22 | 59:36.27 | 2:58.34 | 268227 | 281610
23 | 62:34.61 | 3:14.53 | 281611 | 296213
24 | 65:49.39 | 2:55.17 | 296214 | 309355
25 | 68:44.56 | 3:19.08 | 309356 | 324288


Track 1

Filename C:\Welcome To My Music Box Enjoy..;)\(01)-White Christmas - Bing Crosby-50 Original Classics (Disc 1)-2525.wav

Pre-gap length 0:00:02.00

Peak level 88.9 %
Track quality 100.0 %
Test CRC 2C3482EE
Copy CRC 2C3482EE
Track not present in AccurateRip database
Copy OK

Track 2

Filename C:\Welcome To My Music Box Enjoy..;)\(02)-Have Yourself A Merry Little Christmas - Judy Garland-50 Original Classics (Disc 1)-2525.wav

Pre-gap length 0:00:01.58

Peak level 81.1 %
Track quality 100.0 %
Test CRC 94CB186E
Copy CRC 94CB186E
Track not present in AccurateRip database
Copy OK

Track 3

Filename C:\Welcome To My Music Box Enjoy..;)\(03)-The Christmas Song(Merry Christmas To You)-Nat `King' Cole-50 Original Classics (Disc 1)-2525.wav

Pre-gap length 0:00:01.58

Peak level 89.4 %
Track quality 100.0 %
Test CRC 84C33524
Copy CRC 84C33524
Track not present in AccurateRip database
Copy OK

Track 4

Filename C:\Welcome To My Music Box Enjoy..;)\(04)-Santa Baby - Eartha Kitt-50 Original Classics (Disc 1)-2525.wav

Pre-gap length 0:00:01.58

Peak level 88.7 %
Track quality 100.0 %
Test CRC BB594157
Copy CRC BB594157
Track not present in AccurateRip database
Copy OK

Track 5

Filename C:\Welcome To My Music Box Enjoy..;)\(05)-Santa Claus Is Comin' To Town - Frank Sinatra-50 Original Classics (Disc 1)-2525.wav

Pre-gap length 0:00:01.58

Peak level 89.5 %
Track quality 99.9 %
Test CRC 92EC348D
Copy CRC 92EC348D
Track not present in AccurateRip database
Copy OK

Track 6

Filename C:\Welcome To My Music Box Enjoy..;)\(06)-Sleigh Ride - Leroy Anderson and his Orchestra-50 Original Classics (Disc 1)-2525.wav

Pre-gap length 0:00:01.58

Peak level 89.6 %
Track quality 99.9 %
Test CRC 43266252
Copy CRC 43266252
Track not present in AccurateRip database
Copy OK

Track 7

Filename C:\Welcome To My Music Box Enjoy..;)\(07)-Here Comes Santa Claus - Doris Day-50 Original Classics (Disc 1)-2525.wav

Pre-gap length 0:00:01.58

Peak level 89.9 %
Track quality 100.0 %
Test CRC 784F1377
Copy CRC 784F1377
Track not present in AccurateRip database
Copy OK

Track 8

Filename C:\Welcome To My Music Box Enjoy..;)\(08)-Winter Wonderland - Perry Como-50 Original Classics (Disc 1)-2525.wav

Pre-gap length 0:00:01.58

Peak level 88.7 %
Track quality 100.0 %
Test CRC EC32A1CF
Copy CRC EC32A1CF
Track not present in AccurateRip database
Copy OK

Track 9

Filename C:\Welcome To My Music Box Enjoy..;)\(09)-Let It Snow, Let It Snow, Let It Snow - Woody Herman-50 Original Classics (Disc 1)-2525.wav

Pre-gap length 0:00:01.58

Peak level 89.7 %
Track quality 100.0 %
Test CRC 428D670C
Copy CRC 428D670C
Track not present in AccurateRip database
Copy OK

Track 10

Filename C:\Welcome To My Music Box Enjoy..;)\(10)-Jingle Bells - Frank Sinatra-50 Original Classics (Disc 1)-2525.wav

Pre-gap length 0:00:01.58

Peak level 88.5 %
Track quality 100.0 %
Test CRC DAF60C64
Copy CRC DAF60C64
Track not present in AccurateRip database
Copy OK

Track 11

Filename C:\Welcome To My Music Box Enjoy..;)\(11)-Rudolph The Red-Nosed Reindeer - Bing Crosby-50 Original Classics (Disc 1)-2525.wav

Pre-gap length 0:00:01.58

Peak level 89.4 %
Track quality 100.0 %
Test CRC DA6E77D0
Copy CRC DA6E77D0
Track not present in AccurateRip database
Copy OK

Track 12

Filename C:\Welcome To My Music Box Enjoy..;)\(12)-Frosty The Snowman - Gene Autry-50 Original Classics (Disc 1)-2525.wav

Pre-gap length 0:00:01.58

Peak level 87.5 %
Track quality 99.9 %
Test CRC 50FE5DEF
Copy CRC 50FE5DEF
Track not present in AccurateRip database
Copy OK

Track 13

Filename C:\Welcome To My Music Box Enjoy..;)\(13)-(All I Want For Christmas) Is My Two Front Teeth - Spike Jones-50 Original Classics (Disc 1)-2525.wav

Pre-gap length 0:00:01.58

Peak level 87.6 %
Track quality 100.0 %
Test CRC 1FA5AB19
Copy CRC 1FA5AB19
Track not present in AccurateRip database
Copy OK

Track 14

Filename C:\Welcome To My Music Box Enjoy..;)\(14)-It's Beginning To Look A Lot Like Christmas - Perry Como-50 Original Classics (Disc 1)-2525.wav

Pre-gap length 0:00:01.58

Peak level 89.5 %
Track quality 100.0 %
Test CRC 4B7CC9D4
Copy CRC 4B7CC9D4
Track not present in AccurateRip database
Copy OK

Track 15

Filename C:\Welcome To My Music Box Enjoy..;)\(15)-Silver Bells - Margaret Whiting and Jimmy Wakely-50 Original Classics (Disc 1)-2525.wav

Pre-gap length 0:00:01.58

Peak level 89.2 %
Track quality 99.9 %
Test CRC E357E846
Copy CRC E357E846
Track not present in AccurateRip database
Copy OK

Track 16

Filename C:\Welcome To My Music Box Enjoy..;)\(16)-The Little Boy That Santa Claus Forgot - Nat `King' Cole-50 Original Classics (Disc 1)-2525.wav

Pre-gap length 0:00:01.58

Peak level 88.5 %
Track quality 100.0 %
Test CRC 531BF8A1
Copy CRC 531BF8A1
Track not present in AccurateRip database
Copy OK

Track 17

Filename C:\Welcome To My Music Box Enjoy..;)\(17)-Christmas Island - Andrews Sisters-50 Original Classics (Disc 1)-2525.wav

Pre-gap length 0:00:01.58

Peak level 84.1 %
Track quality 100.0 %
Test CRC 147C6E8F
Copy CRC 147C6E8F
Track not present in AccurateRip database
Copy OK

Track 18

Filename C:\Welcome To My Music Box Enjoy..;)\(18)-Christmas Alphabet - Dickie Valentine-50 Original Classics (Disc 1)-2525.wav

Pre-gap length 0:00:01.58

Peak level 90.9 %
Track quality 100.0 %
Test CRC 7F6316EC
Copy CRC 7F6316EC
Track not present in AccurateRip database
Copy OK

Track 19

Filename C:\Welcome To My Music Box Enjoy..;)\(19)-Blue Christmas - Ernest Tubb-50 Original Classics (Disc 1)-2525.wav

Pre-gap length 0:00:01.58

Peak level 88.4 %
Track quality 100.0 %
Test CRC 60F6E95D
Copy CRC 60F6E95D
Track not present in AccurateRip database
Copy OK

Track 20

Filename C:\Welcome To My Music Box Enjoy..;)\(20)-The Night Before Christmas Song - Russ Morgan and his Orchestra-50 Original Classics (Disc 1)-2525.wav

Pre-gap length 0:00:01.58

Peak level 81.1 %
Track quality 99.9 %
Test CRC C88110B9
Copy CRC C88110B9
Track not present in AccurateRip database
Copy OK

Track 21

Filename C:\Welcome To My Music Box Enjoy..;)\(21)-I'll Be Home For Christmas - Bing Crosby-50 Original Classics (Disc 1)-2525.wav

Pre-gap length 0:00:01.58

Peak level 83.0 %
Track quality 100.0 %
Test CRC 59576484
Copy CRC 59576484
Track not present in AccurateRip database
Copy OK

Track 22

Filename C:\Welcome To My Music Box Enjoy..;)\(22)-Christmas Dreaming (A Little Early This Year) - Frank Sinatra-50 Original Classics (Disc 1)-2525.wav

Pre-gap length 0:00:01.58

Peak level 88.2 %
Track quality 100.0 %
Test CRC B213E10C
Copy CRC B213E10C
Track not present in AccurateRip database
Copy OK

Track 23

Filename C:\Welcome To My Music Box Enjoy..;)\(23)-The Little Christmas Tree - Nat `King' Cole-50 Original Classics (Disc 1)-2525.wav

Pre-gap length 0:00:01.58

Peak level 89.2 %
Track quality 100.0 %
Test CRC C14E4FA1
Copy CRC C14E4FA1
Track not present in AccurateRip database
Copy OK

Track 24

Filename C:\Welcome To My Music Box Enjoy..;)\(24)-Santo Natale (Merry Christmas) - David Whitfield-50 Original Classics (Disc 1)-2525.wav

Pre-gap length 0:00:01.58

Peak level 100.0 %
Track quality 100.0 %
Test CRC 5FDD25F8
Copy CRC 5FDD25F8
Track not present in AccurateRip database
Copy OK

Track 25

Filename C:\Welcome To My Music Box Enjoy..;)\(25)-I'm Walking Backwards For Christmas - The Goons-50 Original Classics (Disc 1)-2525.wav

Pre-gap length 0:00:01.58

Peak level 97.7 %
Track quality 100.0 %
Test CRC C4C29CF3
Copy CRC C4C29CF3
Track not present in AccurateRip database
Copy OK


None of the tracks are present in the AccurateRip database

No errors occurred

End of status report


CD2

01. Perry Como – That Christmas Feeling
02. Ella Fitzgerald – Santa Claus Got Stuck In My Chimney
03. Nat 'King' Cole – Mrs. Santa Claus
04. Bing Crosby, Danny Kaye, Peggy Lee & Trudy Stevens – Snow
05. Bing Crosby – Christmas In Killarney
06. Dave King And His Orchestra – Christmas And You
07. Lita Roza – St. Nicholas Waltz
08. Eddy Arnold – C-H-R-I-S-T-M-A-S
09. Bing Crosby – Mele Kalikimaka (Hawaiian Christmas Song)
10. Nat 'King' Cole – There's A Train Out For Dreamland
11. Eddie Fisher – That's What Christmas Means To Me
12. Andrews Sisters – The Merry Christmas Polka
13. Peggy Lee & Bing Crosby – Little Jack Frost Get Lost
14. Beverley Sisters – I Saw Mummy Kissing Santa Claus
15. Frank Sinatra – O Come All Ye Faithful
16. Bing Crosby – God Rest Ye Merry Gentlemen
17. Dick Haymes – The First Nowell
18. Judy Garland – The Birthday Of A King
19. Glenn Miller And His Orchestra – Cradle Song
20. Dick Haymes – O Little Town Of Bethlehem
23. Judy Garland – Star Of The East
24. Deanna Durbin – Silent Night
25. Mario Lanza – O Holy Night (Cantique De Noël)

Exact Audio Copy V0.99 prebeta 3 from 28. July 2007

EAC extraction logfile from 3. November 2007, 23:26

50 Original Classics (Disc 2) / Various - Christmas Hit's

Used drive : HL-DT-STDVDRRW GSA-H30L Adapter: 0 ID: 1

Read mode : Secure
Utilize accurate stream : Yes
Defeat audio cache : Yes
Make use of C2 pointers : No

Read offset correction : 102
Overread into Lead-In and Lead-Out : Yes
Fill up missing offset samples with silence : Yes
Delete leading and trailing silent blocks : No
Null samples used in CRC calculations : Yes
Used interface : Installed external ASPI interface
Gap handling : Appended to previous track

Used output format : User Defined Encoder
Selected bitrate : 1024 kBit/s
Quality : High
Add ID3 tag : Yes
Command line compressor : C:\flac-1.2.1b\flac.exe
Additional command line options : -6 -V -T "artist=%a" -T "title=%t" -T "album=%g" -T "date=%y" -T "tracknumber=%n" -T "genre=%m" -T comment="%e" -T "comment=(oan)" %s


TOC of the extracted CD

Track | Start | Length | Start sector | End sector
––––––––––––––––––––––––––––-
1 | 0:00.00 | 3:14.35 | 0 | 14584
2 | 3:14.35 | 3:07.51 | 14585 | 28660
3 | 6:22.11 | 2:08.60 | 28661 | 38320
4 | 8:30.71 | 2:41.56 | 38321 | 50451
5 | 11:12.52 | 2:45.35 | 50452 | 62861
6 | 13:58.12 | 3:13.46 | 62862 | 77382
7 | 17:11.58 | 2:33.66 | 77383 | 88923
8 | 19:45.49 | 2:29.21 | 88924 | 100119
9 | 22:14.70 | 2:58.63 | 100120 | 113532
10 | 25:13.58 | 2:40.60 | 113533 | 125592
11 | 27:54.43 | 3:27.06 | 125593 | 141123
12 | 31:21.49 | 2:52.30 | 141124 | 154053
13 | 34:14.04 | 1:49.67 | 154054 | 162295
14 | 36:03.71 | 2:31.40 | 162296 | 173660
15 | 38:35.36 | 2:37.64 | 173661 | 185499
16 | 41:13.25 | 2:18.36 | 185500 | 195885
17 | 43:31.61 | 2:57.60 | 195886 | 209220
18 | 46:29.46 | 3:08.71 | 209221 | 223391
19 | 49:38.42 | 3:37.74 | 223392 | 239740
20 | 53:16.41 | 2:21.57 | 239741 | 250372
21 | 55:38.23 | 3:22.39 | 250373 | 265561
22 | 59:00.62 | 3:26.34 | 265562 | 281045
23 | 62:27.21 | 3:06.12 | 281046 | 295007
24 | 65:33.33 | 2:39.39 | 295008 | 306971
25 | 68:12.72 | 4:06.24 | 306972 | 325445


Track 1

Filename C:\Welcome To My Music Box Enjoy..;)\(01)-That Christmas Feeling - Perry Como-50 Original Classics (Disc 2)-2525.wav

Pre-gap length 0:00:02.00

Peak level 90.3 %
Track quality 100.0 %
Test CRC 8A4EC5F6
Copy CRC 8A4EC5F6
Track not present in AccurateRip database
Copy OK

Track 2

Filename C:\Welcome To My Music Box Enjoy..;)\(02)-Santa Claus Got Stuck In My Chimney - Ella Fitzgerald-50 Original Classics (Disc 2)-2525.wav

Pre-gap length 0:00:01.58

Peak level 98.6 %
Track quality 100.0 %
Test CRC 909DB27A
Copy CRC 909DB27A
Track not present in AccurateRip database
Copy OK

Track 3

Filename C:\Welcome To My Music Box Enjoy..;)\(03)-Mrs.Santa Claus - Nat `King' Cole-50 Original Classics (Disc 2)-2525.wav

Pre-gap length 0:00:01.58

Peak level 98.6 %
Track quality 100.0 %
Test CRC B0251CC1
Copy CRC B0251CC1
Track not present in AccurateRip database
Copy OK

Track 4

Filename C:\Welcome To My Music Box Enjoy..;)\(04)-Snow - Bing Crosby, Danny Kaye, Peggy Lee and Trudy Stevens-50 Original Classics (Disc 2)-2525.wav

Pre-gap length 0:00:01.58

Peak level 98.5 %
Track quality 100.0 %
Test CRC 04FB5B26
Copy CRC 04FB5B26
Track not present in AccurateRip database
Copy OK

Track 5

Filename C:\Welcome To My Music Box Enjoy..;)\(05)-Christmas in Killarney - Bing Crosby-50 Original Classics (Disc 2)-2525.wav

Pre-gap length 0:00:01.58

Peak level 92.5 %
Track quality 100.0 %
Test CRC EB85A5EF
Copy CRC EB85A5EF
Track not present in AccurateRip database
Copy OK

Track 6

Filename C:\Welcome To My Music Box Enjoy..;)\(06)-Christmas And You - Dave King-50 Original Classics (Disc 2)-2525.wav

Pre-gap length 0:00:01.58

Peak level 98.6 %
Track quality 99.9 %
Test CRC AF5F7F66
Copy CRC AF5F7F66
Track not present in AccurateRip database
Copy OK

Track 7

Filename C:\Welcome To My Music Box Enjoy..;)\(07)-St. Nicholas Waltz - Lita Roza-50 Original Classics (Disc 2)-2525.wav

Pre-gap length 0:00:01.58

Peak level 98.6 %
Track quality 100.0 %
Test CRC 950C361E
Copy CRC 950C361E
Track not present in AccurateRip database
Copy OK

Track 8

Filename C:\Welcome To My Music Box Enjoy..;)\(08)-C-H-R-I-S-T-M-A-S - Eddy Arnold-50 Original Classics (Disc 2)-2525.wav

Pre-gap length 0:00:01.58

Peak level 98.5 %
Track quality 100.0 %
Test CRC CBF4E1DE
Copy CRC CBF4E1DE
Track not present in AccurateRip database
Copy OK

Track 9

Filename C:\Welcome To My Music Box Enjoy..;)\(09)-Mele Kalikimaka (Hawaiian Christmas Song) - Bing Crosby-50 Original Classics (Disc 2)-2525.wav

Pre-gap length 0:00:01.58

Peak level 85.5 %
Track quality 100.0 %
Test CRC 68C5A14F
Copy CRC 68C5A14F
Track not present in AccurateRip database
Copy OK

Track 10

Filename C:\Welcome To My Music Box Enjoy..;)\(10)-There's A Train Out For Dreamland - Nat `King' Cole-50 Original Classics (Disc 2)-2525.wav

Pre-gap length 0:00:01.58

Peak level 98.5 %
Track quality 100.0 %
Test CRC EEE368F3
Copy CRC EEE368F3
Track not present in AccurateRip database
Copy OK

Track 11

Filename C:\Welcome To My Music Box Enjoy..;)\(11)-That's What Christmas Means To Me - Eddie Fisher-50 Original Classics (Disc 2)-2525.wav

Pre-gap length 0:00:01.58

Peak level 98.3 %
Track quality 100.0 %
Test CRC CECC6BDE
Copy CRC CECC6BDE
Track not present in AccurateRip database
Copy OK

Track 12

Filename C:\Welcome To My Music Box Enjoy..;)\(12)-The Merry Christmas Polka - Andrews Sisters-50 Original Classics (Disc 2)-2525.wav

Pre-gap length 0:00:01.58

Peak level 98.5 %
Track quality 100.0 %
Test CRC 4C2BD940
Copy CRC 4C2BD940
Track not present in AccurateRip database
Copy OK

Track 13

Filename C:\Welcome To My Music Box Enjoy..;)\(13)-Little Jack Frost Get Lost - Peggy Lee and Bing Crosby-50 Original Classics (Disc 2)-2525.wav

Pre-gap length 0:00:01.58

Peak level 98.6 %
Track quality 99.9 %
Test CRC EDA89A80
Copy CRC EDA89A80
Track not present in AccurateRip database
Copy OK

Track 14

Filename C:\Welcome To My Music Box Enjoy..;)\(14)-I Saw Mummy Kissing Santa Claus - Beverley Sisters-50 Original Classics (Disc 2)-2525.wav

Pre-gap length 0:00:01.58

Peak level 98.6 %
Track quality 100.0 %
Test CRC 27C7B55E
Copy CRC 27C7B55E
Track not present in AccurateRip database
Copy OK

Track 15

Filename C:\Welcome To My Music Box Enjoy..;)\(15)-O Come All Ye Faithful Frank Sinatra-50 Original Classics (Disc 2)-2525.wav

Pre-gap length 0:00:01.58

Peak level 95.6 %
Track quality 100.0 %
Test CRC BBABCF65
Copy CRC BBABCF65
Track not present in AccurateRip database
Copy OK

Track 16

Filename C:\Welcome To My Music Box Enjoy..;)\(16)-God Rest Ye Merry Gentlemen - Bing Crosby-50 Original Classics (Disc 2)-2525.wav

Pre-gap length 0:00:01.58

Peak level 89.7 %
Track quality 99.9 %
Test CRC 967A74DF
Copy CRC 967A74DF
Track not present in AccurateRip database
Copy OK

Track 17

Filename C:\Welcome To My Music Box Enjoy..;)\(17)-The First Nowell - Dick Haymes-50 Original Classics (Disc 2)-2525.wav

Pre-gap length 0:00:01.58

Peak level 93.7 %
Track quality 100.0 %
Test CRC C2AD29CD
Copy CRC C2AD29CD
Track not present in AccurateRip database
Copy OK

Track 18

Filename C:\Welcome To My Music Box Enjoy..;)\(18)-The Birthday Of A King - Judy Garland-50 Original Classics (Disc 2)-2525.wav

Pre-gap length 0:00:01.58

Peak level 83.7 %
Track quality 99.9 %
Test CRC 31BE8ADB
Copy CRC 31BE8ADB
Track not present in AccurateRip database
Copy OK

Track 19

Filename C:\Welcome To My Music Box Enjoy..;)\(19)-Cradle Song - Glenn Miller and his Orchestra-50 Original Classics (Disc 2)-2525.wav

Pre-gap length 0:00:01.58

Peak level 98.6 %
Track quality 100.0 %
Test CRC 256D9E9B
Copy CRC 256D9E9B
Track not present in AccurateRip database
Copy OK

Track 20

Filename C:\Welcome To My Music Box Enjoy..;)\(20)-O Little Town Of Bethlehem - Dick Haymes-50 Original Classics (Disc 2)-2525.wav

Pre-gap length 0:00:01.58

Peak level 74.7 %
Track quality 99.9 %
Test CRC 54540477
Copy CRC 54540477
Track not present in AccurateRip database
Copy OK

Track 21

Filename C:\Welcome To My Music Box Enjoy..;)\(21)-Medley (Part 1) - Bing Crosby-50 Original Classics (Disc 2)-2525.wav

Pre-gap length 0:00:01.58

Peak level 98.5 %
Track quality 100.0 %
Test CRC 278BB212
Copy CRC 278BB212
Track not present in AccurateRip database
Copy OK

Track 22

Filename C:\Welcome To My Music Box Enjoy..;)\(22)-Medley (Part 2)- Bing Crosby-50 Original Classics (Disc 2)-2525.wav

Pre-gap length 0:00:01.58

Peak level 93.0 %
Track quality 100.0 %
Test CRC 4F31451E
Copy CRC 4F31451E
Track not present in AccurateRip database
Copy OK

Track 23

Filename C:\Welcome To My Music Box Enjoy..;)\(23)-Star Of The East - Judy Garland-50 Original Classics (Disc 2)-2525.wav

Pre-gap length 0:00:01.58

Peak level 78.6 %
Track quality 100.0 %
Test CRC 290C268F
Copy CRC 290C268F
Track not present in AccurateRip database
Copy OK

Track 24

Filename C:\Welcome To My Music Box Enjoy..;)\(24)-Silent Night - Deanna Durbin-50 Original Classics (Disc 2)-2525.wav

Pre-gap length 0:00:01.58

Peak level 67.5 %
Track quality 100.0 %
Test CRC 27B313B6
Copy CRC 27B313B6
Track not present in AccurateRip database
Copy OK

Track 25

Filename C:\Welcome To My Music Box Enjoy..;)\(25)-O Holy Night (Cantique de Noël) - Mario Lanza-50 Original Classics (Disc 2)-2525.wav

Pre-gap length 0:00:01.58

Peak level 98.5 %
Track quality 100.0 %
Test CRC 1BAFEBF8
Copy CRC 1BAFEBF8
Track not present in AccurateRip database
Copy OK


None of the tracks are present in the AccurateRip database

No errors occurred

End of status report


All thanks go to the original releaser