Subcategories

V.A. - Deep Green: Music To Wake Up To (1996)

Posted By: gribovar
V.A. - Deep Green: Music To Wake Up To (1996)

V.A. - Deep Green: Music To Wake Up To (1996)
EAC Rip | FLAC (image+.cue+log) - 403 MB | MP3 CBR 320 kbps (LAME 3.93) - 176 MB | Covers - 26 MB
Genre: Downtempo, Ambient | RAR 3% Rec. | Label: Toshiba EMI (TOCP-8984)

Deep Green was a media event featuring ambient, dub and transglobal/world music, originating from the renowned ‘Organic Tea Garden’ in ‘The Green Futures Field’ at ‘Glastonbury Festival’, ‘The Kingston Green Fair’, and the ‘Big Green Gathering’. This CD was digitally mixed and edited at Dat Studios by Solar Quest using only the sun as a power source. The original sessions for the five Solar Quest tracks (previously unreleased) on this CD were also recorded using solar power. Deep Green worked closely with the visionary American painter Alex Grey and the jacket from this CD features a detail from his celebrated painting ‘Praying’, which is also the cover of Greys acclaimed book ‘Sacred Mirrors’.
Solar Quest, Deep Space Network, Spacetime Continuum, Banco De Gaia and more.
Tracklist:
01. Solar Quest - Escape Velocity
02. Deep Space Network - Zenn La
03. Spacetime Continuum - Pressure
04. Solar Quest - Set The Heart For The Bass Of The Sun
05. Journeyman - Mama 6 (Pt 1)
06. Children Of The Bong - The Veil
07. Solar Quest - Suspended Animation (No Looking Back)
08. Banco De Gaia - Mafich Arabi
09. Solar Quest - Event Horizon
10. Natacha Atlas - Yalla Chant
11. Coba - Circo Italiano
12. Loreena McKennitt - Samain Night
13. Solar Quest - Ourannaz

Total time: 01:14:39

Exact Audio Copy V0.99 prebeta 5 from 4. May 2009

EAC extraction logfile from 18. April 2010, 1:18

Various / Deep Green - Music To Wake Up To

Used drive : ASUS CRW-4816A Adapter: 2 ID: 1

Read mode : Secure
Utilize accurate stream : Yes
Defeat audio cache : Yes
Make use of C2 pointers : No

Read offset correction : 12
Overread into Lead-In and Lead-Out : No
Fill up missing offset samples with silence : Yes
Delete leading and trailing silent blocks : No
Null samples used in CRC calculations : Yes
Used interface : Installed external ASPI interface

Used output format : User Defined Encoder
Selected bitrate : 1024 kBit/s
Quality : High
Add ID3 tag : No
Command line compressor : C:\Program Files\Exact Audio Copy\FLAC\FLAC.EXE
Additional command line options : -8 -V -T "ARTIST=%a" -T "ALBUM=%g" -T "DATE=%y" -T "GENRE=%m" %s -o %d


TOC of the extracted CD

Track | Start | Length | Start sector | End sector
––––––––––––––––––––––––––––-
1 | 0:00.00 | 2:36.47 | 0 | 11746
2 | 2:36.47 | 5:17.28 | 11747 | 35549
3 | 7:54.00 | 9:00.62 | 35550 | 76111
4 | 16:54.62 | 5:13.43 | 76112 | 99629
5 | 22:08.30 | 3:34.55 | 99630 | 115734
6 | 25:43.10 | 8:09.07 | 115735 | 152416
7 | 33:52.17 | 5:52.25 | 152417 | 178841
8 | 39:44.42 | 7:28.13 | 178842 | 212454
9 | 47:12.55 | 9:54.32 | 212455 | 257036
10 | 57:07.12 | 5:37.38 | 257037 | 282349
11 | 62:44.50 | 5:39.15 | 282350 | 307789
12 | 68:23.65 | 3:58.65 | 307790 | 325704
13 | 72:22.55 | 2:16.15 | 325705 | 335919


Range status and errors

Selected range

Filename J:\temp\nnm\Various - Deep Green.wav

Peak level 100.0 %
Range quality 100.0 %
Test CRC 99256272
Copy CRC 99256272
Copy OK

No errors occurred


AccurateRip summary

Track 1 not present in database
Track 2 not present in database
Track 3 not present in database
Track 4 not present in database
Track 5 not present in database
Track 6 not present in database
Track 7 not present in database
Track 8 not present in database
Track 9 not present in database
Track 10 not present in database
Track 11 not present in database
Track 12 not present in database
Track 13 not present in database

None of the tracks are present in the AccurateRip database

End of status report

[CUETools log; Date: 13.08.2017 16:20:41; Version: 2.1.4]
[CTDB TOCID: 0JbIoDKdIdpnq_uHLviaZgTffkM-] found.
Track | CTDB Status
1 | (3/3) Accurately ripped
2 | (3/3) Accurately ripped
3 | (3/3) Accurately ripped
4 | (3/3) Accurately ripped
5 | (3/3) Accurately ripped
6 | (3/3) Accurately ripped
7 | (3/3) Accurately ripped
8 | (3/3) Accurately ripped
9 | (3/3) Accurately ripped
10 | (3/3) Accurately ripped
11 | (3/3) Accurately ripped
12 | (3/3) Accurately ripped
13 | (3/3) Accurately ripped
[AccurateRip ID: 00247cfa-01737460-ad117e0d] found.
Track [ CRC | V2 ] Status
01 [85624008|8557af12] (1+0/1) Accurately ripped
02 [eefba993|73f443eb] (1+0/1) Accurately ripped
03 [3ab017f8|9eb1ab02] (1+0/1) Accurately ripped
04 [02e82d5e|6da8bd6c] (1+0/1) Accurately ripped
05 [8c5ef4a4|baa658d8] (1+0/1) Accurately ripped
06 [19ac1476|89be50fa] (1+0/1) Accurately ripped
07 [c2019da1|bd5f97bb] (1+0/1) Accurately ripped
08 [f60aeaa6|6cd013e2] (1+0/1) Accurately ripped
09 [a8a7c5f3|b2840b58] (1+0/1) Accurately ripped
10 [f0395817|caf9ef37] (1+0/1) Accurately ripped
11 [25073e12|fa432df1] (1+0/1) Accurately ripped
12 [1a889bd9|b0f7973d] (1+0/1) Accurately ripped
13 [e89c7046|afadf786] (1+0/1) Accurately ripped

Track Peak [ CRC32 ] [W/O NULL] [ LOG ]
– 100,0 [99256272] [10890DD7] CRC32
01 82,4 [6F11F6CF] [4BA0A006]
02 98,0 [0521CC4F] [D259B876]
03 97,2 [ECAFA40D] [DDDDC555]
04 100,0 [411634B3] [6619DE04]
05 71,2 [6E4E8BCE] [0D90A069]
06 66,0 [0E5B2BE9] [91A18FA8]
07 40,5 [CC84A26B] [22DCE41F]
08 88,6 [A7A35A36] [B86D7B03]
09 96,7 [D4FC4866] [64003D02]
10 83,3 [FA307179] [E9899929]
11 76,1 [55316520] [78B49328]
12 79,7 [21B645EE] [745CFD47]
13 75,4 [374DE48B] [C23FC8A2]

Thanks to _ok