Subcategories

V.A. - Erotic Lounge 8 (Intimate Selection) (2009) (Repost)

Posted By: gribovar
V.A. - Erotic Lounge 8 (Intimate Selection) (2009) (Repost)

V.A. - Erotic Lounge 8 (Intimate Selection) (2009)
EAC Rip | FLAC (image+.cue+log) - 1,36 GB | Covers - 32 MB
Genre: Chillout, Lounge, Downtempo | RAR 3% Rec. | Label: Sony Music (88697375052)

Erotic Lounge - there is no better music to sex! A good collection of music - like a carefully cut diamond, find it among the slag heaps at times as difficult as to give the latter form. If we continue the analogy, the Sony BMG music produces such "diamonds" is not worse than the precious masterpieces by Cartier or Tiffany & Co. Therefore, past collections Erotic Lounge series to go hard, they cover charmingly attractive and content even more striking. The first collection was released in 2003, and each subsequent out once per year, revealing new facets as erotic titles.
CD 1 Tracklist (Soft And Lazy):
01. Thievery Corporation - La Femme Parallel
02. Blank & Jones - Nuits Blanches
03. Moodorama - Mono Luv
04. Boozoo Bajou - Flickers
05. Groove Armada - Little By Little
06. Moby - Slow Light
07. Clelia Felix - Love At Midnight
08. From P60 - All I Can Do
09. Kabanjak - Night People
10. Obel - Just So
11. Velvet Lounge Project - Hidden Treasure
12. Five Seasons - Love Apple
13. Submantra feat. Francesca - Get Down
14. Moon & Benk - Pimp My Style
15. Leftfield - Original
16. Weathertunes - Sex Is The Place
17. Stardelay - Thoughts & Words
18. Lenka - Don't Let Me Fall

Total time: 01:15:05

CD 2 Tracklist (Quick And Dirty):
01. Nux - Midnight Stroll
02. Dubdiver feat. Anatoli Tsampa - Floating On Love
03. Terrafunka feat. Lazy Hammock - Good Inside
04. JetTricks feat. AdeFunk & Faye Houston - Lose You
05. Tosca - Oysters In May
06. Shahrokh Sounds Of K. feat. Toyin Taylor - Love Happens
07. Loopaland - Entre tes reins
08. BungaLove - Minha Loucura
09. Roberto Sol & Florito feat. Ines Prados - Obsesiуn
10. Panaphonic - Softnoise Revolution
11. Beach Hoppers - Close To You
12. Redlounge Orchestra - 1000 Degrees
13. Chic At Work - At Night
14. Mark Ronson feat. Daniel Merriweather - Stop Me
15. Justin Timberlake - Rock Your Body

Total time: 01:19:08

CD 3 Tracklist (Exclusive DJ-Mix by Chubbanak Club):
01. Backrooms (Slow Down)
02. Chillin' In Your Arms
03. Float
04. Free Ride
05. In My Hammock
06. Moments
07. Global Sunshine
08. Beautiful Day
09. You
10. La Chill D'Amour
11. Candy Snow - Reloaded
12. The Beach
13. Sunsets (You Are Not Alone)
14. Green Tea
15. Dawn
16. Oh, Baby - Erotic Lounge Remix
17. Fly Away - Erotic Lounge Remix
18. I Need You
19. Do You Love Me? (Pole Dancing) - Erotic Lounge Remix

Total time: 01:03:04

Exact Audio Copy V0.99 prebeta 4 from 23. January 2008

EAC extraction logfile from 17. October 2009, 4:58

Various / Erotic Lounge 8 - Intimate Selection CD1

Used drive : PIONEER DVD-RW DVR-112D Adapter: 1 ID: 0

Read mode : Secure
Utilize accurate stream : Yes
Defeat audio cache : Yes
Make use of C2 pointers : No

Read offset correction : 48
Overread into Lead-In and Lead-Out : No
Fill up missing offset samples with silence : Yes
Delete leading and trailing silent blocks : No
Null samples used in CRC calculations : Yes
Used interface : Installed external ASPI interface

Used output format : User Defined Encoder
Selected bitrate : 192 kBit/s
Quality : Low
Add ID3 tag : Yes
Command line compressor : C:\Program Files\E A C Audio\Flac\flac.exe
Additional command line options : -V -8 -T "artist=%a" -T "title=%t" -T "album=%g" -T "date=%y" -T "tracknumber=%n" -T "genre=%m" %s


TOC of the extracted CD

Track | Start | Length | Start sector | End sector
––––––––––––––––––––––––––––-
1 | 0:00.00 | 4:29.36 | 0 | 20210
2 | 4:29.36 | 4:04.13 | 20211 | 38523
3 | 8:33.49 | 5:15.64 | 38524 | 62212
4 | 13:49.38 | 4:03.72 | 62213 | 80509
5 | 17:53.35 | 5:25.27 | 80510 | 104911
6 | 23:18.62 | 3:50.30 | 104912 | 122191
7 | 27:09.17 | 3:13.22 | 122192 | 136688
8 | 30:22.39 | 4:52.25 | 136689 | 158613
9 | 35:14.64 | 4:41.36 | 158614 | 179724
10 | 39:56.25 | 3:30.41 | 179725 | 195515
11 | 43:26.66 | 4:00.10 | 195516 | 213525
12 | 47:27.01 | 3:45.45 | 213526 | 230445
13 | 51:12.46 | 4:38.64 | 230446 | 251359
14 | 55:51.35 | 4:33.29 | 251360 | 271863
15 | 60:24.64 | 4:07.21 | 271864 | 290409
16 | 64:32.10 | 4:04.56 | 290410 | 308765
17 | 68:36.66 | 3:37.36 | 308766 | 325076
18 | 72:14.27 | 2:50.41 | 325077 | 337867


Range status and errors

Selected range

Filename G:\tvixhd1\Various - Erotic Lounge 8 - Intimate Selection\Erotic Lounge 8 - Intimate Selection CD1.wav

Peak level 99.9 %
Range quality 100.0 %
Test CRC A1400C5C
Copy CRC A1400C5C
Copy OK

No errors occurred


AccurateRip summary

Track 1 not present in database
Track 2 not present in database
Track 3 not present in database
Track 4 not present in database
Track 5 not present in database
Track 6 not present in database
Track 7 not present in database
Track 8 not present in database
Track 9 not present in database
Track 10 not present in database
Track 11 not present in database
Track 12 not present in database
Track 13 not present in database
Track 14 not present in database
Track 15 not present in database
Track 16 not present in database
Track 17 not present in database
Track 18 not present in database

None of the tracks are present in the AccurateRip database

End of status report

[CUETools log; Date: 19.09.2017 22:03:59; Version: 2.1.4]
[CTDB TOCID: KPsijKQmKjoJLJPHjWiOgtLOXrQ-] found.
Track | CTDB Status
1 | (23/23) Accurately ripped
2 | (23/23) Accurately ripped
3 | (23/23) Accurately ripped
4 | (23/23) Accurately ripped
5 | (23/23) Accurately ripped
6 | (23/23) Accurately ripped
7 | (23/23) Accurately ripped
8 | (23/23) Accurately ripped
9 | (23/23) Accurately ripped
10 | (23/23) Accurately ripped
11 | (23/23) Accurately ripped
12 | (23/23) Accurately ripped
13 | (23/23) Accurately ripped
14 | (23/23) Accurately ripped
15 | (22/23) Accurately ripped
16 | (23/23) Accurately ripped
17 | (22/23) Accurately ripped
18 | (23/23) Accurately ripped
[AccurateRip ID: 0032c9a7-02a0a63b-f7119812] found.
Track [ CRC | V2 ] Status
01 [65964911|1bb14a8f] (10+14/24) Accurately ripped
02 [a2bf3515|be3eafb9] (11+14/25) Accurately ripped
03 [c5e971ca|211772b9] (10+14/24) Accurately ripped
04 [b7a79bf1|0c7af8d9] (10+14/24) Accurately ripped
05 [63e4981b|e4eafec4] (10+14/24) Accurately ripped
06 [6466400d|d29526c1] (10+14/24) Accurately ripped
07 [10f97e65|95e4290f] (10+14/24) Accurately ripped
08 [71da1467|90711447] (11+14/25) Accurately ripped
09 [72f9aef5|1042e8cb] (11+14/25) Accurately ripped
10 [3d3f9310|845b6e5a] (10+14/24) Accurately ripped
11 [22d7c5de|5af6c19e] (11+14/25) Accurately ripped
12 [8bd16e26|d53b39fa] (11+14/25) Accurately ripped
13 [5ebb8ea8|d925ebad] (11+14/25) Accurately ripped
14 [c801ea35|22df6887] (11+14/25) Accurately ripped
15 [f84cd8e3|6eb52349] (11+14/25) Accurately ripped
16 [2d181fa6|d61bb2f0] (10+14/24) Accurately ripped
17 [c3769aa3|b4311151] (11+14/25) Accurately ripped
18 [5b65cede|d17f1f0e] (10+13/23) Accurately ripped

Track Peak [ CRC32 ] [W/O NULL] [ LOG ]
– 99,9 [A1400C5C] [5B0581BB] CRC32
01 99,4 [54CF81F3] [B98FF47E]
02 99,0 [C0D7C9DA] [AE061553]
03 99,1 [6B9F7598] [1D622B78]
04 99,0 [8273377F] [3AEF7C16]
05 99,9 [0A408D41] [971FBEFB]
06 99,0 [26F439E2] [6EBCFB99]
07 99,0 [0EAD5BC2] [3862529B]
08 99,1 [10BD7051] [8DD311C8]
09 99,0 [E2A3E5D4] [EB1EB8C2]
10 99,0 [4024D2BF] [970829E2]
11 99,0 [E23CD950] [DAC1F653]
12 99,0 [77803BE8] [549ED31A]
13 93,6 [5612CAE4] [B6A5A0B2]
14 99,0 [5D612CDF] [7DA100BC]
15 99,0 [FE2EFA7A] [8BEEE8B1]
16 99,0 [3FCBECB9] [67E692A3]
17 99,0 [A488389E] [0B781F8D]
18 99,0 [421723BE] [1456DF64]

Exact Audio Copy V0.99 prebeta 4 from 23. January 2008

EAC extraction logfile from 17. October 2009, 5:25

Various / Erotic Lounge 8 - Intimate Selection CD2

Used drive : PIONEER DVD-RW DVR-112D Adapter: 1 ID: 0

Read mode : Secure
Utilize accurate stream : Yes
Defeat audio cache : Yes
Make use of C2 pointers : No

Read offset correction : 48
Overread into Lead-In and Lead-Out : No
Fill up missing offset samples with silence : Yes
Delete leading and trailing silent blocks : No
Null samples used in CRC calculations : Yes
Used interface : Installed external ASPI interface

Used output format : User Defined Encoder
Selected bitrate : 192 kBit/s
Quality : Low
Add ID3 tag : Yes
Command line compressor : C:\Program Files\E A C Audio\Flac\flac.exe
Additional command line options : -V -8 -T "artist=%a" -T "title=%t" -T "album=%g" -T "date=%y" -T "tracknumber=%n" -T "genre=%m" %s


TOC of the extracted CD

Track | Start | Length | Start sector | End sector
––––––––––––––––––––––––––––-
1 | 0:00.00 | 5:38.54 | 0 | 25403
2 | 5:38.54 | 5:37.17 | 25404 | 50695
3 | 11:15.71 | 3:44.04 | 50696 | 67499
4 | 15:00.00 | 5:15.14 | 67500 | 91138
5 | 20:15.14 | 4:31.51 | 91139 | 111514
6 | 24:46.65 | 6:07.15 | 111515 | 139054
7 | 30:54.05 | 6:34.70 | 139055 | 168674
8 | 37:29.00 | 4:18.14 | 168675 | 188038
9 | 41:47.14 | 3:55.56 | 188039 | 205719
10 | 45:42.70 | 5:59.26 | 205720 | 232670
11 | 51:42.21 | 3:21.54 | 232671 | 247799
12 | 55:04.00 | 6:17.13 | 247800 | 276087
13 | 61:21.13 | 6:43.54 | 276088 | 306366
14 | 68:04.67 | 5:26.65 | 306367 | 330881
15 | 73:31.57 | 5:36.37 | 330882 | 356118


Range status and errors

Selected range

Filename G:\tvixhd1\Various - Erotic Lounge 8 - Intimate Selection\Erotic Lounge 8 - Intimate Selection CD2.wav

Peak level 100.0 %
Range quality 100.0 %
Test CRC EB5ACDC9
Copy CRC EB5ACDC9
Copy OK

No errors occurred


AccurateRip summary

Track 1 not present in database
Track 2 not present in database
Track 3 not present in database
Track 4 not present in database
Track 5 not present in database
Track 6 not present in database
Track 7 not present in database
Track 8 not present in database
Track 9 not present in database
Track 10 not present in database
Track 11 not present in database
Track 12 not present in database
Track 13 not present in database
Track 14 not present in database
Track 15 not present in database

None of the tracks are present in the AccurateRip database

End of status report

[CUETools log; Date: 19.09.2017 22:04:19; Version: 2.1.4]
[CTDB TOCID: wgWqmLRt8.UEvBqGOlmY4UM.w6s-] found.
Track | CTDB Status
1 | (24/25) Accurately ripped
2 | (24/25) Accurately ripped
3 | (24/25) Accurately ripped
4 | (24/25) Accurately ripped
5 | (24/25) Accurately ripped
6 | (24/25) Accurately ripped
7 | (23/25) Accurately ripped
8 | (24/25) Accurately ripped
9 | (24/25) Accurately ripped
10 | (24/25) Accurately ripped
11 | (24/25) Accurately ripped
12 | (24/25) Accurately ripped
13 | (24/25) Accurately ripped
14 | (24/25) Accurately ripped
15 | (24/25) Accurately ripped
[AccurateRip ID: 002ab066-01e459cf-cd128c0f] found.
Track [ CRC | V2 ] Status
01 [d71863e6|6acf211f] (11+14/25) Accurately ripped
02 [8e3c6a96|08ce4b01] (12+14/26) Accurately ripped
03 [688d3689|4881cd49] (12+14/26) Accurately ripped
04 [4794d60c|7871d7b8] (11+14/25) Accurately ripped
05 [057246d1|9b1e2b18] (12+14/26) Accurately ripped
06 [56467d10|f96ae599] (12+14/26) Accurately ripped
07 [b491cacf|1213dd83] (11+14/25) Accurately ripped
08 [46091424|4f44486d] (11+14/25) Accurately ripped
09 [ac0f4f15|d86c5aa0] (12+14/26) Accurately ripped
10 [ede46e1e|80f15de9] (11+14/25) Accurately ripped
11 [54f10856|4f315eab] (11+14/25) Accurately ripped
12 [d50b15eb|bc48eb42] (12+14/26) Accurately ripped
13 [8935dbf9|dabb8337] (10+14/24) Accurately ripped
14 [87487dad|c3102d52] (11+14/25) Accurately ripped
15 [922b3008|86d3335a] (12+14/26) Accurately ripped

Track Peak [ CRC32 ] [W/O NULL] [ LOG ]
– 100,0 [EB5ACDC9] [0289ADC5] CRC32
01 99,0 [8D7A92DF] [D8452B7A]
02 96,6 [2A80C776] [9667B029]
03 99,0 [6C22209F] [027527BE]
04 99,0 [9485ACDC] [36F1705E]
05 99,0 [122F7383] [CAAFC0C9]
06 94,5 [689FCFCA] [742D928C]
07 99,0 [04EA2456] [177C3FC3]
08 99,1 [2558CB30] [40B52602]
09 99,0 [66E5076F] [965576CE]
10 99,0 [F234532D] [9D0EB713]
11 99,7 [226DA155] [5F5DCF75]
12 99,0 [481D76EF] [8595084F]
13 99,0 [7569B8B2] [23B215F1]
14 99,0 [B6A80DE8] [A76A37E1]
15 100,0 [B5537347] [89858FB8]

Exact Audio Copy V0.99 prebeta 4 from 23. January 2008

EAC extraction logfile from 17. October 2009, 6:02

Chubbanak Club / Erotic Lounge 8 - Intimate Selection - CD3

Used drive : PIONEER DVD-RW DVR-112D Adapter: 1 ID: 0

Read mode : Secure
Utilize accurate stream : Yes
Defeat audio cache : Yes
Make use of C2 pointers : No

Read offset correction : 48
Overread into Lead-In and Lead-Out : No
Fill up missing offset samples with silence : Yes
Delete leading and trailing silent blocks : No
Null samples used in CRC calculations : Yes
Used interface : Installed external ASPI interface

Used output format : User Defined Encoder
Selected bitrate : 192 kBit/s
Quality : Low
Add ID3 tag : Yes
Command line compressor : C:\Program Files\E A C Audio\Flac\flac.exe
Additional command line options : -V -8 -T "artist=%a" -T "title=%t" -T "album=%g" -T "date=%y" -T "tracknumber=%n" -T "genre=%m" %s


TOC of the extracted CD

Track | Start | Length | Start sector | End sector
––––––––––––––––––––––––––––-
1 | 0:00.00 | 3:09.17 | 0 | 14191
2 | 3:09.17 | 3:34.16 | 14192 | 30257
3 | 6:43.33 | 2:38.64 | 30258 | 42171
4 | 9:22.22 | 3:10.54 | 42172 | 56475
5 | 12:33.01 | 3:29.13 | 56476 | 72163
6 | 16:02.14 | 2:48.11 | 72164 | 84774
7 | 18:50.25 | 3:43.16 | 84775 | 101515
8 | 22:33.41 | 3:50.68 | 101516 | 118833
9 | 26:24.34 | 2:55.30 | 118834 | 131988
10 | 29:19.64 | 4:02.62 | 131989 | 150200
11 | 33:22.51 | 3:06.30 | 150201 | 164180
12 | 36:29.06 | 3:40.39 | 164181 | 180719
13 | 40:09.45 | 3:23.21 | 180720 | 195965
14 | 43:32.66 | 4:00.54 | 195966 | 214019
15 | 47:33.45 | 4:18.06 | 214020 | 233375
16 | 51:51.51 | 2:37.13 | 233376 | 245163
17 | 54:28.64 | 2:40.49 | 245164 | 257212
18 | 57:09.38 | 3:35.19 | 257213 | 273356
19 | 60:44.57 | 2:19.18 | 273357 | 283799


Range status and errors

Selected range

Filename G:\tvixhd1\Various - Erotic Lounge 8 - Intimate Selection\Chubbanak Club - Erotic Lounge 8 - Intimate Selection - CD3.wav

Peak level 99.0 %
Range quality 99.9 %
Test CRC AF643DB1
Copy CRC AF643DB1
Copy OK

No errors occurred


AccurateRip summary

Track 1 not present in database
Track 2 not present in database
Track 3 not present in database
Track 4 not present in database
Track 5 not present in database
Track 6 not present in database
Track 7 not present in database
Track 8 not present in database
Track 9 not present in database
Track 10 not present in database
Track 11 not present in database
Track 12 not present in database
Track 13 not present in database
Track 14 not present in database
Track 15 not present in database
Track 16 not present in database
Track 17 not present in database
Track 18 not present in database
Track 19 not present in database

None of the tracks are present in the AccurateRip database

End of status report

[CUETools log; Date: 19.09.2017 22:04:46; Version: 2.1.4]
[CTDB TOCID: AClz2EOESVLVIN0KUAwAz.PSCwY-] found.
Track | CTDB Status
1 | (21/21) Accurately ripped
2 | (21/21) Accurately ripped
3 | (21/21) Accurately ripped
4 | (21/21) Accurately ripped
5 | (21/21) Accurately ripped
6 | (21/21) Accurately ripped
7 | (21/21) Accurately ripped
8 | (21/21) Accurately ripped
9 | (21/21) Accurately ripped
10 | (21/21) Accurately ripped
11 | (21/21) Accurately ripped
12 | (21/21) Accurately ripped
13 | (21/21) Accurately ripped
14 | (21/21) Accurately ripped
15 | (21/21) Accurately ripped
16 | (21/21) Accurately ripped
17 | (21/21) Accurately ripped
18 | (21/21) Accurately ripped
19 | (21/21) Accurately ripped
[AccurateRip ID: 002b7e46-026442dc-ef0ec813] found.
Track [ CRC | V2 ] Status
01 [6e572a37|b87d0d7b] (12+14/26) Accurately ripped
02 [f622ba25|96d476e0] (12+14/26) Accurately ripped
03 [663e7bb0|5840bfcd] (12+14/26) Accurately ripped
04 [fd7880bb|f82d1d39] (13+14/27) Accurately ripped
05 [7d7b18cf|01a857fc] (13+14/27) Accurately ripped
06 [2fd8a8a8|4d2df168] (12+14/26) Accurately ripped
07 [d8c99784|ab2714ac] (13+14/27) Accurately ripped
08 [90c5e134|a38fe3de] (12+14/26) Accurately ripped
09 [f7518bbc|24b34d8d] (13+14/27) Accurately ripped
10 [c2d22c37|6eafb852] (13+14/27) Accurately ripped
11 [bad94ea5|34e5a46c] (13+14/27) Accurately ripped
12 [1d90b856|e4515672] (13+14/27) Accurately ripped
13 [c310a957|d95aed3e] (13+14/27) Accurately ripped
14 [a0fed567|d00c627d] (13+14/27) Accurately ripped
15 [65388dba|e1b2d357] (13+14/27) Accurately ripped
16 [3c957b49|00098e5f] (13+14/27) Accurately ripped
17 [4dd0c116|5e7d557f] (13+14/27) Accurately ripped
18 [b5e11945|161d2cd1] (12+14/26) Accurately ripped
19 [2e48c1ad|2ede2c8c] (12+14/26) Accurately ripped

Track Peak [ CRC32 ] [W/O NULL] [ LOG ]
– 99,0 [AF643DB1] [B13016D4] CRC32
01 99,0 [6EE8DF54] [59A16EA7]
02 99,0 [3D7675C9] [25197B13]
03 99,0 [972846C2] [EC8B0194]
04 99,0 [8BBAEB49] [B4D64460]
05 99,0 [C2A2A9A7] [7CCF655F]
06 99,0 [84B8292D] [81307947]
07 99,0 [6E7AD32C] [47CF61FD]
08 99,0 [A6B33239] [0685B035]
09 99,0 [34B3B586] [600810C0]
10 99,0 [D4B0272B] [F2AE6D31]
11 99,0 [B442A32D] [BF9FC094]
12 99,0 [3EF3A8E9] [A3EE2A64]
13 99,0 [BC29BA7C] [1CEAE5BC]
14 99,0 [07C658C6] [75B4BF44]
15 99,0 [DA8476B2] [A6830257]
16 99,0 [FBA26009] [8517C66D]
17 99,0 [0C5D5C16] [950D117B]
18 99,0 [C1B80D73] [6D16F60A]
19 99,0 [F9945682] [D70AFC24]

Thanks to sklon

See also:
V.A. - Erotic Lounge 2 (2004)
V.A. - Erotic Lounge 3 (Sensual Passion) (2004)
V.A. - Erotic Lounge 4 (Bare Jewels) (2005)
V.A. - Erotic Lounge 5 (Secret Affairs) (2006)
V.A. - Erotic Lounge 6 (Seductive Pearls) (2007)
V.A. - Erotic Lounge 7 (Finest Pleasure) (2008)