Subcategories

VA - La Nuit: Rare Lounge & Chilled House Grooves Vol.6 (2013)

Posted By: jclane
VA - La Nuit: Rare Lounge & Chilled House Grooves Vol.6 (2013)

VA - La Nuit: Rare Lounge & Chilled House Grooves Vol.6 (2013)
EAC Rip | 2CDs | FLAC Tracks + Cue + Log - 0.97 GB | MP3 CBR @320 kbps - 376 MB | Full scans - 106 MB
Label: Embassy One | Catalog.#: 807297201826 | Genre: Lounge, Chillout

Featured by Chris Malinchak, Lana Del Rey, Hot Since 82, Ida Corr, Dan Caster, Ross Couch, Projekt 24, Ben Pearce, Moby, Digitalism, Super Flu and many more.
CD1

01. Chris Malinchak - So Good To Me (Extended Mix.) - 4:16
02. Wankelmut & Emma Louise - My Head Is A Jungle (Gui Boratto Dub Mix) - 5:20
03. Feed Me & Crystal Fighters - Love Is All I Got (Larse Remix) - 6:00
04. Lana Del Rey - Summertime Sadness (Hannes Fischer Nightflight Remix) - 3:28
05. Dusky Feat. Janai - Lost In You (Boom Jinx Remix) - 4:00
06. Richard Grey And Nari & Milani Feat. Alexandra Prince - Mas Que Nada (Bimbo Jones Remix) - 3:36
07. Dan Caster & Toby Montana - Mama Say - 4:32
08. Laserkraft 3D & The Goooniez - Voyager I (Nico Pusch & Phable Remix) - 5:20
09. David Devilla, Mauro B, Gerad C Feat. Elisabeth Aivar - Someone Told Me - 5:04
10. Infinity Ink - Infinity (Claude VonStroke Remix) - 6:40
11. Hot Since 82 - Let It Ride (Nicolas Masseyeff Remix) - 3:40
12. Robyn - Dancing On My Own (Fred Falke Remix) - 3:24
13. Universal Solution Feat. LaMeduza - You'll See (Micha Mischer Remix) - 2:52
14. Parra For Cuva Feat. Anna Naklab - Fading Nights - 4:19
15. Novika - Miss Mood (Satin Jackets Remix) - 3:11
16. Ida Corr - Hold My Head Up High (Laguna Blue Remix) - 3:40
17. Jean Elan & Cosmo Klein - All About Us (Sunset Lounge Mix) - 4:40
18. Ross Couch - From Dusk Til Dawn - 2:28
19. Salon - Nu Disco Vibe - 3:12


Exact Audio Copy V1.0 beta 3 from 29. August 2011

EAC extraction logfile from 21. January 2014, 12:44

Various / La Nuit Vol. 6 - Rare Lounge Chilled House Grooves CD1

Used drive : ASUS DRW-24B3ST Adapter: 1 ID: 2

Read mode : Secure
Utilize accurate stream : Yes
Defeat audio cache : Yes
Make use of C2 pointers : No

Read offset correction : 6
Overread into Lead-In and Lead-Out : No
Fill up missing offset samples with silence : Yes
Delete leading and trailing silent blocks : No
Null samples used in CRC calculations : Yes
Used interface : Native Win32 interface for Win NT & 2000
Gap handling : Appended to previous track

Used output format : User Defined Encoder
Selected bitrate : 896 kBit/s
Quality : High
Add ID3 tag : No
Command line compressor : C:\Program Files (x86)\Exact Audio Copy\Flac\flac.exe
Additional command line options : -8 -V -T "ARTIST=%artist%" -T "TITLE=%title%" -T "ALBUM=%albumtitle%" -T "DATE=%year%" -T "TRACKNUMBER=%tracknr%" -T "GENRE=%genre%" -T "COMMENT=ripped by Oleandris" %source%


TOC of the extracted CD

Track | Start | Length | Start sector | End sector
––––––––––––––––––––––––––––-
1 | 0:00.00 | 4:16.00 | 0 | 19199
2 | 4:16.00 | 5:20.00 | 19200 | 43199
3 | 9:36.00 | 6:00.00 | 43200 | 70199
4 | 15:36.00 | 3:28.00 | 70200 | 85799
5 | 19:04.00 | 4:00.00 | 85800 | 103799
6 | 23:04.00 | 3:36.00 | 103800 | 119999
7 | 26:40.00 | 4:32.00 | 120000 | 140399
8 | 31:12.00 | 5:20.00 | 140400 | 164399
9 | 36:32.00 | 5:04.00 | 164400 | 187199
10 | 41:36.00 | 6:40.00 | 187200 | 217199
11 | 48:16.00 | 3:40.00 | 217200 | 233699
12 | 51:56.00 | 3:24.00 | 233700 | 248999
13 | 55:20.00 | 2:52.00 | 249000 | 261899
14 | 58:12.00 | 4:19.37 | 261900 | 281361
15 | 62:31.37 | 3:11.37 | 281362 | 295723
16 | 65:42.74 | 3:40.00 | 295724 | 312223
17 | 69:22.74 | 4:40.37 | 312224 | 333260
18 | 74:03.36 | 2:28.00 | 333261 | 344360
19 | 76:31.36 | 3:12.37 | 344361 | 358797


Track 1

Filename F:\ЗАГРУЗКИ\ La Nuit (Rare Lounge & Chilled House Grooves) vol.6 2CD (2013)\CD1\01. Chris Malinchak - So Good To Me (Extended Mix.).wav

Pre-gap length 0:00:02.00

Peak level 99.9 %
Extraction speed 2.2 X
Track quality 100.0 %
Test CRC FFD1F64C
Copy CRC FFD1F64C
Accurately ripped (confidence 1) [412080AC] (AR v2)
Copy OK

Track 2

Filename F:\ЗАГРУЗКИ\ La Nuit (Rare Lounge & Chilled House Grooves) vol.6 2CD (2013)\CD1\02. Wankelmut & Emma Louise - My Head Is A Jungle (Gui Boratto Dub Mix).wav

Peak level 99.9 %
Extraction speed 2.0 X
Track quality 99.9 %
Test CRC 2BD17899
Copy CRC 2BD17899
Accurately ripped (confidence 1) [317711EE] (AR v2)
Copy OK

Track 3

Filename F:\ЗАГРУЗКИ\ La Nuit (Rare Lounge & Chilled House Grooves) vol.6 2CD (2013)\CD1\03. Feed Me & Crystal Fighters - Love Is All I Got (Larse Remix).wav

Peak level 99.9 %
Extraction speed 2.8 X
Track quality 100.0 %
Test CRC 594A962B
Copy CRC 594A962B
Accurately ripped (confidence 1) [A58E64E9] (AR v2)
Copy OK

Track 4

Filename F:\ЗАГРУЗКИ\ La Nuit (Rare Lounge & Chilled House Grooves) vol.6 2CD (2013)\CD1\04. Lana Del Rey - Summertime Sadness (Hannes Fischer Nightflight Remix).wav

Peak level 99.9 %
Extraction speed 2.8 X
Track quality 100.0 %
Test CRC CC508CED
Copy CRC CC508CED
Accurately ripped (confidence 1) [D880301B] (AR v2)
Copy OK

Track 5

Filename F:\ЗАГРУЗКИ\ La Nuit (Rare Lounge & Chilled House Grooves) vol.6 2CD (2013)\CD1\05. Dusky Feat. Janai - Lost In You (Boom Jinx Remix).wav

Peak level 99.9 %
Extraction speed 2.2 X
Track quality 99.9 %
Test CRC 4C44107D
Copy CRC 4C44107D
Accurately ripped (confidence 1) [A3B6BF5C] (AR v2)
Copy OK

Track 6

Filename F:\ЗАГРУЗКИ\ La Nuit (Rare Lounge & Chilled House Grooves) vol.6 2CD (2013)\CD1\06. Richard Grey And Nari & Milani Feat. Alexandra Prince - Mas Que Nada (Bimbo Jones Remix).wav

Peak level 99.9 %
Extraction speed 3.1 X
Track quality 100.0 %
Test CRC 56CBF02D
Copy CRC 56CBF02D
Accurately ripped (confidence 1) [1E137210] (AR v2)
Copy OK

Track 7

Filename F:\ЗАГРУЗКИ\ La Nuit (Rare Lounge & Chilled House Grooves) vol.6 2CD (2013)\CD1\07. Dan Caster & Toby Montana - Mama Say.wav

Peak level 99.9 %
Extraction speed 3.4 X
Track quality 100.0 %
Test CRC 670CFDB7
Copy CRC 670CFDB7
Accurately ripped (confidence 1) [1A7C1488] (AR v2)
Copy OK

Track 8

Filename F:\ЗАГРУЗКИ\ La Nuit (Rare Lounge & Chilled House Grooves) vol.6 2CD (2013)\CD1\08. Laserkraft 3D & The Goooniez - Voyager I (Nico Pusch & Phable Remix).wav

Peak level 99.9 %
Extraction speed 2.8 X
Track quality 99.9 %
Test CRC 1A173710
Copy CRC 1A173710
Accurately ripped (confidence 1) [DE6E9D3D] (AR v2)
Copy OK

Track 9

Filename F:\ЗАГРУЗКИ\ La Nuit (Rare Lounge & Chilled House Grooves) vol.6 2CD (2013)\CD1\09. David Devilla, Mauro B, Gerad C Feat. Elisabeth Aivar - Someone Told Me.wav

Peak level 99.9 %
Extraction speed 3.8 X
Track quality 100.0 %
Test CRC 8E1CE53E
Copy CRC 8E1CE53E
Accurately ripped (confidence 1) [6B26CD62] (AR v2)
Copy OK

Track 10

Filename F:\ЗАГРУЗКИ\ La Nuit (Rare Lounge & Chilled House Grooves) vol.6 2CD (2013)\CD1\10. Infinity Ink - Infinity (Claude VonStroke Remix).wav

Peak level 99.9 %
Extraction speed 4.0 X
Track quality 100.0 %
Test CRC 1E29FDCE
Copy CRC 1E29FDCE
Accurately ripped (confidence 1) [1EF48EC4] (AR v2)
Copy OK

Track 11

Filename F:\ЗАГРУЗКИ\ La Nuit (Rare Lounge & Chilled House Grooves) vol.6 2CD (2013)\CD1\11. Hot Since 82 - Let It Ride (Nicolas Masseyeff Remix).wav

Peak level 99.9 %
Extraction speed 3.9 X
Track quality 100.0 %
Test CRC 5618127A
Copy CRC 5618127A
Accurately ripped (confidence 1) [B64C6DF2] (AR v2)
Copy OK

Track 12

Filename F:\ЗАГРУЗКИ\ La Nuit (Rare Lounge & Chilled House Grooves) vol.6 2CD (2013)\CD1\12. Robyn - Dancing On My Own (Fred Falke Remix).wav

Peak level 99.9 %
Extraction speed 4.0 X
Track quality 100.0 %
Test CRC C81275EC
Copy CRC C81275EC
Accurately ripped (confidence 1) [3511312B] (AR v2)
Copy OK

Track 13

Filename F:\ЗАГРУЗКИ\ La Nuit (Rare Lounge & Chilled House Grooves) vol.6 2CD (2013)\CD1\13. Universal Solution Feat. LaMeduza - You'll See (Micha Mischer Remix).wav

Peak level 99.9 %
Extraction speed 2.6 X
Track quality 99.9 %
Test CRC A0C19746
Copy CRC A0C19746
Accurately ripped (confidence 1) [769EE21E] (AR v2)
Copy OK

Track 14

Filename F:\ЗАГРУЗКИ\ La Nuit (Rare Lounge & Chilled House Grooves) vol.6 2CD (2013)\CD1\14. Parra For Cuva Feat. Anna Naklab - Fading Nights.wav

Peak level 99.9 %
Extraction speed 4.3 X
Track quality 100.0 %
Test CRC 576CC825
Copy CRC 576CC825
Accurately ripped (confidence 1) [51CC553A] (AR v2)
Copy OK

Track 15

Filename F:\ЗАГРУЗКИ\ La Nuit (Rare Lounge & Chilled House Grooves) vol.6 2CD (2013)\CD1\15. Novika - Miss Mood (Satin Jackets Remix).wav

Peak level 99.9 %
Extraction speed 4.2 X
Track quality 100.0 %
Test CRC 0CC00E10
Copy CRC 0CC00E10
Accurately ripped (confidence 1) [864A001A] (AR v2)
Copy OK

Track 16

Filename F:\ЗАГРУЗКИ\ La Nuit (Rare Lounge & Chilled House Grooves) vol.6 2CD (2013)\CD1\16. Ida Corr - Hold My Head Up High (Laguna Blue Remix).wav

Peak level 99.9 %
Extraction speed 4.3 X
Track quality 100.0 %
Test CRC 9EA36766
Copy CRC 9EA36766
Accurately ripped (confidence 1) [DE86AC27] (AR v2)
Copy OK

Track 17

Filename F:\ЗАГРУЗКИ\ La Nuit (Rare Lounge & Chilled House Grooves) vol.6 2CD (2013)\CD1\17. Jean Elan & Cosmo Klein - All About Us (Sunset Lounge Mix).wav

Peak level 99.9 %
Extraction speed 3.4 X
Track quality 99.9 %
Test CRC BA6BD3A5
Copy CRC BA6BD3A5
Accurately ripped (confidence 1) [991C322D] (AR v2)
Copy OK

Track 18

Filename F:\ЗАГРУЗКИ\ La Nuit (Rare Lounge & Chilled House Grooves) vol.6 2CD (2013)\CD1\18. Ross Couch - From Dusk Til Dawn.wav

Peak level 99.9 %
Extraction speed 4.2 X
Track quality 100.0 %
Test CRC 95C95B46
Copy CRC 95C95B46
Accurately ripped (confidence 1) [608FDDE9] (AR v2)
Copy OK

Track 19

Filename F:\ЗАГРУЗКИ\ La Nuit (Rare Lounge & Chilled House Grooves) vol.6 2CD (2013)\CD1\19. Salon - Nu Disco Vibe.wav

Peak level 99.9 %
Extraction speed 4.6 X
Track quality 100.0 %
Test CRC 1B57C044
Copy CRC 1B57C044
Accurately ripped (confidence 1) [A4CE1CE1] (AR v2)
Copy OK


All tracks accurately ripped

No errors occurred

End of status report

–– CUETools DB Plugin V2.1.3

[CTDB TOCID: ZgUgCprjcPqWcbBGR0spf9J1YdQ-] found, Submit result: ZgUgCprjcPqWcbBGR0spf9J1YdQ- has been uploaded
[d34c20d5] (1/1) Differs in 324 samples @00:47:28-00:47:29
You can use CUETools to repair this rip.


==== Log checksum 5B2092AB4813816D67DE8B242819EEFB2E5695CE3CB94E1F2994DE0B83895ABE ====


[CUETools log; Date: 1/28/2014 6:58:51 PM; Version: 2.1.4]
[CTDB TOCID: ZgUgCprjcPqWcbBGR0spf9J1YdQ-] found.
Track | CTDB Status
1 | (1/2) Accurately ripped, or (1/2) differs in 324 samples @00:47:28-00:47:29
2 | (2/2) Accurately ripped
3 | (2/2) Accurately ripped
4 | (2/2) Accurately ripped
5 | (2/2) Accurately ripped
6 | (2/2) Accurately ripped
7 | (2/2) Accurately ripped
8 | (2/2) Accurately ripped
9 | (2/2) Accurately ripped
10 | (2/2) Accurately ripped
11 | (2/2) Accurately ripped
12 | (2/2) Accurately ripped
13 | (2/2) Accurately ripped
14 | (2/2) Accurately ripped
15 | (2/2) Accurately ripped
16 | (2/2) Accurately ripped
17 | (2/2) Accurately ripped
18 | (2/2) Accurately ripped
19 | (2/2) Accurately ripped
[AccurateRip ID: 003a50a2-03270954-3d12af13] found.
Track [ CRC | V2 ] Status
01 [b7d75348|412080ac] (0+1/1) Accurately ripped
02 [66292c87|317711ee] (0+1/1) Accurately ripped
03 [a1b0dec1|a58e64e9] (0+1/1) Accurately ripped
04 [c9df82d0|d880301b] (0+1/1) Accurately ripped
05 [aef67f0a|a3b6bf5c] (0+1/1) Accurately ripped
06 [0ffa0718|1e137210] (0+1/1) Accurately ripped
07 [cfe4d293|1a7c1488] (0+1/1) Accurately ripped
08 [675e012c|de6e9d3d] (0+1/1) Accurately ripped
09 [939dae2d|6b26cd62] (0+1/1) Accurately ripped
10 [6786192b|1ef48ec4] (0+1/1) Accurately ripped
11 [2bd05a95|b64c6df2] (0+1/1) Accurately ripped
12 [827d3e50|3511312b] (0+1/1) Accurately ripped
13 [d8c577f4|769ee21e] (0+1/1) Accurately ripped
14 [0b6f9479|51cc553a] (0+1/1) Accurately ripped
15 [7091c910|864a001a] (0+1/1) Accurately ripped
16 [2ce9bb4e|de86ac27] (0+1/1) Accurately ripped
17 [6b65dffb|991c322d] (0+1/1) Accurately ripped
18 [f15e072a|608fdde9] (0+1/1) Accurately ripped
19 [4365d1eb|a4ce1ce1] (0+1/1) Accurately ripped

Track Peak [ CRC32 ] [W/O NULL] [ LOG ]
– 99.9 [B1375F6B] [70034546]
01 99.9 [FFD1F64C] [DC4303F7] CRC32
02 99.9 [2BD17899] [1EC2F124] CRC32
03 99.9 [594A962B] [1D153CBC] CRC32
04 99.9 [CC508CED] [62185D9C] CRC32
05 99.9 [4C44107D] [09BEF361] CRC32
06 99.9 [56CBF02D] [37209C0D] CRC32
07 99.9 [670CFDB7] [7C67C596] CRC32
08 99.9 [1A173710] [D80D9196] CRC32
09 99.9 [8E1CE53E] [04CEE955] CRC32
10 99.9 [1E29FDCE] [FE7E3288] CRC32
11 99.9 [5618127A] [43CC1C83] CRC32
12 99.9 [C81275EC] [613B8B59] CRC32
13 99.9 [A0C19746] [BD5AC9DF] CRC32
14 99.9 [576CC825] [C5CAFA10] CRC32
15 99.9 [0CC00E10] [72186DCA] CRC32
16 99.9 [9EA36766] [AA1710D0] CRC32
17 99.9 [BA6BD3A5] [1CFE1FCA] CRC32
18 99.9 [95C95B46] [52AC187D] CRC32
19 99.9 [1B57C044] [ECF9EC09] CRC32


CD2

01. Bonobo - Cirrus - 3:12
02. Projekt 24 - Break Out - 2:32
03. Ben Pearce - What I Might Do (Radio Edit) (3:12
04. Tiger Stripes Feat. Pete Fij - Out Of Phase / Shout - 4:56
05. Maxxi Soundsystem Feat. Name One - Regrets We Have No Use For (Matthew Herbert Remix) - 4:00
06. Luciano - Rise Of Angel (Andrea Olivia Remix) - 5:52
07. Moby - Extreme Ways (Bourne's Legacy) (Voodoo Child Remix) - 5:04
08. Bakermat - Vandaag - 4:56
09. Agnostica - Improvisation (Live Version) - 3:52
10. Dems - Down On You (Hannes Fischer Remix) - 4:00
11. Mirza - Zadeh - Heart Of Glass - 4:00
12. The Messenger - From The Soul (Klartraum Remix) - 5:20
13. Digitalism - Zdarlight (Chopstick & JohnJon Remix) - 5:04
14. Super Flu & Andhim - Hasoweh - 4:56
15. Fous De La Mer Feat. Sol Galarreta - For A Long Time - 2:44
16. Shazz Man - Chillin - 2:36
17. Tyler Rix - Blackout - 4:12
18. Fobee - Fireflies - 3:08
19. Jose Padilla - Bosaxi (Touched Mix) - 5:56


Exact Audio Copy V1.0 beta 3 from 29. August 2011

EAC extraction logfile from 21. January 2014, 12:44

Various Artists / La Nuit Vol. 6 - Rare Lounge Chilled House Grooves CD2

Used drive : PLEXTOR DVDR PX-L890SA Adapter: 1 ID: 4

Read mode : Secure
Utilize accurate stream : Yes
Defeat audio cache : Yes
Make use of C2 pointers : No

Read offset correction : 6
Overread into Lead-In and Lead-Out : No
Fill up missing offset samples with silence : Yes
Delete leading and trailing silent blocks : No
Null samples used in CRC calculations : Yes
Used interface : Native Win32 interface for Win NT & 2000
Gap handling : Appended to previous track

Used output format : User Defined Encoder
Selected bitrate : 896 kBit/s
Quality : High
Add ID3 tag : No
Command line compressor : C:\Program Files (x86)\Exact Audio Copy\Flac\flac.exe
Additional command line options : -8 -V -T "ARTIST=%artist%" -T "TITLE=%title%" -T "ALBUM=%albumtitle%" -T "DATE=%year%" -T "TRACKNUMBER=%tracknr%" -T "GENRE=%genre%" -T "COMMENT=ripped by Oleandris" %source%


TOC of the extracted CD

Track | Start | Length | Start sector | End sector
––––––––––––––––––––––––––––-
1 | 0:00.00 | 3:12.00 | 0 | 14399
2 | 3:12.00 | 2:32.00 | 14400 | 25799
3 | 5:44.00 | 3:12.00 | 25800 | 40199
4 | 8:56.00 | 4:56.00 | 40200 | 62399
5 | 13:52.00 | 4:00.00 | 62400 | 80399
6 | 17:52.00 | 5:52.00 | 80400 | 106799
7 | 23:44.00 | 5:04.00 | 106800 | 129599
8 | 28:48.00 | 4:56.00 | 129600 | 151799
9 | 33:44.00 | 3:52.00 | 151800 | 169199
10 | 37:36.00 | 4:00.00 | 169200 | 187199
11 | 41:36.00 | 4:00.00 | 187200 | 205199
12 | 45:36.00 | 5:20.00 | 205200 | 229199
13 | 50:56.00 | 5:04.00 | 229200 | 251999
14 | 56:00.00 | 4:56.00 | 252000 | 274199
15 | 60:56.00 | 2:44.00 | 274200 | 286499
16 | 63:40.00 | 2:36.00 | 286500 | 298199
17 | 66:16.00 | 4:12.00 | 298200 | 317099
18 | 70:28.00 | 3:08.00 | 317100 | 331199
19 | 73:36.00 | 5:56.00 | 331200 | 357899


Track 1

Filename F:\ЗАГРУЗКИ\ La Nuit (Rare Lounge & Chilled House Grooves) vol.6 2CD (2013)\CD2\01. Bonobo - Cirrus.wav

Pre-gap length 0:00:02.00

Peak level 99.9 %
Extraction speed 3.9 X
Track quality 100.0 %
Test CRC 533CC5F9
Copy CRC 533CC5F9
Accurately ripped (confidence 1) [BB7FA70E] (AR v2)
Copy OK

Track 2

Filename F:\ЗАГРУЗКИ\ La Nuit (Rare Lounge & Chilled House Grooves) vol.6 2CD (2013)\CD2\02. Projekt 24 - Break Out.wav

Peak level 99.9 %
Extraction speed 4.0 X
Track quality 100.0 %
Test CRC 618E301E
Copy CRC 618E301E
Accurately ripped (confidence 1) [CF9BFEC0] (AR v2)
Copy OK

Track 3

Filename F:\ЗАГРУЗКИ\ La Nuit (Rare Lounge & Chilled House Grooves) vol.6 2CD (2013)\CD2\03. Ben Pearce - What I Might Do (Radio Edit).wav

Peak level 99.9 %
Extraction speed 4.5 X
Track quality 100.0 %
Test CRC 94FFFE12
Copy CRC 94FFFE12
Accurately ripped (confidence 1) [4A3A194E] (AR v2)
Copy OK

Track 4

Filename F:\ЗАГРУЗКИ\ La Nuit (Rare Lounge & Chilled House Grooves) vol.6 2CD (2013)\CD2\04. Tiger Stripes Feat. Pete Fij - Out Of Phase , Shout.wav

Peak level 99.9 %
Extraction speed 5.1 X
Track quality 100.0 %
Test CRC 13117854
Copy CRC 13117854
Accurately ripped (confidence 1) [2B4A0032] (AR v2)
Copy OK

Track 5

Filename F:\ЗАГРУЗКИ\ La Nuit (Rare Lounge & Chilled House Grooves) vol.6 2CD (2013)\CD2\05. Maxxi Soundsystem Feat. Name One - Regrets We Have No Use For (Matthew Herbert Remix).wav

Peak level 99.9 %
Extraction speed 4.2 X
Track quality 99.9 %
Test CRC DB2E8DC5
Copy CRC DB2E8DC5
Accurately ripped (confidence 1) [44ACE4AA] (AR v2)
Copy OK

Track 6

Filename F:\ЗАГРУЗКИ\ La Nuit (Rare Lounge & Chilled House Grooves) vol.6 2CD (2013)\CD2\06. Luciano - Rise Of Angel (Andrea Olivia Remix).wav

Peak level 99.9 %
Extraction speed 5.9 X
Track quality 100.0 %
Test CRC F5801DC0
Copy CRC F5801DC0
Accurately ripped (confidence 1) [DE77188D] (AR v2)
Copy OK

Track 7

Filename F:\ЗАГРУЗКИ\ La Nuit (Rare Lounge & Chilled House Grooves) vol.6 2CD (2013)\CD2\07. Moby - Extreme Ways (Bourne's Legacy) (Voodoo Child Remix).wav

Peak level 99.9 %
Extraction speed 6.2 X
Track quality 100.0 %
Test CRC 961F1E76
Copy CRC 961F1E76
Accurately ripped (confidence 1) [F8BFB4FD] (AR v2)
Copy OK

Track 8

Filename F:\ЗАГРУЗКИ\ La Nuit (Rare Lounge & Chilled House Grooves) vol.6 2CD (2013)\CD2\08. Bakermat - Vandaag.wav

Peak level 99.9 %
Extraction speed 6.4 X
Track quality 100.0 %
Test CRC E8FA4E7D
Copy CRC E8FA4E7D
Accurately ripped (confidence 1) [36CA0F4B] (AR v2)
Copy OK

Track 9

Filename F:\ЗАГРУЗКИ\ La Nuit (Rare Lounge & Chilled House Grooves) vol.6 2CD (2013)\CD2\09. Agnostica - Improvisation (Live Version).wav

Peak level 99.9 %
Extraction speed 6.5 X
Track quality 100.0 %
Test CRC 887F845E
Copy CRC 887F845E
Accurately ripped (confidence 1) [6825864C] (AR v2)
Copy OK

Track 10

Filename F:\ЗАГРУЗКИ\ La Nuit (Rare Lounge & Chilled House Grooves) vol.6 2CD (2013)\CD2\10. Dems - Down On You (Hannes Fischer Remix).wav

Peak level 99.9 %
Extraction speed 5.4 X
Track quality 99.9 %
Test CRC CE247045
Copy CRC CE247045
Accurately ripped (confidence 1) [D6CE0C9D] (AR v2)
Copy OK

Track 11

Filename F:\ЗАГРУЗКИ\ La Nuit (Rare Lounge & Chilled House Grooves) vol.6 2CD (2013)\CD2\11. Mirza - Zadeh - Heart Of Glass.wav

Peak level 99.9 %
Extraction speed 5.5 X
Track quality 99.9 %
Test CRC B70A77F0
Copy CRC B70A77F0
Accurately ripped (confidence 1) [C01A2439] (AR v2)
Copy OK

Track 12

Filename F:\ЗАГРУЗКИ\ La Nuit (Rare Lounge & Chilled House Grooves) vol.6 2CD (2013)\CD2\12. The Messenger - From The Soul (Klartraum Remix).wav

Peak level 99.9 %
Extraction speed 6.2 X
Track quality 99.9 %
Test CRC 69127F4D
Copy CRC 69127F4D
Accurately ripped (confidence 1) [11E2E2C3] (AR v2)
Copy OK

Track 13

Filename F:\ЗАГРУЗКИ\ La Nuit (Rare Lounge & Chilled House Grooves) vol.6 2CD (2013)\CD2\13. Digitalism - Zdarlight (Chopstick & JohnJon Remix).wav

Peak level 99.9 %
Extraction speed 7.7 X
Track quality 100.0 %
Test CRC 4A61D2F5
Copy CRC 4A61D2F5
Accurately ripped (confidence 1) [161BA107] (AR v2)
Copy OK

Track 14

Filename F:\ЗАГРУЗКИ\ La Nuit (Rare Lounge & Chilled House Grooves) vol.6 2CD (2013)\CD2\14. Super Flu & Andhim - Hasoweh.wav

Peak level 99.9 %
Extraction speed 8.1 X
Track quality 100.0 %
Test CRC 0C3205CF
Copy CRC 0C3205CF
Accurately ripped (confidence 1) [095F677B] (AR v2)
Copy OK

Track 15

Filename F:\ЗАГРУЗКИ\ La Nuit (Rare Lounge & Chilled House Grooves) vol.6 2CD (2013)\CD2\15. Fous De La Mer Feat. Sol Galarreta - For A Long Time.wav

Peak level 99.9 %
Extraction speed 5.6 X
Track quality 99.9 %
Test CRC D186DCA1
Copy CRC D186DCA1
Accurately ripped (confidence 1) [517C2B41] (AR v2)
Copy OK

Track 16

Filename F:\ЗАГРУЗКИ\ La Nuit (Rare Lounge & Chilled House Grooves) vol.6 2CD (2013)\CD2\16. Shazz Man - Chillin.wav

Peak level 99.9 %
Extraction speed 5.5 X
Track quality 99.9 %
Test CRC BC7D7B03
Copy CRC BC7D7B03
Accurately ripped (confidence 1) [7E36F36E] (AR v2)
Copy OK

Track 17

Filename F:\ЗАГРУЗКИ\ La Nuit (Rare Lounge & Chilled House Grooves) vol.6 2CD (2013)\CD2\17. Tyler Rix - Blackout.wav

Peak level 99.9 %
Extraction speed 6.7 X
Track quality 99.9 %
Test CRC C95ACF41
Copy CRC C95ACF41
Accurately ripped (confidence 1) [569B44CB] (AR v2)
Copy OK

Track 18

Filename F:\ЗАГРУЗКИ\ La Nuit (Rare Lounge & Chilled House Grooves) vol.6 2CD (2013)\CD2\18. Fobee - Fireflies.wav

Peak level 99.9 %
Extraction speed 8.2 X
Track quality 100.0 %
Test CRC 57603DA1
Copy CRC 57603DA1
Accurately ripped (confidence 1) [01AD5D80] (AR v2)
Copy OK

Track 19

Filename F:\ЗАГРУЗКИ\ La Nuit (Rare Lounge & Chilled House Grooves) vol.6 2CD (2013)\CD2\19. Jose Padilla - Bosaxi (Touched Mix).wav

Peak level 99.9 %
Extraction speed 9.1 X
Track quality 100.0 %
Test CRC 00978FF6
Copy CRC 00978FF6
Accurately ripped (confidence 1) [1C1EB0FC] (AR v2)
Copy OK


All tracks accurately ripped

No errors occurred

End of status report

–– CUETools DB Plugin V2.1.3

[CTDB TOCID: 2QXOPhLKatcNhmseMiHFa9YG2qo-] found, Submit result: 2QXOPhLKatcNhmseMiHFa9YG2qo- has been confirmed
[4668ddf8] (2/2) Accurately ripped


==== Log checksum CBB0F3F17D0FF999C55647C4FC8DD5F6C1BFFFE7A557A8C455EF6682A4F4E061 ====


[CUETools log; Date: 1/28/2014 7:03:57 PM; Version: 2.1.4]
[CTDB TOCID: 2QXOPhLKatcNhmseMiHFa9YG2qo-] found.
Track | CTDB Status
1 | (3/3) Accurately ripped
2 | (3/3) Accurately ripped
3 | (3/3) Accurately ripped
4 | (3/3) Accurately ripped
5 | (3/3) Accurately ripped
6 | (3/3) Accurately ripped
7 | (3/3) Accurately ripped
8 | (3/3) Accurately ripped
9 | (3/3) Accurately ripped
10 | (3/3) Accurately ripped
11 | (3/3) Accurately ripped
12 | (3/3) Accurately ripped
13 | (3/3) Accurately ripped
14 | (3/3) Accurately ripped
15 | (3/3) Accurately ripped
16 | (3/3) Accurately ripped
17 | (3/3) Accurately ripped
18 | (3/3) Accurately ripped
19 | (3/3) Accurately ripped
[AccurateRip ID: 0035b344-02f8c699-1f12a413] found.
Track [ CRC | V2 ] Status
01 [fd9c8fb6|bb7fa70e] (0+1/1) Accurately ripped
02 [b049439e|cf9bfec0] (0+1/1) Accurately ripped
03 [b0e47e48|4a3a194e] (0+1/1) Accurately ripped
04 [46645a60|2b4a0032] (0+1/1) Accurately ripped
05 [cb605390|44ace4aa] (0+1/1) Accurately ripped
06 [97b36a94|de77188d] (0+1/1) Accurately ripped
07 [b4ac1dad|f8bfb4fd] (0+1/1) Accurately ripped
08 [40ec69f2|36ca0f4b] (0+1/1) Accurately ripped
09 [41ac1140|6825864c] (0+1/1) Accurately ripped
10 [a67ec85c|d6ce0c9d] (0+1/1) Accurately ripped
11 [1eea6d3f|c01a2439] (0+1/1) Accurately ripped
12 [596dda0d|11e2e2c3] (0+1/1) Accurately ripped
13 [913e4ef2|161ba107] (0+1/1) Accurately ripped
14 [fbfa4e09|095f677b] (0+1/1) Accurately ripped
15 [161ef6ae|517c2b41] (0+1/1) Accurately ripped
16 [4311842e|7e36f36e] (0+1/1) Accurately ripped
17 [905a7111|569b44cb] (0+1/1) Accurately ripped
18 [70936b38|01ad5d80] (0+1/1) Accurately ripped
19 [fb7f8b32|1c1eb0fc] (0+1/1) Accurately ripped

Track Peak [ CRC32 ] [W/O NULL] [ LOG ]
– 99.9 [6801C7EE] [5F1F1007]
01 99.9 [533CC5F9] [52AFDDE4] CRC32
02 99.9 [618E301E] [D3B14D58] CRC32
03 99.9 [94FFFE12] [547E9B0C] CRC32
04 99.9 [13117854] [38E52ADE] CRC32
05 99.9 [DB2E8DC5] [29D939F3] CRC32
06 99.9 [F5801DC0] [77FEA1C5] CRC32
07 99.9 [961F1E76] [ECEC2387] CRC32
08 99.9 [E8FA4E7D] [40080514] CRC32
09 99.9 [887F845E] [04331CF8] CRC32
10 99.9 [CE247045] [A6C11BF5] CRC32
11 99.9 [B70A77F0] [8E916FCA] CRC32
12 99.9 [69127F4D] [0BA669BE] CRC32
13 99.9 [4A61D2F5] [2AD6EE3A] CRC32
14 99.9 [0C3205CF] [08B44C47] CRC32
15 99.9 [D186DCA1] [6AAB25A6] CRC32
16 99.9 [BC7D7B03] [A60AD1AB] CRC32
17 99.9 [C95ACF41] [0C3D6AC9] CRC32
18 99.9 [57603DA1] [126DAE71] CRC32
19 99.9 [00978FF6] [D121047E] CRC32


Released Date: 2013
Format: 2 x CD, Compilation
Length: 1:19:43 (CD1) | 1:19:32 (CD2)

VA - La Nuit: Rare Lounge & Chilled House Grooves Vol.6 (2013)

VA - La Nuit: Rare Lounge & Chilled House Grooves Vol.6 (2013)
VA - La Nuit: Rare Lounge & Chilled House Grooves Vol.6 (2013)

Ripped by Oleandris

Dead Links? please send me a private message.