Subcategories

VA - Ministry Of Sound: I Love Reggae (2017)

Posted By: Pisulik
VA - Ministry Of Sound: I Love Reggae (2017)

VA - Ministry Of Sound: I Love Reggae (2017)
EAC Rip | FLAC (Tracks) +cue, log, m3u, covers - 1.36 GB | 03:27:16
Reggae, Dub, Dancehall | Label: Ministry Of Sound

Ministry of Sound continues the huge hit I LOVE series with this years summer essential: I Love Reggae. Now into its 7th instalment and with well over 500,000 total sales, the I Love series is one of Ministry of Sound’s most prolific releases. I Love Reggae is set to be one of the best this year has to offer. 60 massive tracks of the only the biggest sunkissed reggae anthems. Cheerleader is a song recorded by Jamaican singer Omi. The track was written and produced by OMI and Clifton Dillon, Mark Bradford, and Ryan Dillon. Night Nurse is reggae artist Gregory Isaacs most well-known album. It contains his biggest hit Night Nurse as well as several other notable tracks. Featuring legendary artists such as Shaggy, Aswad and loads more. Whether youre at the beach, the BBQ or the bar the summer would be incomplete without this album.

TRACKLIST

CD 1

01. Shaggy - Boombastic (7" edit) (03:51)
02. Kevin Lyttle - Turn Me On (03:04)
03. Wayne Wonder - No Letting Go (03:22)
04. Sean Paul - I'm Still In Love With You (03:31)
05. Dawn Penn - You Don't Love Me No No No (03:18)
06. Sasha - Dat Sexy Body (02:43)
07. Beenie Man - Dude (03:31)
08. Apache Indian - Boom Shack-a-Lak (03:47)
09. Ini Kamoze - Here Comes The Hotstepper (04:09)
10. Chaka Demus & Pliers - Murder She Wrote (04:04)
11. Elephant Man - Pon Di River (04:00)
12. Mr Vegas - Heads High (03:29)
13. Shabba Ranks - Ting-A-Ling (03:51)
14. Tanto Metro & Devonte - Everyone Falls In Love (03:48)
15. Collie Buddz - Mamacita (03:14)
16. Rupee - Tempted To Touch (03:01)
17. Glamma Kid - Taboo (04:56)
18. Gyptian - Hold You (03:52)
19. Serani - No Games (03:08)
20. Mad Cobra - Flex (04:00)

Exact Audio Copy V1.3 from 2. September 2016

EAC extraction logfile from 22. July 2017, 17:30

Various Artists / I love reggae Disc 1

Used drive : HL-DT-STDVDRAM GP57EW40 Adapter: 1 ID: 1

Read mode : Secure
Utilize accurate stream : Yes
Defeat audio cache : Yes
Make use of C2 pointers : No

Read offset correction : 6
Overread into Lead-In and Lead-Out : No
Fill up missing offset samples with silence : Yes
Delete leading and trailing silent blocks : No
Null samples used in CRC calculations : Yes
Used interface : Native Win32 interface for Win NT & 2000
Gap handling : Appended to previous track

Used output format : User Defined Encoder
Selected bitrate : 896 kBit/s
Quality : High
Add ID3 tag : Yes
Command line compressor : C:\Program Files (x86)\Exact Audio Copy\Flac\flac.exe
Additional command line options : -6 -V -T "ARTIST=%artist%" -T "TITLE=%title%" -T "ALBUM=%albumtitle%" -T "DATE=%year%" -T "TRACKNUMBER=%tracknr%" -T "GENRE=%genre%" -T "COMMENT=%comment%" -T "BAND=%albuminterpret%" -T "ALBUMARTIST=%albuminterpret%" -T "COMPOSER=%composer%" %haslyrics%–tag-from-file=LYRICS="%lyricsfile%"%haslyrics% -T "DISCNUMBER=%cdnumber%" -T "TOTALDISCS=%totalcds%" -T "TOTALTRACKS=%numtracks%" %hascover%–picture="%coverfile%"%hascover% %source% -o %dest%


TOC of the extracted CD

Track | Start | Length | Start sector | End sector
––––––––––––––––––––––––––––-
1 | 0:00.00 | 3:52.71 | 0 | 17470
2 | 3:52.71 | 3:05.14 | 17471 | 31359
3 | 6:58.10 | 3:20.60 | 31360 | 46419
4 | 10:18.70 | 3:29.60 | 46420 | 62154
5 | 13:48.55 | 3:23.64 | 62155 | 77443
6 | 17:12.44 | 2:39.25 | 77444 | 89393
7 | 19:51.69 | 3:25.34 | 89394 | 104802
8 | 23:17.28 | 3:42.08 | 104803 | 121460
9 | 26:59.36 | 4:03.73 | 121461 | 139758
10 | 31:03.34 | 4:01.12 | 139759 | 157845
11 | 35:04.46 | 3:50.66 | 157846 | 175161
12 | 38:55.37 | 3:28.07 | 175162 | 190768
13 | 42:23.44 | 3:49.01 | 190769 | 207944
14 | 46:12.45 | 3:48.64 | 207945 | 225108
15 | 50:01.34 | 3:12.09 | 225109 | 239517
16 | 53:13.43 | 2:58.65 | 239518 | 252932
17 | 56:12.33 | 4:49.10 | 252933 | 274617
18 | 61:01.43 | 3:50.32 | 274618 | 291899
19 | 64:52.00 | 3:05.66 | 291900 | 305840
20 | 67:57.66 | 4:00.35 | 305841 | 323875


Track 1

Filename C:\Music\01 Boombastic.wav

Pre-gap length 0:00:02.00

Peak level 98.8 %
Extraction speed 1.2 X
Track quality 100.0 %
Test CRC 9132FCF2
Copy CRC 9132FCF2
Accurately ripped (confidence 1) [A0B7379A] (AR v2)
Copy OK

Track 2

Filename C:\Music\02 Turn Me On.wav

Peak level 98.8 %
Extraction speed 1.3 X
Track quality 100.0 %
Test CRC 9D2EB3A3
Copy CRC 9D2EB3A3
Accurately ripped (confidence 1) [BACFE55A] (AR v2)
Copy OK

Track 3

Filename C:\Music\03 No Letting Go.wav

Peak level 83.6 %
Extraction speed 1.4 X
Track quality 100.0 %
Test CRC BE6ACE3E
Copy CRC BE6ACE3E
Accurately ripped (confidence 1) [7B670431] (AR v2)
Copy OK

Track 4

Filename C:\Music\04 I'm Still In Love With You.wav

Peak level 96.6 %
Extraction speed 1.3 X
Track quality 99.9 %
Test CRC 97E11542
Copy CRC 97E11542
Accurately ripped (confidence 1) [F12A407A] (AR v2)
Copy OK

Track 5

Filename C:\Music\05 You Don't Love Me (No, No, No).wav

Peak level 98.8 %
Extraction speed 1.4 X
Track quality 99.9 %
Test CRC B5DF48FB
Copy CRC B5DF48FB
Accurately ripped (confidence 1) [584A7235] (AR v2)
Copy OK

Track 6

Filename C:\Music\06 Dat Sexy Body.wav

Peak level 98.8 %
Extraction speed 1.4 X
Track quality 99.9 %
Test CRC 55ED6BDC
Copy CRC 55ED6BDC
Accurately ripped (confidence 1) [565439C6] (AR v2)
Copy OK

Track 7

Filename C:\Music\07 Dude.wav

Peak level 98.8 %
Extraction speed 1.7 X
Track quality 100.0 %
Test CRC 6C139F1B
Copy CRC 6C139F1B
Accurately ripped (confidence 1) [AB18FBC7] (AR v2)
Copy OK

Track 8

Filename C:\Music\08 Boom Shack-A-Lak.wav

Peak level 98.8 %
Extraction speed 1.6 X
Track quality 99.9 %
Test CRC B881AF7A
Copy CRC B881AF7A
Accurately ripped (confidence 1) [FC349A7C] (AR v2)
Copy OK

Track 9

Filename C:\Music\09 Here Comes The Hotstepper.wav

Peak level 98.8 %
Extraction speed 1.9 X
Track quality 100.0 %
Test CRC 42F30326
Copy CRC 42F30326
Accurately ripped (confidence 1) [5F2D6C80] (AR v2)
Copy OK

Track 10

Filename C:\Music\10 Murder She Wrote.wav

Peak level 98.8 %
Extraction speed 2.0 X
Track quality 100.0 %
Test CRC C72305A5
Copy CRC C72305A5
Accurately ripped (confidence 1) [DE3F0AEC] (AR v2)
Copy OK

Track 11

Filename C:\Music\11 Pon Di River.wav

Peak level 98.8 %
Extraction speed 2.1 X
Track quality 100.0 %
Test CRC 69E6FD90
Copy CRC 69E6FD90
Accurately ripped (confidence 1) [0A58BAF2] (AR v2)
Copy OK

Track 12

Filename C:\Music\12 Heads High.wav

Peak level 98.8 %
Extraction speed 2.1 X
Track quality 100.0 %
Test CRC 3BDD54B7
Copy CRC 3BDD54B7
Accurately ripped (confidence 1) [107C3821] (AR v2)
Copy OK

Track 13

Filename C:\Music\13 Ting-A-Ling.wav

Peak level 98.8 %
Extraction speed 2.2 X
Track quality 100.0 %
Test CRC 5C81D6B2
Copy CRC 5C81D6B2
Accurately ripped (confidence 1) [AE9A577A] (AR v2)
Copy OK

Track 14

Filename C:\Music\14 Everyone Falls In Love.wav

Peak level 98.8 %
Extraction speed 2.2 X
Track quality 100.0 %
Test CRC 76B01DBE
Copy CRC 76B01DBE
Accurately ripped (confidence 1) [B72521F9] (AR v2)
Copy OK

Track 15

Filename C:\Music\15 Mamacita.wav

Peak level 98.8 %
Extraction speed 2.3 X
Track quality 100.0 %
Test CRC 9A1E736B
Copy CRC 9A1E736B
Accurately ripped (confidence 1) [7E17CA5A] (AR v2)
Copy OK

Track 16

Filename C:\Music\16 Tempted To Touch.wav

Peak level 98.8 %
Extraction speed 2.3 X
Track quality 100.0 %
Test CRC 9DF15BB1
Copy CRC 9DF15BB1
Accurately ripped (confidence 1) [F30CB50D] (AR v2)
Copy OK

Track 17

Filename C:\Music\17 Taboo (feat. Shola Ama).wav

Peak level 89.7 %
Extraction speed 2.3 X
Track quality 99.9 %
Test CRC F49DFC79
Copy CRC F49DFC79
Accurately ripped (confidence 1) [AA1B8429] (AR v2)
Copy OK

Track 18

Filename C:\Music\18 Hold Yuh.wav

Peak level 98.8 %
Extraction speed 2.2 X
Track quality 99.9 %
Test CRC CDAAC531
Copy CRC CDAAC531
Accurately ripped (confidence 1) [22D6511A] (AR v2)
Copy OK

Track 19

Filename C:\Music\19 No Games.wav

Peak level 98.8 %
Extraction speed 2.5 X
Track quality 100.0 %
Test CRC 6F8BA314
Copy CRC 6F8BA314
Accurately ripped (confidence 1) [90DD54B3] (AR v2)
Copy OK

Track 20

Filename C:\Music\20 Flex.wav

Peak level 98.8 %
Extraction speed 2.6 X
Track quality 100.0 %
Test CRC 1E82D91E
Copy CRC 1E82D91E
Accurately ripped (confidence 1) [6CE07408] (AR v2)
Copy OK


All tracks accurately ripped

No errors occurred

End of status report

–– CUETools DB Plugin V2.1.6

[CTDB TOCID: JwZgl1JLP9Pwd6R4lAdgMkHa6dE-] found
Submit result: already submitted
Track | CTDB Status
1 | (4/4) Accurately ripped
2 | (4/4) Accurately ripped
3 | (4/4) Accurately ripped
4 | (4/4) Accurately ripped
5 | (4/4) Accurately ripped
6 | (4/4) Accurately ripped
7 | (4/4) Accurately ripped
8 | (4/4) Accurately ripped
9 | (4/4) Accurately ripped
10 | (4/4) Accurately ripped
11 | (4/4) Accurately ripped
12 | (4/4) Accurately ripped
13 | (4/4) Accurately ripped
14 | (4/4) Accurately ripped
15 | (4/4) Accurately ripped
16 | (4/4) Accurately ripped
17 | (4/4) Accurately ripped
18 | (4/4) Accurately ripped
19 | (4/4) Accurately ripped
20 | (4/4) Accurately ripped


==== Log checksum 24334C05594D35485C72EEAAE5B9DC447C00B3BD685618D0DC10AD01DA5319B0 ====

––––––––––––––––––––––––––––––

Exact Audio Copy V1.3 from 2. September 2016

EAC extraction logfile from 22. July 2017, 17:30

Various Artists / I love reggae Disc 1

Used drive : HL-DT-STDVDRAM GP57EW40 Adapter: 1 ID: 1

Read mode : Secure
Utilize accurate stream : Yes
Defeat audio cache : Yes
Make use of C2 pointers : No

Read offset correction : 6
Overread into Lead-In and Lead-Out : No
Fill up missing offset samples with silence : Yes
Delete leading and trailing silent blocks : No
Null samples used in CRC calculations : Yes
Used interface : Native Win32 interface for Win NT & 2000
Gap handling : Appended to previous track

Used output format : User Defined Encoder
Selected bitrate : 896 kBit/s
Quality : High
Add ID3 tag : Yes
Command line compressor : C:\Program Files (x86)\Exact Audio Copy\Flac\flac.exe
Additional command line options : -6 -V -T "ARTIST=%artist%" -T "TITLE=%title%" -T "ALBUM=%albumtitle%" -T "DATE=%year%" -T "TRACKNUMBER=%tracknr%" -T "GENRE=%genre%" -T "COMMENT=%comment%" -T "BAND=%albuminterpret%" -T "ALBUMARTIST=%albuminterpret%" -T "COMPOSER=%composer%" %haslyrics%–tag-from-file=LYRICS="%lyricsfile%"%haslyrics% -T "DISCNUMBER=%cdnumber%" -T "TOTALDISCS=%totalcds%" -T "TOTALTRACKS=%numtracks%" %hascover%–picture="%coverfile%"%hascover% %source% -o %dest%


TOC of the extracted CD

Track | Start | Length | Start sector | End sector
––––––––––––––––––––––––––––-
1 | 0:00.00 | 3:52.71 | 0 | 17470
2 | 3:52.71 | 3:05.14 | 17471 | 31359
3 | 6:58.10 | 3:20.60 | 31360 | 46419
4 | 10:18.70 | 3:29.60 | 46420 | 62154
5 | 13:48.55 | 3:23.64 | 62155 | 77443
6 | 17:12.44 | 2:39.25 | 77444 | 89393
7 | 19:51.69 | 3:25.34 | 89394 | 104802
8 | 23:17.28 | 3:42.08 | 104803 | 121460
9 | 26:59.36 | 4:03.73 | 121461 | 139758
10 | 31:03.34 | 4:01.12 | 139759 | 157845
11 | 35:04.46 | 3:50.66 | 157846 | 175161
12 | 38:55.37 | 3:28.07 | 175162 | 190768
13 | 42:23.44 | 3:49.01 | 190769 | 207944
14 | 46:12.45 | 3:48.64 | 207945 | 225108
15 | 50:01.34 | 3:12.09 | 225109 | 239517
16 | 53:13.43 | 2:58.65 | 239518 | 252932
17 | 56:12.33 | 4:49.10 | 252933 | 274617
18 | 61:01.43 | 3:50.32 | 274618 | 291899
19 | 64:52.00 | 3:05.66 | 291900 | 305840
20 | 67:57.66 | 4:00.35 | 305841 | 323875


Track 1

Filename C:\Music\01 Boombastic.wav

Pre-gap length 0:00:02.00

Peak level 98.8 %
Extraction speed 1.2 X
Track quality 100.0 %
Test CRC 9132FCF2
Copy CRC 9132FCF2
Accurately ripped (confidence 1) [A0B7379A] (AR v2)
Copy OK

Track 2

Filename C:\Music\02 Turn Me On.wav

Peak level 98.8 %
Extraction speed 1.3 X
Track quality 100.0 %
Test CRC 9D2EB3A3
Copy CRC 9D2EB3A3
Accurately ripped (confidence 1) [BACFE55A] (AR v2)
Copy OK

Track 3

Filename C:\Music\03 No Letting Go.wav

Peak level 83.6 %
Extraction speed 1.4 X
Track quality 100.0 %
Test CRC BE6ACE3E
Copy CRC BE6ACE3E
Accurately ripped (confidence 1) [7B670431] (AR v2)
Copy OK

Track 4

Filename C:\Music\04 I'm Still In Love With You.wav

Peak level 96.6 %
Extraction speed 1.3 X
Track quality 99.9 %
Test CRC 97E11542
Copy CRC 97E11542
Accurately ripped (confidence 1) [F12A407A] (AR v2)
Copy OK

Track 5

Filename C:\Music\05 You Don't Love Me (No, No, No).wav

Peak level 98.8 %
Extraction speed 1.4 X
Track quality 99.9 %
Test CRC B5DF48FB
Copy CRC B5DF48FB
Accurately ripped (confidence 1) [584A7235] (AR v2)
Copy OK

Track 6

Filename C:\Music\06 Dat Sexy Body.wav

Peak level 98.8 %
Extraction speed 1.4 X
Track quality 99.9 %
Test CRC 55ED6BDC
Copy CRC 55ED6BDC
Accurately ripped (confidence 1) [565439C6] (AR v2)
Copy OK

Track 7

Filename C:\Music\07 Dude.wav

Peak level 98.8 %
Extraction speed 1.7 X
Track quality 100.0 %
Test CRC 6C139F1B
Copy CRC 6C139F1B
Accurately ripped (confidence 1) [AB18FBC7] (AR v2)
Copy OK

Track 8

Filename C:\Music\08 Boom Shack-A-Lak.wav

Peak level 98.8 %
Extraction speed 1.6 X
Track quality 99.9 %
Test CRC B881AF7A
Copy CRC B881AF7A
Accurately ripped (confidence 1) [FC349A7C] (AR v2)
Copy OK

Track 9

Filename C:\Music\09 Here Comes The Hotstepper.wav

Peak level 98.8 %
Extraction speed 1.9 X
Track quality 100.0 %
Test CRC 42F30326
Copy CRC 42F30326
Accurately ripped (confidence 1) [5F2D6C80] (AR v2)
Copy OK

Track 10

Filename C:\Music\10 Murder She Wrote.wav

Peak level 98.8 %
Extraction speed 2.0 X
Track quality 100.0 %
Test CRC C72305A5
Copy CRC C72305A5
Accurately ripped (confidence 1) [DE3F0AEC] (AR v2)
Copy OK

Track 11

Filename C:\Music\11 Pon Di River.wav

Peak level 98.8 %
Extraction speed 2.1 X
Track quality 100.0 %
Test CRC 69E6FD90
Copy CRC 69E6FD90
Accurately ripped (confidence 1) [0A58BAF2] (AR v2)
Copy OK

Track 12

Filename C:\Music\12 Heads High.wav

Peak level 98.8 %
Extraction speed 2.1 X
Track quality 100.0 %
Test CRC 3BDD54B7
Copy CRC 3BDD54B7
Accurately ripped (confidence 1) [107C3821] (AR v2)
Copy OK

Track 13

Filename C:\Music\13 Ting-A-Ling.wav

Peak level 98.8 %
Extraction speed 2.2 X
Track quality 100.0 %
Test CRC 5C81D6B2
Copy CRC 5C81D6B2
Accurately ripped (confidence 1) [AE9A577A] (AR v2)
Copy OK

Track 14

Filename C:\Music\14 Everyone Falls In Love.wav

Peak level 98.8 %
Extraction speed 2.2 X
Track quality 100.0 %
Test CRC 76B01DBE
Copy CRC 76B01DBE
Accurately ripped (confidence 1) [B72521F9] (AR v2)
Copy OK

Track 15

Filename C:\Music\15 Mamacita.wav

Peak level 98.8 %
Extraction speed 2.3 X
Track quality 100.0 %
Test CRC 9A1E736B
Copy CRC 9A1E736B
Accurately ripped (confidence 1) [7E17CA5A] (AR v2)
Copy OK

Track 16

Filename C:\Music\16 Tempted To Touch.wav

Peak level 98.8 %
Extraction speed 2.3 X
Track quality 100.0 %
Test CRC 9DF15BB1
Copy CRC 9DF15BB1
Accurately ripped (confidence 1) [F30CB50D] (AR v2)
Copy OK

Track 17

Filename C:\Music\17 Taboo (feat. Shola Ama).wav

Peak level 89.7 %
Extraction speed 2.3 X
Track quality 99.9 %
Test CRC F49DFC79
Copy CRC F49DFC79
Accurately ripped (confidence 1) [AA1B8429] (AR v2)
Copy OK

Track 18

Filename C:\Music\18 Hold Yuh.wav

Peak level 98.8 %
Extraction speed 2.2 X
Track quality 99.9 %
Test CRC CDAAC531
Copy CRC CDAAC531
Accurately ripped (confidence 1) [22D6511A] (AR v2)
Copy OK

Track 19

Filename C:\Music\19 No Games.wav

Peak level 98.8 %
Extraction speed 2.5 X
Track quality 100.0 %
Test CRC 6F8BA314
Copy CRC 6F8BA314
Accurately ripped (confidence 1) [90DD54B3] (AR v2)
Copy OK

Track 20

Filename C:\Music\20 Flex.wav

Peak level 98.8 %
Extraction speed 2.6 X
Track quality 100.0 %
Test CRC 1E82D91E
Copy CRC 1E82D91E
Accurately ripped (confidence 1) [6CE07408] (AR v2)
Copy OK


All tracks accurately ripped

No errors occurred

End of status report

–– CUETools DB Plugin V2.1.6

[CTDB TOCID: JwZgl1JLP9Pwd6R4lAdgMkHa6dE-] found
Submit result: already submitted
Track | CTDB Status
1 | (4/4) Accurately ripped
2 | (4/4) Accurately ripped
3 | (4/4) Accurately ripped
4 | (4/4) Accurately ripped
5 | (4/4) Accurately ripped
6 | (4/4) Accurately ripped
7 | (4/4) Accurately ripped
8 | (4/4) Accurately ripped
9 | (4/4) Accurately ripped
10 | (4/4) Accurately ripped
11 | (4/4) Accurately ripped
12 | (4/4) Accurately ripped
13 | (4/4) Accurately ripped
14 | (4/4) Accurately ripped
15 | (4/4) Accurately ripped
16 | (4/4) Accurately ripped
17 | (4/4) Accurately ripped
18 | (4/4) Accurately ripped
19 | (4/4) Accurately ripped
20 | (4/4) Accurately ripped


==== Log checksum 24334C05594D35485C72EEAAE5B9DC447C00B3BD685618D0DC10AD01DA5319B0 ====


CD 2

21. Diana King - Shy Guy (03:40)
22. Big Mountain - Baby, I Love Your Way (04:09)
23. Aswad - Shine (Beatmasters 7" mix) (03:38)
24. Shaggy - Oh Carolina (03:10)
25. Chaka Demus & Pliers - Tease Me (03:09)
26. Beenie Man - Who Am I (03:16)
27. Major Lazer - Run Up (03:22)
28. OMI - Cheerleader (02:51)
29. Magic! - Rude (03:44)
30. China Black - Searching (03:52)
31. Third World - Now That We've Found Love (single version) (03:51)
32. Shabba Ranks - Mr Loverman (radio mix) (03:37)
33. Maxi Priest - Close To You (04:00)
34. CJ Lewis - Sweets For My Sweet (03:11)
35. Red Dragon - Compliments On Your Kiss (03:13)
36. UB40 - Red Red Wine (03:00)
37. Musical Youth - Pass The Dutchie (7" version) (03:23)
38. Aswad - Don't Turn Around (03:19)
39. Pato Banton & The Reggae Revolution - Baby Come Back (03:50)
40. Blue Lagoon - Break My Stride (radio edit) (03:01)

Exact Audio Copy V1.3 from 2. September 2016

EAC extraction logfile from 22. July 2017, 18:54

Various Artists / I love reggae Disc 2

Used drive : HL-DT-STDVDRAM GP57EW40 Adapter: 1 ID: 1

Read mode : Secure
Utilize accurate stream : Yes
Defeat audio cache : Yes
Make use of C2 pointers : No

Read offset correction : 6
Overread into Lead-In and Lead-Out : No
Fill up missing offset samples with silence : Yes
Delete leading and trailing silent blocks : No
Null samples used in CRC calculations : Yes
Used interface : Native Win32 interface for Win NT & 2000
Gap handling : Appended to previous track

Used output format : User Defined Encoder
Selected bitrate : 896 kBit/s
Quality : High
Add ID3 tag : Yes
Command line compressor : C:\Program Files (x86)\Exact Audio Copy\Flac\flac.exe
Additional command line options : -6 -V -T "ARTIST=%artist%" -T "TITLE=%title%" -T "ALBUM=%albumtitle%" -T "DATE=%year%" -T "TRACKNUMBER=%tracknr%" -T "GENRE=%genre%" -T "COMMENT=%comment%" -T "BAND=%albuminterpret%" -T "ALBUMARTIST=%albuminterpret%" -T "COMPOSER=%composer%" %haslyrics%–tag-from-file=LYRICS="%lyricsfile%"%haslyrics% -T "DISCNUMBER=%cdnumber%" -T "TOTALDISCS=%totalcds%" -T "TOTALTRACKS=%numtracks%" %hascover%–picture="%coverfile%"%hascover% %source% -o %dest%


TOC of the extracted CD

Track | Start | Length | Start sector | End sector
––––––––––––––––––––––––––––-
1 | 0:00.00 | 3:37.40 | 0 | 16314
2 | 3:37.40 | 4:09.04 | 16315 | 34993
3 | 7:46.44 | 3:36.09 | 34994 | 51202
4 | 11:22.53 | 3:04.60 | 51203 | 65062
5 | 14:27.38 | 3:10.12 | 65063 | 79324
6 | 17:37.50 | 3:14.09 | 79325 | 93883
7 | 20:51.59 | 3:19.72 | 93884 | 108880
8 | 24:11.56 | 2:48.16 | 108881 | 121496
9 | 26:59.72 | 3:39.33 | 121497 | 137954
10 | 30:39.30 | 3:51.68 | 137955 | 155347
11 | 34:31.23 | 3:51.66 | 155348 | 172738
12 | 38:23.14 | 3:32.60 | 172739 | 188698
13 | 41:55.74 | 3:55.19 | 188699 | 206342
14 | 45:51.18 | 3:14.49 | 206343 | 220941
15 | 49:05.67 | 3:11.18 | 220942 | 235284
16 | 52:17.10 | 2:58.32 | 235285 | 248666
17 | 55:15.42 | 3:17.69 | 248667 | 263510
18 | 58:33.36 | 3:16.43 | 263511 | 278253
19 | 61:50.04 | 3:50.53 | 278254 | 295556
20 | 65:40.57 | 2:59.33 | 295557 | 309014


Track 1

Filename C:\Music\01 Shy Guy.wav

Pre-gap length 0:00:02.00

Peak level 98.8 %
Extraction speed 1.2 X
Track quality 100.0 %
Test CRC DA983C6A
Copy CRC DA983C6A
Accurately ripped (confidence 1) [6F8D86BF] (AR v2)
Copy OK

Track 2

Filename C:\Music\02 Baby, I Love Your Way.wav

Peak level 98.8 %
Extraction speed 1.4 X
Track quality 100.0 %
Test CRC C0CECD10
Copy CRC C0CECD10
Accurately ripped (confidence 1) [BFB5C9F3] (AR v2)
Copy OK

Track 3

Filename C:\Music\03 Shine.wav

Peak level 98.8 %
Extraction speed 1.3 X
Track quality 99.9 %
Test CRC 3974FBF0
Copy CRC 3974FBF0
Accurately ripped (confidence 1) [BC7CF378] (AR v2)
Copy OK

Track 4

Filename C:\Music\04 Oh Carolina.wav

Peak level 98.8 %
Extraction speed 1.5 X
Track quality 100.0 %
Test CRC F8141ADA
Copy CRC F8141ADA
Accurately ripped (confidence 1) [66DCB0D7] (AR v2)
Copy OK

Track 5

Filename C:\Music\05 Tease Me.wav

Peak level 98.8 %
Extraction speed 1.6 X
Track quality 100.0 %
Test CRC 74933553
Copy CRC 74933553
Accurately ripped (confidence 1) [F32B0A13] (AR v2)
Copy OK

Track 6

Filename C:\Music\06 Who Am I.wav

Peak level 98.8 %
Extraction speed 1.6 X
Track quality 100.0 %
Test CRC DD84F966
Copy CRC DD84F966
Accurately ripped (confidence 1) [F8CE3532] (AR v2)
Copy OK

Track 7

Filename C:\Music\07 Run Up.wav

Peak level 98.8 %
Extraction speed 1.7 X
Track quality 100.0 %
Test CRC 3B96EE9A
Copy CRC 3B96EE9A
Accurately ripped (confidence 1) [C35C7C4D] (AR v2)
Copy OK

Track 8

Filename C:\Music\08 Cheerleader.wav

Peak level 98.8 %
Extraction speed 1.8 X
Track quality 100.0 %
Test CRC CA18FB05
Copy CRC CA18FB05
Accurately ripped (confidence 1) [A3C8F524] (AR v2)
Copy OK

Track 9

Filename C:\Music\09 Rude.wav

Peak level 98.8 %
Extraction speed 1.7 X
Track quality 99.9 %
Test CRC 5FBBBFDF
Copy CRC 5FBBBFDF
Accurately ripped (confidence 1) [18E39095] (AR v2)
Copy OK

Track 10

Filename C:\Music\10 Searching.wav

Peak level 98.8 %
Extraction speed 2.0 X
Track quality 100.0 %
Test CRC 637D7837
Copy CRC 637D7837
Accurately ripped (confidence 1) [5D6D58ED] (AR v2)
Copy OK

Track 11

Filename C:\Music\11 Now That We've Found Love.wav

Peak level 98.8 %
Extraction speed 2.1 X
Track quality 100.0 %
Test CRC F82A8051
Copy CRC F82A8051
Accurately ripped (confidence 1) [8F62F8F5] (AR v2)
Copy OK

Track 12

Filename C:\Music\12 Mr. Loverman.wav

Peak level 98.8 %
Extraction speed 1.8 X
Track quality 99.9 %
Test CRC 51E65E0D
Copy CRC 51E65E0D
Accurately ripped (confidence 1) [67030351] (AR v2)
Copy OK

Track 13

Filename C:\Music\13 Close to You.wav

Peak level 98.8 %
Extraction speed 2.2 X
Track quality 100.0 %
Test CRC 027F5D93
Copy CRC 027F5D93
Accurately ripped (confidence 1) [9A7FDFC3] (AR v2)
Copy OK

Track 14

Filename C:\Music\14 Sweets for My Sweet.wav

Peak level 98.8 %
Extraction speed 2.2 X
Track quality 100.0 %
Test CRC D4D1012D
Copy CRC D4D1012D
Accurately ripped (confidence 1) [5C0FBB19] (AR v2)
Copy OK

Track 15

Filename C:\Music\15 Compliments on Your Kiss.wav

Peak level 98.8 %
Extraction speed 1.9 X
Track quality 99.9 %
Test CRC 1EA74D6D
Copy CRC 1EA74D6D
Accurately ripped (confidence 1) [E709680E] (AR v2)
Copy OK

Track 16

Filename C:\Music\16 Red Red Wine.wav

Peak level 98.8 %
Extraction speed 2.3 X
Track quality 100.0 %
Test CRC ABA336AC
Copy CRC ABA336AC
Accurately ripped (confidence 1) [F3B33680] (AR v2)
Copy OK

Track 17

Filename C:\Music\17 Pass the Dutchie.wav

Peak level 98.8 %
Extraction speed 2.4 X
Track quality 100.0 %
Test CRC F7F707A4
Copy CRC F7F707A4
Accurately ripped (confidence 1) [44252405] (AR v2)
Copy OK

Track 18

Filename C:\Music\18 Don't Turn Around.wav

Peak level 98.8 %
Extraction speed 2.4 X
Track quality 100.0 %
Test CRC F3B574C9
Copy CRC F3B574C9
Accurately ripped (confidence 1) [AB3CDA2A] (AR v2)
Copy OK

Track 19

Filename C:\Music\19 Baby Come Back.wav

Peak level 98.8 %
Extraction speed 2.2 X
Track quality 99.9 %
Test CRC A42E285D
Copy CRC A42E285D
Accurately ripped (confidence 1) [37C631D0] (AR v2)
Copy OK

Track 20

Filename C:\Music\20 Break My Stride.wav

Peak level 98.8 %
Extraction speed 2.5 X
Track quality 100.0 %
Test CRC A5CF2B8D
Copy CRC A5CF2B8D
Accurately ripped (confidence 1) [61F16C5D] (AR v2)
Copy OK


All tracks accurately ripped

No errors occurred

End of status report

–– CUETools DB Plugin V2.1.6

[CTDB TOCID: gJd17K8ldby4eElYjGhl28SpWTM-] found
Submit result: gJd17K8ldby4eElYjGhl28SpWTM- has been confirmed
Track | CTDB Status
1 | (2/2) Accurately ripped
2 | (2/2) Accurately ripped
3 | (2/2) Accurately ripped
4 | (2/2) Accurately ripped
5 | (2/2) Accurately ripped
6 | (2/2) Accurately ripped
7 | (2/2) Accurately ripped
8 | (2/2) Accurately ripped
9 | (2/2) Accurately ripped
10 | (2/2) Accurately ripped
11 | (2/2) Accurately ripped
12 | (2/2) Accurately ripped
13 | (2/2) Accurately ripped
14 | (2/2) Accurately ripped
15 | (2/2) Accurately ripped
16 | (2/2) Accurately ripped
17 | (2/2) Accurately ripped
18 | (2/2) Accurately ripped
19 | (2/2) Accurately ripped
20 | (2/2) Accurately ripped


==== Log checksum 3EC44C7F9D72F3BCFD751593DF25BAD8ADE85610D2DCD942FCF7297EFE6EF7EF ====

––––––––––––––––––––––––––––––

Exact Audio Copy V1.3 from 2. September 2016

EAC extraction logfile from 22. July 2017, 18:54

Various Artists / I love reggae Disc 2

Used drive : HL-DT-STDVDRAM GP57EW40 Adapter: 1 ID: 1

Read mode : Secure
Utilize accurate stream : Yes
Defeat audio cache : Yes
Make use of C2 pointers : No

Read offset correction : 6
Overread into Lead-In and Lead-Out : No
Fill up missing offset samples with silence : Yes
Delete leading and trailing silent blocks : No
Null samples used in CRC calculations : Yes
Used interface : Native Win32 interface for Win NT & 2000
Gap handling : Appended to previous track

Used output format : User Defined Encoder
Selected bitrate : 896 kBit/s
Quality : High
Add ID3 tag : Yes
Command line compressor : C:\Program Files (x86)\Exact Audio Copy\Flac\flac.exe
Additional command line options : -6 -V -T "ARTIST=%artist%" -T "TITLE=%title%" -T "ALBUM=%albumtitle%" -T "DATE=%year%" -T "TRACKNUMBER=%tracknr%" -T "GENRE=%genre%" -T "COMMENT=%comment%" -T "BAND=%albuminterpret%" -T "ALBUMARTIST=%albuminterpret%" -T "COMPOSER=%composer%" %haslyrics%–tag-from-file=LYRICS="%lyricsfile%"%haslyrics% -T "DISCNUMBER=%cdnumber%" -T "TOTALDISCS=%totalcds%" -T "TOTALTRACKS=%numtracks%" %hascover%–picture="%coverfile%"%hascover% %source% -o %dest%


TOC of the extracted CD

Track | Start | Length | Start sector | End sector
––––––––––––––––––––––––––––-
1 | 0:00.00 | 3:37.40 | 0 | 16314
2 | 3:37.40 | 4:09.04 | 16315 | 34993
3 | 7:46.44 | 3:36.09 | 34994 | 51202
4 | 11:22.53 | 3:04.60 | 51203 | 65062
5 | 14:27.38 | 3:10.12 | 65063 | 79324
6 | 17:37.50 | 3:14.09 | 79325 | 93883
7 | 20:51.59 | 3:19.72 | 93884 | 108880
8 | 24:11.56 | 2:48.16 | 108881 | 121496
9 | 26:59.72 | 3:39.33 | 121497 | 137954
10 | 30:39.30 | 3:51.68 | 137955 | 155347
11 | 34:31.23 | 3:51.66 | 155348 | 172738
12 | 38:23.14 | 3:32.60 | 172739 | 188698
13 | 41:55.74 | 3:55.19 | 188699 | 206342
14 | 45:51.18 | 3:14.49 | 206343 | 220941
15 | 49:05.67 | 3:11.18 | 220942 | 235284
16 | 52:17.10 | 2:58.32 | 235285 | 248666
17 | 55:15.42 | 3:17.69 | 248667 | 263510
18 | 58:33.36 | 3:16.43 | 263511 | 278253
19 | 61:50.04 | 3:50.53 | 278254 | 295556
20 | 65:40.57 | 2:59.33 | 295557 | 309014


Track 1

Filename C:\Music\01 Shy Guy.wav

Pre-gap length 0:00:02.00

Peak level 98.8 %
Extraction speed 1.2 X
Track quality 100.0 %
Test CRC DA983C6A
Copy CRC DA983C6A
Accurately ripped (confidence 1) [6F8D86BF] (AR v2)
Copy OK

Track 2

Filename C:\Music\02 Baby, I Love Your Way.wav

Peak level 98.8 %
Extraction speed 1.4 X
Track quality 100.0 %
Test CRC C0CECD10
Copy CRC C0CECD10
Accurately ripped (confidence 1) [BFB5C9F3] (AR v2)
Copy OK

Track 3

Filename C:\Music\03 Shine.wav

Peak level 98.8 %
Extraction speed 1.3 X
Track quality 99.9 %
Test CRC 3974FBF0
Copy CRC 3974FBF0
Accurately ripped (confidence 1) [BC7CF378] (AR v2)
Copy OK

Track 4

Filename C:\Music\04 Oh Carolina.wav

Peak level 98.8 %
Extraction speed 1.5 X
Track quality 100.0 %
Test CRC F8141ADA
Copy CRC F8141ADA
Accurately ripped (confidence 1) [66DCB0D7] (AR v2)
Copy OK

Track 5

Filename C:\Music\05 Tease Me.wav

Peak level 98.8 %
Extraction speed 1.6 X
Track quality 100.0 %
Test CRC 74933553
Copy CRC 74933553
Accurately ripped (confidence 1) [F32B0A13] (AR v2)
Copy OK

Track 6

Filename C:\Music\06 Who Am I.wav

Peak level 98.8 %
Extraction speed 1.6 X
Track quality 100.0 %
Test CRC DD84F966
Copy CRC DD84F966
Accurately ripped (confidence 1) [F8CE3532] (AR v2)
Copy OK

Track 7

Filename C:\Music\07 Run Up.wav

Peak level 98.8 %
Extraction speed 1.7 X
Track quality 100.0 %
Test CRC 3B96EE9A
Copy CRC 3B96EE9A
Accurately ripped (confidence 1) [C35C7C4D] (AR v2)
Copy OK

Track 8

Filename C:\Music\08 Cheerleader.wav

Peak level 98.8 %
Extraction speed 1.8 X
Track quality 100.0 %
Test CRC CA18FB05
Copy CRC CA18FB05
Accurately ripped (confidence 1) [A3C8F524] (AR v2)
Copy OK

Track 9

Filename C:\Music\09 Rude.wav

Peak level 98.8 %
Extraction speed 1.7 X
Track quality 99.9 %
Test CRC 5FBBBFDF
Copy CRC 5FBBBFDF
Accurately ripped (confidence 1) [18E39095] (AR v2)
Copy OK

Track 10

Filename C:\Music\10 Searching.wav

Peak level 98.8 %
Extraction speed 2.0 X
Track quality 100.0 %
Test CRC 637D7837
Copy CRC 637D7837
Accurately ripped (confidence 1) [5D6D58ED] (AR v2)
Copy OK

Track 11

Filename C:\Music\11 Now That We've Found Love.wav

Peak level 98.8 %
Extraction speed 2.1 X
Track quality 100.0 %
Test CRC F82A8051
Copy CRC F82A8051
Accurately ripped (confidence 1) [8F62F8F5] (AR v2)
Copy OK

Track 12

Filename C:\Music\12 Mr. Loverman.wav

Peak level 98.8 %
Extraction speed 1.8 X
Track quality 99.9 %
Test CRC 51E65E0D
Copy CRC 51E65E0D
Accurately ripped (confidence 1) [67030351] (AR v2)
Copy OK

Track 13

Filename C:\Music\13 Close to You.wav

Peak level 98.8 %
Extraction speed 2.2 X
Track quality 100.0 %
Test CRC 027F5D93
Copy CRC 027F5D93
Accurately ripped (confidence 1) [9A7FDFC3] (AR v2)
Copy OK

Track 14

Filename C:\Music\14 Sweets for My Sweet.wav

Peak level 98.8 %
Extraction speed 2.2 X
Track quality 100.0 %
Test CRC D4D1012D
Copy CRC D4D1012D
Accurately ripped (confidence 1) [5C0FBB19] (AR v2)
Copy OK

Track 15

Filename C:\Music\15 Compliments on Your Kiss.wav

Peak level 98.8 %
Extraction speed 1.9 X
Track quality 99.9 %
Test CRC 1EA74D6D
Copy CRC 1EA74D6D
Accurately ripped (confidence 1) [E709680E] (AR v2)
Copy OK

Track 16

Filename C:\Music\16 Red Red Wine.wav

Peak level 98.8 %
Extraction speed 2.3 X
Track quality 100.0 %
Test CRC ABA336AC
Copy CRC ABA336AC
Accurately ripped (confidence 1) [F3B33680] (AR v2)
Copy OK

Track 17

Filename C:\Music\17 Pass the Dutchie.wav

Peak level 98.8 %
Extraction speed 2.4 X
Track quality 100.0 %
Test CRC F7F707A4
Copy CRC F7F707A4
Accurately ripped (confidence 1) [44252405] (AR v2)
Copy OK

Track 18

Filename C:\Music\18 Don't Turn Around.wav

Peak level 98.8 %
Extraction speed 2.4 X
Track quality 100.0 %
Test CRC F3B574C9
Copy CRC F3B574C9
Accurately ripped (confidence 1) [AB3CDA2A] (AR v2)
Copy OK

Track 19

Filename C:\Music\19 Baby Come Back.wav

Peak level 98.8 %
Extraction speed 2.2 X
Track quality 99.9 %
Test CRC A42E285D
Copy CRC A42E285D
Accurately ripped (confidence 1) [37C631D0] (AR v2)
Copy OK

Track 20

Filename C:\Music\20 Break My Stride.wav

Peak level 98.8 %
Extraction speed 2.5 X
Track quality 100.0 %
Test CRC A5CF2B8D
Copy CRC A5CF2B8D
Accurately ripped (confidence 1) [61F16C5D] (AR v2)
Copy OK


All tracks accurately ripped

No errors occurred

End of status report

–– CUETools DB Plugin V2.1.6

[CTDB TOCID: gJd17K8ldby4eElYjGhl28SpWTM-] found
Submit result: gJd17K8ldby4eElYjGhl28SpWTM- has been confirmed
Track | CTDB Status
1 | (2/2) Accurately ripped
2 | (2/2) Accurately ripped
3 | (2/2) Accurately ripped
4 | (2/2) Accurately ripped
5 | (2/2) Accurately ripped
6 | (2/2) Accurately ripped
7 | (2/2) Accurately ripped
8 | (2/2) Accurately ripped
9 | (2/2) Accurately ripped
10 | (2/2) Accurately ripped
11 | (2/2) Accurately ripped
12 | (2/2) Accurately ripped
13 | (2/2) Accurately ripped
14 | (2/2) Accurately ripped
15 | (2/2) Accurately ripped
16 | (2/2) Accurately ripped
17 | (2/2) Accurately ripped
18 | (2/2) Accurately ripped
19 | (2/2) Accurately ripped
20 | (2/2) Accurately ripped


==== Log checksum 3EC44C7F9D72F3BCFD751593DF25BAD8ADE85610D2DCD942FCF7297EFE6EF7EF ====


CD 3

41. Fugees - No Woman, No Cry (04:18)
42. Gregory Isaacs - Night Nurse (04:04)
43. Bobby McFerrin - Don't Worry Be Happy (single version) (03:53)
44. Jimmy Cliff - Wonderful World, Beautiful People (03:10)
45. Desmond Dekker - You Can Get It If You Really Want (02:36)
46. Althea & Donna - Uptown Top Ranking (03:51)
47. Johnny Nash - I Can See Clearly Now (02:50)
48. Dennis Brown - Money In My Pocket (03:40)
49. Peter Tosh - Get Up Stand Up (03:29)
50. Sugar Minott - Good Thing Going We've Got A Good Thing Going (03:33)
51. Johnny Nash - Stir It Up (03:02)
52. 10cc - Dreadlock Holiday (04:23)
53. Dave & Ansel Collins - Double Barrel (02:44)
54. Jimmy Cliff - The Harder They Come (03:05)
55. Sophia George - Girlie Girlie (03:03)
56. Toots & The Maytals - 54-46 That's My Number (02:53)
57. UB40 - Kingston Town (03:46)
58. Janet Kay - Silly Games (03:56)
59. The Pioneers - Let Your Yeah Be Yeah (03:06)
60. Nicky Thomas - Love Of The Common People (02:17)

Exact Audio Copy V1.3 from 2. September 2016

EAC extraction logfile from 22. July 2017, 20:18

Various Artists / I love reggae Disc 3

Used drive : HL-DT-STDVDRAM GP57EW40 Adapter: 1 ID: 1

Read mode : Secure
Utilize accurate stream : Yes
Defeat audio cache : Yes
Make use of C2 pointers : No

Read offset correction : 6
Overread into Lead-In and Lead-Out : No
Fill up missing offset samples with silence : Yes
Delete leading and trailing silent blocks : No
Null samples used in CRC calculations : Yes
Used interface : Native Win32 interface for Win NT & 2000
Gap handling : Appended to previous track

Used output format : User Defined Encoder
Selected bitrate : 896 kBit/s
Quality : High
Add ID3 tag : Yes
Command line compressor : C:\Program Files (x86)\Exact Audio Copy\Flac\flac.exe
Additional command line options : -6 -V -T "ARTIST=%artist%" -T "TITLE=%title%" -T "ALBUM=%albumtitle%" -T "DATE=%year%" -T "TRACKNUMBER=%tracknr%" -T "GENRE=%genre%" -T "COMMENT=%comment%" -T "BAND=%albuminterpret%" -T "ALBUMARTIST=%albuminterpret%" -T "COMPOSER=%composer%" %haslyrics%–tag-from-file=LYRICS="%lyricsfile%"%haslyrics% -T "DISCNUMBER=%cdnumber%" -T "TOTALDISCS=%totalcds%" -T "TOTALTRACKS=%numtracks%" %hascover%–picture="%coverfile%"%hascover% %source% -o %dest%


TOC of the extracted CD

Track | Start | Length | Start sector | End sector
––––––––––––––––––––––––––––-
1 | 0:00.00 | 4:13.36 | 0 | 19010
2 | 4:13.36 | 3:58.64 | 19011 | 36924
3 | 8:12.25 | 3:46.08 | 36925 | 53882
4 | 11:58.33 | 3:07.53 | 53883 | 67960
5 | 15:06.11 | 2:34.62 | 67961 | 79572
6 | 17:40.73 | 3:49.65 | 79573 | 96812
7 | 21:30.63 | 2:48.06 | 96813 | 109418
8 | 24:18.69 | 3:32.62 | 109419 | 125380
9 | 27:51.56 | 3:26.07 | 125381 | 140837
10 | 31:17.63 | 3:32.40 | 140838 | 156777
11 | 34:50.28 | 3:01.12 | 156778 | 170364
12 | 37:51.40 | 4:21.31 | 170365 | 189970
13 | 42:12.71 | 2:40.52 | 189971 | 202022
14 | 44:53.48 | 2:59.72 | 202023 | 215519
15 | 47:53.45 | 3:02.20 | 215520 | 229189
16 | 50:55.65 | 2:48.12 | 229190 | 241801
17 | 53:44.02 | 3:42.24 | 241802 | 258475
18 | 57:26.26 | 3:52.55 | 258476 | 275930
19 | 61:19.06 | 3:02.23 | 275931 | 289603
20 | 64:21.29 | 2:16.39 | 289604 | 299842


Track 1

Filename C:\Music\01 No Woman, No Cry.wav

Pre-gap length 0:00:02.00

Peak level 98.8 %
Extraction speed 1.3 X
Track quality 100.0 %
Test CRC B22466EF
Copy CRC B22466EF
Accurately ripped (confidence 1) [6C5930A4] (AR v2)
Copy OK

Track 2

Filename C:\Music\02 Night Nurse.wav

Peak level 98.8 %
Extraction speed 1.4 X
Track quality 100.0 %
Test CRC FCF7C3A9
Copy CRC FCF7C3A9
Accurately ripped (confidence 1) [7834F964] (AR v2)
Copy OK

Track 3

Filename C:\Music\03 Don't Worry Be Happy.wav

Peak level 98.8 %
Extraction speed 1.3 X
Track quality 99.9 %
Test CRC D801CC23
Copy CRC D801CC23
Accurately ripped (confidence 1) [F6C073B6] (AR v2)
Copy OK

Track 4

Filename C:\Music\04 Wonderful World, Beautiful People.wav

Peak level 98.8 %
Extraction speed 1.5 X
Track quality 100.0 %
Test CRC A11B3ADA
Copy CRC A11B3ADA
Accurately ripped (confidence 1) [5E186623] (AR v2)
Copy OK

Track 5

Filename C:\Music\05 You Can Get It If You Really Want.wav

Peak level 98.8 %
Extraction speed 1.5 X
Track quality 100.0 %
Test CRC 08FA75FA
Copy CRC 08FA75FA
Accurately ripped (confidence 1) [87BA73EC] (AR v2)
Copy OK

Track 6

Filename C:\Music\06 Uptown Top Ranking.wav

Peak level 98.8 %
Extraction speed 1.7 X
Track quality 100.0 %
Test CRC 341F3F68
Copy CRC 341F3F68
Accurately ripped (confidence 1) [6B18D158] (AR v2)
Copy OK

Track 7

Filename C:\Music\07 I Can See Clearly Now.wav

Peak level 98.8 %
Extraction speed 1.7 X
Track quality 100.0 %
Test CRC 27501D13
Copy CRC 27501D13
Accurately ripped (confidence 1) [5184F638] (AR v2)
Copy OK

Track 8

Filename C:\Music\08 Money In My Pocket.wav

Peak level 98.8 %
Extraction speed 1.6 X
Track quality 99.9 %
Test CRC A8E05099
Copy CRC A8E05099
Accurately ripped (confidence 1) [45199693] (AR v2)
Copy OK

Track 9

Filename C:\Music\09 Get Up Stand Up.wav

Peak level 98.8 %
Extraction speed 1.9 X
Track quality 100.0 %
Test CRC EA711090
Copy CRC EA711090
Accurately ripped (confidence 1) [BDE7F484] (AR v2)
Copy OK

Track 10

Filename C:\Music\10 Good Thing Going (We've Got a Good Thing Going).wav

Peak level 98.8 %
Extraction speed 2.0 X
Track quality 100.0 %
Test CRC 56830286
Copy CRC 56830286
Accurately ripped (confidence 1) [92DE74B0] (AR v2)
Copy OK

Track 11

Filename C:\Music\11 Stir It Up.wav

Peak level 98.8 %
Extraction speed 2.0 X
Track quality 100.0 %
Test CRC 4FD042DC
Copy CRC 4FD042DC
Accurately ripped (confidence 1) [8ACABCDC] (AR v2)
Copy OK

Track 12

Filename C:\Music\12 Dreadlock Holiday.wav

Peak level 98.8 %
Extraction speed 2.2 X
Track quality 100.0 %
Test CRC A3D7B376
Copy CRC A3D7B376
Accurately ripped (confidence 1) [0970F472] (AR v2)
Copy OK

Track 13

Filename C:\Music\13 Double Barrel.wav

Peak level 98.8 %
Extraction speed 1.7 X
Track quality 99.9 %
Test CRC A4ECFBE8
Copy CRC A4ECFBE8
Accurately ripped (confidence 1) [308EC174] (AR v2)
Copy OK

Track 14

Filename C:\Music\14 The Harder They Come.wav

Peak level 98.8 %
Extraction speed 2.1 X
Track quality 100.0 %
Test CRC FD4CDBC9
Copy CRC FD4CDBC9
Accurately ripped (confidence 1) [B3804495] (AR v2)
Copy OK

Track 15

Filename C:\Music\15 Girlie Girlie.wav

Peak level 94.9 %
Extraction speed 1.9 X
Track quality 99.9 %
Test CRC 6A65AAB4
Copy CRC 6A65AAB4
Accurately ripped (confidence 1) [ADF99EBC] (AR v2)
Copy OK

Track 16

Filename C:\Music\16 54-46 That's My Number.wav

Peak level 98.8 %
Extraction speed 2.2 X
Track quality 100.0 %
Test CRC 79158400
Copy CRC 79158400
Accurately ripped (confidence 1) [0B421A42] (AR v2)
Copy OK

Track 17

Filename C:\Music\17 Kingston Town.wav

Peak level 98.8 %
Extraction speed 2.4 X
Track quality 100.0 %
Test CRC B2359D52
Copy CRC B2359D52
Accurately ripped (confidence 1) [BA4DDEAC] (AR v2)
Copy OK

Track 18

Filename C:\Music\18 Silly Games.wav

Peak level 98.8 %
Extraction speed 2.2 X
Track quality 99.9 %
Test CRC 6D1E881B
Copy CRC 6D1E881B
Accurately ripped (confidence 1) [3DA7B417] (AR v2)
Copy OK

Track 19

Filename C:\Music\19 Let Your Yeah Be Yeah.wav

Peak level 98.8 %
Extraction speed 2.4 X
Track quality 100.0 %
Test CRC 5CB5A962
Copy CRC 5CB5A962
Accurately ripped (confidence 1) [DBFF55DF] (AR v2)
Copy OK

Track 20

Filename C:\Music\20 Love of the Common People.wav

Peak level 80.2 %
Extraction speed 2.3 X
Track quality 100.0 %
Test CRC FBB7B27B
Copy CRC FBB7B27B
Accurately ripped (confidence 1) [C6F5B1F7] (AR v2)
Copy OK


All tracks accurately ripped

No errors occurred

End of status report

–– CUETools DB Plugin V2.1.6

[CTDB TOCID: pmMkuZmTAqwG53iRK_C5IOB_Oxc-] found
Submit result: pmMkuZmTAqwG53iRK_C5IOB_Oxc- has been confirmed
Track | CTDB Status
1 | (3/3) Accurately ripped
2 | (3/3) Accurately ripped
3 | (3/3) Accurately ripped
4 | (3/3) Accurately ripped
5 | (3/3) Accurately ripped
6 | (3/3) Accurately ripped
7 | (3/3) Accurately ripped
8 | (3/3) Accurately ripped
9 | (3/3) Accurately ripped
10 | (3/3) Accurately ripped
11 | (3/3) Accurately ripped
12 | (3/3) Accurately ripped
13 | (3/3) Accurately ripped
14 | (3/3) Accurately ripped
15 | (3/3) Accurately ripped
16 | (3/3) Accurately ripped
17 | (3/3) Accurately ripped
18 | (3/3) Accurately ripped
19 | (3/3) Accurately ripped
20 | (3/3) Accurately ripped


==== Log checksum CDDDA1B1AA184391F3625B4F2C7188C7AE79C6DFF5A44173F1A3CAB3A29072C0 ====

––––––––––––––––––––––––––––––

Exact Audio Copy V1.3 from 2. September 2016

EAC extraction logfile from 22. July 2017, 20:18

Various Artists / I love reggae Disc 3

Used drive : HL-DT-STDVDRAM GP57EW40 Adapter: 1 ID: 1

Read mode : Secure
Utilize accurate stream : Yes
Defeat audio cache : Yes
Make use of C2 pointers : No

Read offset correction : 6
Overread into Lead-In and Lead-Out : No
Fill up missing offset samples with silence : Yes
Delete leading and trailing silent blocks : No
Null samples used in CRC calculations : Yes
Used interface : Native Win32 interface for Win NT & 2000
Gap handling : Appended to previous track

Used output format : User Defined Encoder
Selected bitrate : 896 kBit/s
Quality : High
Add ID3 tag : Yes
Command line compressor : C:\Program Files (x86)\Exact Audio Copy\Flac\flac.exe
Additional command line options : -6 -V -T "ARTIST=%artist%" -T "TITLE=%title%" -T "ALBUM=%albumtitle%" -T "DATE=%year%" -T "TRACKNUMBER=%tracknr%" -T "GENRE=%genre%" -T "COMMENT=%comment%" -T "BAND=%albuminterpret%" -T "ALBUMARTIST=%albuminterpret%" -T "COMPOSER=%composer%" %haslyrics%–tag-from-file=LYRICS="%lyricsfile%"%haslyrics% -T "DISCNUMBER=%cdnumber%" -T "TOTALDISCS=%totalcds%" -T "TOTALTRACKS=%numtracks%" %hascover%–picture="%coverfile%"%hascover% %source% -o %dest%


TOC of the extracted CD

Track | Start | Length | Start sector | End sector
––––––––––––––––––––––––––––-
1 | 0:00.00 | 4:13.36 | 0 | 19010
2 | 4:13.36 | 3:58.64 | 19011 | 36924
3 | 8:12.25 | 3:46.08 | 36925 | 53882
4 | 11:58.33 | 3:07.53 | 53883 | 67960
5 | 15:06.11 | 2:34.62 | 67961 | 79572
6 | 17:40.73 | 3:49.65 | 79573 | 96812
7 | 21:30.63 | 2:48.06 | 96813 | 109418
8 | 24:18.69 | 3:32.62 | 109419 | 125380
9 | 27:51.56 | 3:26.07 | 125381 | 140837
10 | 31:17.63 | 3:32.40 | 140838 | 156777
11 | 34:50.28 | 3:01.12 | 156778 | 170364
12 | 37:51.40 | 4:21.31 | 170365 | 189970
13 | 42:12.71 | 2:40.52 | 189971 | 202022
14 | 44:53.48 | 2:59.72 | 202023 | 215519
15 | 47:53.45 | 3:02.20 | 215520 | 229189
16 | 50:55.65 | 2:48.12 | 229190 | 241801
17 | 53:44.02 | 3:42.24 | 241802 | 258475
18 | 57:26.26 | 3:52.55 | 258476 | 275930
19 | 61:19.06 | 3:02.23 | 275931 | 289603
20 | 64:21.29 | 2:16.39 | 289604 | 299842


Track 1

Filename C:\Music\01 No Woman, No Cry.wav

Pre-gap length 0:00:02.00

Peak level 98.8 %
Extraction speed 1.3 X
Track quality 100.0 %
Test CRC B22466EF
Copy CRC B22466EF
Accurately ripped (confidence 1) [6C5930A4] (AR v2)
Copy OK

Track 2

Filename C:\Music\02 Night Nurse.wav

Peak level 98.8 %
Extraction speed 1.4 X
Track quality 100.0 %
Test CRC FCF7C3A9
Copy CRC FCF7C3A9
Accurately ripped (confidence 1) [7834F964] (AR v2)
Copy OK

Track 3

Filename C:\Music\03 Don't Worry Be Happy.wav

Peak level 98.8 %
Extraction speed 1.3 X
Track quality 99.9 %
Test CRC D801CC23
Copy CRC D801CC23
Accurately ripped (confidence 1) [F6C073B6] (AR v2)
Copy OK

Track 4

Filename C:\Music\04 Wonderful World, Beautiful People.wav

Peak level 98.8 %
Extraction speed 1.5 X
Track quality 100.0 %
Test CRC A11B3ADA
Copy CRC A11B3ADA
Accurately ripped (confidence 1) [5E186623] (AR v2)
Copy OK

Track 5

Filename C:\Music\05 You Can Get It If You Really Want.wav

Peak level 98.8 %
Extraction speed 1.5 X
Track quality 100.0 %
Test CRC 08FA75FA
Copy CRC 08FA75FA
Accurately ripped (confidence 1) [87BA73EC] (AR v2)
Copy OK

Track 6

Filename C:\Music\06 Uptown Top Ranking.wav

Peak level 98.8 %
Extraction speed 1.7 X
Track quality 100.0 %
Test CRC 341F3F68
Copy CRC 341F3F68
Accurately ripped (confidence 1) [6B18D158] (AR v2)
Copy OK

Track 7

Filename C:\Music\07 I Can See Clearly Now.wav

Peak level 98.8 %
Extraction speed 1.7 X
Track quality 100.0 %
Test CRC 27501D13
Copy CRC 27501D13
Accurately ripped (confidence 1) [5184F638] (AR v2)
Copy OK

Track 8

Filename C:\Music\08 Money In My Pocket.wav

Peak level 98.8 %
Extraction speed 1.6 X
Track quality 99.9 %
Test CRC A8E05099
Copy CRC A8E05099
Accurately ripped (confidence 1) [45199693] (AR v2)
Copy OK

Track 9

Filename C:\Music\09 Get Up Stand Up.wav

Peak level 98.8 %
Extraction speed 1.9 X
Track quality 100.0 %
Test CRC EA711090
Copy CRC EA711090
Accurately ripped (confidence 1) [BDE7F484] (AR v2)
Copy OK

Track 10

Filename C:\Music\10 Good Thing Going (We've Got a Good Thing Going).wav

Peak level 98.8 %
Extraction speed 2.0 X
Track quality 100.0 %
Test CRC 56830286
Copy CRC 56830286
Accurately ripped (confidence 1) [92DE74B0] (AR v2)
Copy OK

Track 11

Filename C:\Music\11 Stir It Up.wav

Peak level 98.8 %
Extraction speed 2.0 X
Track quality 100.0 %
Test CRC 4FD042DC
Copy CRC 4FD042DC
Accurately ripped (confidence 1) [8ACABCDC] (AR v2)
Copy OK

Track 12

Filename C:\Music\12 Dreadlock Holiday.wav

Peak level 98.8 %
Extraction speed 2.2 X
Track quality 100.0 %
Test CRC A3D7B376
Copy CRC A3D7B376
Accurately ripped (confidence 1) [0970F472] (AR v2)
Copy OK

Track 13

Filename C:\Music\13 Double Barrel.wav

Peak level 98.8 %
Extraction speed 1.7 X
Track quality 99.9 %
Test CRC A4ECFBE8
Copy CRC A4ECFBE8
Accurately ripped (confidence 1) [308EC174] (AR v2)
Copy OK

Track 14

Filename C:\Music\14 The Harder They Come.wav

Peak level 98.8 %
Extraction speed 2.1 X
Track quality 100.0 %
Test CRC FD4CDBC9
Copy CRC FD4CDBC9
Accurately ripped (confidence 1) [B3804495] (AR v2)
Copy OK

Track 15

Filename C:\Music\15 Girlie Girlie.wav

Peak level 94.9 %
Extraction speed 1.9 X
Track quality 99.9 %
Test CRC 6A65AAB4
Copy CRC 6A65AAB4
Accurately ripped (confidence 1) [ADF99EBC] (AR v2)
Copy OK

Track 16

Filename C:\Music\16 54-46 That's My Number.wav

Peak level 98.8 %
Extraction speed 2.2 X
Track quality 100.0 %
Test CRC 79158400
Copy CRC 79158400
Accurately ripped (confidence 1) [0B421A42] (AR v2)
Copy OK

Track 17

Filename C:\Music\17 Kingston Town.wav

Peak level 98.8 %
Extraction speed 2.4 X
Track quality 100.0 %
Test CRC B2359D52
Copy CRC B2359D52
Accurately ripped (confidence 1) [BA4DDEAC] (AR v2)
Copy OK

Track 18

Filename C:\Music\18 Silly Games.wav

Peak level 98.8 %
Extraction speed 2.2 X
Track quality 99.9 %
Test CRC 6D1E881B
Copy CRC 6D1E881B
Accurately ripped (confidence 1) [3DA7B417] (AR v2)
Copy OK

Track 19

Filename C:\Music\19 Let Your Yeah Be Yeah.wav

Peak level 98.8 %
Extraction speed 2.4 X
Track quality 100.0 %
Test CRC 5CB5A962
Copy CRC 5CB5A962
Accurately ripped (confidence 1) [DBFF55DF] (AR v2)
Copy OK

Track 20

Filename C:\Music\20 Love of the Common People.wav

Peak level 80.2 %
Extraction speed 2.3 X
Track quality 100.0 %
Test CRC FBB7B27B
Copy CRC FBB7B27B
Accurately ripped (confidence 1) [C6F5B1F7] (AR v2)
Copy OK


All tracks accurately ripped

No errors occurred

End of status report

–– CUETools DB Plugin V2.1.6

[CTDB TOCID: pmMkuZmTAqwG53iRK_C5IOB_Oxc-] found
Submit result: pmMkuZmTAqwG53iRK_C5IOB_Oxc- has been confirmed
Track | CTDB Status
1 | (3/3) Accurately ripped
2 | (3/3) Accurately ripped
3 | (3/3) Accurately ripped
4 | (3/3) Accurately ripped
5 | (3/3) Accurately ripped
6 | (3/3) Accurately ripped
7 | (3/3) Accurately ripped
8 | (3/3) Accurately ripped
9 | (3/3) Accurately ripped
10 | (3/3) Accurately ripped
11 | (3/3) Accurately ripped
12 | (3/3) Accurately ripped
13 | (3/3) Accurately ripped
14 | (3/3) Accurately ripped
15 | (3/3) Accurately ripped
16 | (3/3) Accurately ripped
17 | (3/3) Accurately ripped
18 | (3/3) Accurately ripped
19 | (3/3) Accurately ripped
20 | (3/3) Accurately ripped


==== Log checksum CDDDA1B1AA184391F3625B4F2C7188C7AE79C6DFF5A44173F1A3CAB3A29072C0 ====


All thanks go to the original releaser