Subcategories

V.A. - Oh, Run Into Me, But Don't Hurt Me! - Female Blues Singers (Rarities 1923-1930) (2008)

Posted By: gribovar
V.A. - Oh, Run Into Me, But Don't Hurt Me! - Female Blues Singers (Rarities 1923-1930) (2008)

V.A. - Oh, Run Into Me, But Don't Hurt Me! - Female Blues Singers (Rarities 1923-1930) (2008)
EAC Rip | FLAC (tracks+.cue+log) - 361 MB | MP3 CBR 320 kbps (LAME 3.93) - 173 MB | Covers - 123 MB
Genre: Blues | RAR 3% Rec. | Label: Sub Rosa (SR268)

There are a couple of names here, like Memphis Minnie and Lucille Bogan, that will be familiar to fans of the early blues on this interesting collection of female blues singers who recorded between 1923 and 1930, but most of these singers will be unknown to all but the most serious blues scholars and collectors. Most of them recorded sparingly, often cutting only the two sides of a single 78, before vanishing into the mists of history, remaining now only as vocal ghosts in the digital glow of the 21st century. Those voices, however, remain amazingly powerful, and the honest coarseness and barely veiled sexual themes of these songs is oddly refreshing and hopeful, and the directness of some of these sides seems bold even by today's standards. The little-known Margaret Johnson is a case in point. Her two-sided 78, which included the to-the-point-and-suffer-no-fools "Dead Drunk Blues," a song that could only be called a blues dirge, and the bright-sounding (but not really) "Second-Handed Blues," explores the universal themes of the wages and costs of love with all the subtlety of a hammer thrown through a pane of glass. The directness is startling, revealing, redemptive, and even a little frightening. In other words, it's everything the blues should be.
Tracklist:
01. Anna Jones - Trixie Blues
02. Lena Henry - Low Down Despondent Blues
03. Rosa Henderson - Get It Fixed
04. Virgina Liston - I'm Gonna Get Me A Man
05. Magaret Carter - Come Get Me Papa Before I Faint
06. Margaret Carter - I Want Plenty Grease In My Flying Pan
07. Monette Moore - Somebody's Been Loving My Babe
08. Martha Copelend - Stole My Man Blues
09. Margaret Johnson - Dead Drunk Blues
10. Margaret Johnson - Second Handed Blues
11. Coletha Simpson - Down South Blues
12. Ivy Smith - Third Alley Blues
13. Ivy Smith - Sad And Blues
14. Lil Johnson - You'll Never Miss Your Jelly
15. Lil Johnson - Never Let Your Left Hand Know
16. Lucille Bogan - Pot Hound Blues
17. Lucille Bogan - Coffee Grindin' Blues
18. Jenny Pope - Doggin' Me Around Blues
19. Jenny Pope - Whiskey Drinking Blues
20. Jenny Pope - Bull Frog Blues
21. Jenny Pope - Tennesse Workhouse Blues
22. Lucille Bogan - Black Angel Blues
23. Lucille Bogan - Tricks Ain't Walking Anymore
24. Memphis Minnie - I'm Talking About You №2

Total time: 01:13:30

Exact Audio Copy V0.99 prebeta 4 from 23. January 2008

EAC extraction logfile from 26. November 2008, 15:28

Female Blues Singers / Oh Run Into Me But Don't Hurt Me

Used drive : _NEC DVD_RW ND-3500AG Adapter: 0 ID: 1

Read mode : Secure
Utilize accurate stream : Yes
Defeat audio cache : Yes
Make use of C2 pointers : No

Read offset correction : 48
Overread into Lead-In and Lead-Out : No
Fill up missing offset samples with silence : Yes
Delete leading and trailing silent blocks : No
Null samples used in CRC calculations : Yes
Used interface : Native Win32 interface for Win NT & 2000
Gap handling : Appended to previous track

Used output format : User Defined Encoder
Selected bitrate : 128 kBit/s
Quality : High
Add ID3 tag : No
Command line compressor : C:\Program Files\FLAC\flac.exe
Additional command line options : -8 -V -T "ARTIST=%a" -T "TITLE=%t" -T "ALBUM=%g" -T "DATE=%y" -T "TRACKNUMBER=%n" -T "GENRE=%m" -T "COMMENT=EAC FLAC -8" %s


TOC of the extracted CD

Track | Start | Length | Start sector | End sector
––––––––––––––––––––––––––––-
1 | 0:00.00 | 2:54.43 | 0 | 13092
2 | 2:54.43 | 2:53.30 | 13093 | 26097
3 | 5:47.73 | 2:55.04 | 26098 | 39226
4 | 8:43.02 | 3:08.14 | 39227 | 53340
5 | 11:51.16 | 2:50.46 | 53341 | 66136
6 | 14:41.62 | 2:43.17 | 66137 | 78378
7 | 17:25.04 | 3:26.56 | 78379 | 93884
8 | 20:51.60 | 3:08.24 | 93885 | 108008
9 | 24:00.09 | 3:09.30 | 108009 | 122213
10 | 27:09.39 | 3:20.34 | 122214 | 137247
11 | 30:29.73 | 2:49.53 | 137248 | 149975
12 | 33:19.51 | 2:52.61 | 149976 | 162936
13 | 36:12.37 | 2:50.41 | 162937 | 175727
14 | 39:03.03 | 3:27.41 | 175728 | 191293
15 | 42:30.44 | 2:59.16 | 191294 | 204734
16 | 45:29.60 | 3:04.52 | 204735 | 218586
17 | 48:34.37 | 3:22.53 | 218587 | 233789
18 | 51:57.15 | 3:15.58 | 233790 | 248472
19 | 55:12.73 | 3:08.06 | 248473 | 262578
20 | 58:21.04 | 2:41.58 | 262579 | 274711
21 | 61:02.62 | 2:49.43 | 274712 | 287429
22 | 63:52.30 | 3:06.40 | 287430 | 301419
23 | 66:58.70 | 3:17.45 | 301420 | 316239
24 | 70:16.40 | 3:13.63 | 316240 | 330777


Track 1

Filename F:\DL\Female Blues Singers - Oh Run Into Me But Don't Hurt Me (2007) [FLAC]\01 - Anna Jones Trixie Blues.wav

Pre-gap length 0:00:02.00

Peak level 97.7 %
Track quality 100.0 %
Test CRC 72D455B3
Copy CRC 72D455B3
Copy OK

Track 2

Filename F:\DL\Female Blues Singers - Oh Run Into Me But Don't Hurt Me (2007) [FLAC]\02 - Lena Henry Low Down Despondent Blues.wav

Pre-gap length 0:00:02.29

Peak level 93.7 %
Track quality 100.0 %
Test CRC 489CD57A
Copy CRC 489CD57A
Copy OK

Track 3

Filename F:\DL\Female Blues Singers - Oh Run Into Me But Don't Hurt Me (2007) [FLAC]\03 - Rosa Henderson Get It Fixed.wav

Pre-gap length 0:00:02.14

Peak level 97.7 %
Track quality 100.0 %
Test CRC 60B55B5D
Copy CRC 60B55B5D
Copy OK

Track 4

Filename F:\DL\Female Blues Singers - Oh Run Into Me But Don't Hurt Me (2007) [FLAC]\04 - Virgina Liston I'm Gonna Get Me A Man.wav

Pre-gap length 0:00:02.53

Peak level 97.7 %
Track quality 100.0 %
Test CRC 0DC40D14
Copy CRC 0DC40D14
Copy OK

Track 5

Filename F:\DL\Female Blues Singers - Oh Run Into Me But Don't Hurt Me (2007) [FLAC]\05 - Magaret Carter Come Get Me Papa Before I Faint.wav

Pre-gap length 0:00:02.46

Peak level 90.0 %
Track quality 100.0 %
Test CRC 3446B252
Copy CRC 3446B252
Copy OK

Track 6

Filename F:\DL\Female Blues Singers - Oh Run Into Me But Don't Hurt Me (2007) [FLAC]\06 - Margaret Carter I Want Plenty Grease In My Flying Pan.wav

Pre-gap length 0:00:02.40

Peak level 84.4 %
Track quality 100.0 %
Test CRC 1A734DAC
Copy CRC 1A734DAC
Copy OK

Track 7

Filename F:\DL\Female Blues Singers - Oh Run Into Me But Don't Hurt Me (2007) [FLAC]\07 - Monette Moore Somebody's Been Loving My Babe.wav

Pre-gap length 0:00:01.97

Peak level 97.5 %
Track quality 100.0 %
Test CRC A9B9C2BA
Copy CRC A9B9C2BA
Copy OK

Track 8

Filename F:\DL\Female Blues Singers - Oh Run Into Me But Don't Hurt Me (2007) [FLAC]\08 - Martha Copelend Stole My Man Blues.wav

Pre-gap length 0:00:02.13

Peak level 97.7 %
Track quality 100.0 %
Test CRC AFCDCDAC
Copy CRC AFCDCDAC
Copy OK

Track 9

Filename F:\DL\Female Blues Singers - Oh Run Into Me But Don't Hurt Me (2007) [FLAC]\09 - Margaret Johnson Dead Drunk Blues.wav

Pre-gap length 0:00:01.69

Peak level 93.3 %
Track quality 100.0 %
Test CRC 2D8CC5F7
Copy CRC 2D8CC5F7
Copy OK

Track 10

Filename F:\DL\Female Blues Singers - Oh Run Into Me But Don't Hurt Me (2007) [FLAC]\10 - Margaret Johnson Second Handed Blues.wav

Pre-gap length 0:00:01.92

Peak level 91.2 %
Track quality 100.0 %
Test CRC 3B9D5AE4
Copy CRC 3B9D5AE4
Copy OK

Track 11

Filename F:\DL\Female Blues Singers - Oh Run Into Me But Don't Hurt Me (2007) [FLAC]\11 - Coletha Simpson Down South Blues.wav

Pre-gap length 0:00:02.42

Peak level 78.5 %
Track quality 100.0 %
Test CRC 334CE62F
Copy CRC 334CE62F
Copy OK

Track 12

Filename F:\DL\Female Blues Singers - Oh Run Into Me But Don't Hurt Me (2007) [FLAC]\12 - Ivy Smith Third Alley Blues.wav

Pre-gap length 0:00:01.68

Peak level 97.7 %
Track quality 100.0 %
Test CRC 053B2B9F
Copy CRC 053B2B9F
Copy OK

Track 13

Filename F:\DL\Female Blues Singers - Oh Run Into Me But Don't Hurt Me (2007) [FLAC]\13 - Ivy Smith Sad And Blues.wav

Pre-gap length 0:00:01.84

Peak level 97.7 %
Track quality 100.0 %
Test CRC F0C6E723
Copy CRC F0C6E723
Copy OK

Track 14

Filename F:\DL\Female Blues Singers - Oh Run Into Me But Don't Hurt Me (2007) [FLAC]\14 - Lil Johnson You'll Never Miss Your Jelly.wav

Pre-gap length 0:00:01.80

Peak level 94.0 %
Track quality 99.9 %
Test CRC A6C0C90B
Copy CRC A6C0C90B
Copy OK

Track 15

Filename F:\DL\Female Blues Singers - Oh Run Into Me But Don't Hurt Me (2007) [FLAC]\15 - Lil Johnson Never Let Your Left Hand Know.wav

Pre-gap length 0:00:02.04

Peak level 55.6 %
Track quality 100.0 %
Test CRC BB023A6C
Copy CRC BB023A6C
Copy OK

Track 16

Filename F:\DL\Female Blues Singers - Oh Run Into Me But Don't Hurt Me (2007) [FLAC]\16 - Lucille Bogan Pot Hound Blues.wav

Pre-gap length 0:00:02.34

Peak level 97.7 %
Track quality 100.0 %
Test CRC D0010CF3
Copy CRC D0010CF3
Copy OK

Track 17

Filename F:\DL\Female Blues Singers - Oh Run Into Me But Don't Hurt Me (2007) [FLAC]\17 - Lucille Bogan Coffee Grindin' Blues.wav

Pre-gap length 0:00:02.14

Peak level 97.3 %
Track quality 100.0 %
Test CRC 87D7425C
Copy CRC 87D7425C
Copy OK

Track 18

Filename F:\DL\Female Blues Singers - Oh Run Into Me But Don't Hurt Me (2007) [FLAC]\18 - Jenny Pope Doggin' Me Around Blues.wav

Pre-gap length 0:00:02.16

Peak level 97.7 %
Track quality 100.0 %
Test CRC D1F7B5CB
Copy CRC D1F7B5CB
Copy OK

Track 19

Filename F:\DL\Female Blues Singers - Oh Run Into Me But Don't Hurt Me (2007) [FLAC]\19 - Jenny Pope Whiskey Drinking Blues.wav

Pre-gap length 0:00:01.89

Peak level 97.7 %
Track quality 100.0 %
Test CRC FE04ACB1
Copy CRC FE04ACB1
Copy OK

Track 20

Filename F:\DL\Female Blues Singers - Oh Run Into Me But Don't Hurt Me (2007) [FLAC]\20 - Jenny Pope Bull Frog Blues.wav

Pre-gap length 0:00:02.13

Peak level 97.7 %
Track quality 100.0 %
Test CRC F7668B76
Copy CRC F7668B76
Copy OK

Track 21

Filename F:\DL\Female Blues Singers - Oh Run Into Me But Don't Hurt Me (2007) [FLAC]\21 - Jenny Pope Tennesse Workhouse Blues.wav

Pre-gap length 0:00:01.88

Peak level 97.7 %
Track quality 100.0 %
Test CRC D71F0A58
Copy CRC D71F0A58
Copy OK

Track 22

Filename F:\DL\Female Blues Singers - Oh Run Into Me But Don't Hurt Me (2007) [FLAC]\22 - Lucille Bogan Black Angel Blues.wav

Pre-gap length 0:00:01.81

Peak level 96.7 %
Track quality 100.0 %
Test CRC 9F6361CA
Copy CRC 9F6361CA
Copy OK

Track 23

Filename F:\DL\Female Blues Singers - Oh Run Into Me But Don't Hurt Me (2007) [FLAC]\23 - Lucille Bogan Tricks Ain't Walking Anymore.wav

Pre-gap length 0:00:01.85

Peak level 97.7 %
Track quality 100.0 %
Test CRC 7696A3A5
Copy CRC 7696A3A5
Copy OK

Track 24

Filename F:\DL\Female Blues Singers - Oh Run Into Me But Don't Hurt Me (2007) [FLAC]\24 - Memphis Minnie I'm Talking About You 2.wav

Pre-gap length 0:00:02.42

Peak level 76.7 %
Track quality 100.0 %
Test CRC CB4804F2
Copy CRC CB4804F2
Copy OK

No errors occurred

End of status report

[CUETools log; Date: 11.12.2019 2:21:10; Version: 2.1.4]
[CTDB TOCID: VFQBbt4ZC3G.ccpJgTlDEcGtDNQ-] found.
Track | CTDB Status
1 | (3/3) Accurately ripped
2 | (3/3) Accurately ripped
3 | (3/3) Accurately ripped
4 | (3/3) Accurately ripped
5 | (3/3) Accurately ripped
6 | (3/3) Accurately ripped
7 | (3/3) Accurately ripped
8 | (3/3) Accurately ripped
9 | (3/3) Accurately ripped
10 | (3/3) Accurately ripped
11 | (3/3) Accurately ripped
12 | (3/3) Accurately ripped
13 | (3/3) Accurately ripped
14 | (3/3) Accurately ripped
15 | (3/3) Accurately ripped
16 | (3/3) Accurately ripped
17 | (3/3) Accurately ripped
18 | (3/3) Accurately ripped
19 | (3/3) Accurately ripped
20 | (3/3) Accurately ripped
21 | (3/3) Accurately ripped
22 | (3/3) Accurately ripped
23 | (3/3) Accurately ripped
24 | (3/3) Accurately ripped
[AccurateRip ID: 003e8136-043eed85-2f113a18] found.
Track [ CRC | V2 ] Status
01 [34fbe067|b5d717c6] (0+3/3) Accurately ripped
02 [6f62cd42|70ee8649] (0+3/3) Accurately ripped
03 [6da3a4b0|53cfd393] (0+3/3) Accurately ripped
04 [d2acbf82|372d7390] (0+3/3) Accurately ripped
05 [8db023a4|c9bf7801] (0+3/3) Accurately ripped
06 [772f2675|e7255817] (0+3/3) Accurately ripped
07 [2335ad13|beb2826b] (0+3/3) Accurately ripped
08 [d0fa2b76|d7cddb29] (0+3/3) Accurately ripped
09 [88ead419|07a6e8f7] (0+3/3) Accurately ripped
10 [be704bf0|eccabbf7] (0+3/3) Accurately ripped
11 [c909a61e|a997ea68] (0+3/3) Accurately ripped
12 [21ee6ce0|23a443c0] (0+3/3) Accurately ripped
13 [adcc9c9e|ef40dd79] (0+3/3) Accurately ripped
14 [139e4fd0|6fca7df2] (0+3/3) Accurately ripped
15 [a27be01a|ae686998] (0+3/3) Accurately ripped
16 [cad07b12|bff98787] (0+3/3) Accurately ripped
17 [2d24f8d3|dcc0b9a6] (0+3/3) Accurately ripped
18 [a4d6a99d|19bd70a1] (0+3/3) Accurately ripped
19 [e4154849|5b508f75] (0+3/3) Accurately ripped
20 [b0006a75|e83fd531] (0+3/3) Accurately ripped
21 [f113f1e6|d2285768] (0+3/3) Accurately ripped
22 [86a421b2|a9af85ef] (0+3/3) Accurately ripped
23 [b74e4903|d5d73822] (0+3/3) Accurately ripped
24 [16139689|9540af0e] (0+3/3) Accurately ripped

Track Peak [ CRC32 ] [W/O NULL] [ LOG ]
– 97,7 [55D61D1A] [370DA222]
01 97,7 [72D455B3] [C4F419C1] CRC32
02 93,7 [489CD57A] [3236BA1E] CRC32
03 97,7 [60B55B5D] [6A3A01A4] CRC32
04 97,7 [0DC40D14] [95A7FF62] CRC32
05 90,0 [3446B252] [80BD6174] CRC32
06 84,4 [1A734DAC] [E5D01CCF] CRC32
07 97,5 [A9B9C2BA] [96D87C8B] CRC32
08 97,7 [AFCDCDAC] [EA637FD8] CRC32
09 93,3 [2D8CC5F7] [0E6C3EB9] CRC32
10 91,2 [3B9D5AE4] [831CDC18] CRC32
11 78,5 [334CE62F] [1FCB5A0C] CRC32
12 97,7 [053B2B9F] [0F389CB2] CRC32
13 97,7 [F0C6E723] [6FA04BF7] CRC32
14 94,0 [A6C0C90B] [13BF198D] CRC32
15 55,6 [BB023A6C] [8D328D46] CRC32
16 97,7 [D0010CF3] [CC1D0B05] CRC32
17 97,3 [87D7425C] [921A79C9] CRC32
18 97,7 [D1F7B5CB] [9E010FBB] CRC32
19 97,7 [FE04ACB1] [5CC4AFD6] CRC32
20 97,7 [F7668B76] [257EBEAC] CRC32
21 97,7 [D71F0A58] [96F3725F] CRC32
22 96,7 [9F6361CA] [DF344CC5] CRC32
23 97,7 [7696A3A5] [F7F8994D] CRC32
24 76,7 [CB4804F2] [1AA05912] CRC32

Thanks to dtromp