Various Artists - Precious Stone: In The Studio with Sly Stone 1963-1965 (1994)

Posted By: BlondStyle
Various Artists - Precious Stone: In The Studio with Sly Stone 1963-1965 (1994)

Various Artists - Precious Stone: In The Studio with Sly Stone 1963-1965 (1994)
R&B, Soul/Funk, Pop/Rock | EAC Rip | FLAC, Img+CUE+LOG+Scans (PNG) | 73:57 Min | 466,92 Mb
Label: Ace Records Ltd. (UK) | Cat.# CDCHD 539 | Released: 1994-09-13
Various Artists - Precious Stone: In The Studio with Sly Stone 1963-1965 (1994)

Before forming the Family Stone, Sly Stone gained a lot of experience in the studio as the virtual in-house producer for the San Francisco-based Autumn label. The sessions he worked on during this era (performed by both himself and other artists) have appeared on numerous scattershot compilations. This 28-song anthology is the most comprehensive and intelligently assembled of these, including Sly solo performances, Sly collaborations with Billy Preston, and obscure soul-pop sides by Bobby Freeman, Gloria Scott, George & Teddy, and others. Over half of the cuts were previously unissued, and the lengthy liner notes provide an in-depth overview of his early accomplishments. Only serious collectors should seek this out, though. While Autumn afforded Stone the opportunity to experiment in the studio and devise various primitive collisions of soul and pop, his compositional, instrumental, and vocal skills were still in a very formative (if very promising) stage. Much of this is routinely pleasant, if lightly eccentric, period pop-soul, with occasional bursts of inspiration like Sly's wild scat vocals on "Scat Swim," and the folk-rockish "As I Get Older," and a few songs that would be reworked for inclusion on the first couple of Family Stone albums.
~Review by Richie Unterberger

Various Artists - Precious Stone: In The Studio with Sly Stone 1963-1965 (1994)

Various Artists - Precious Stone: In The Studio with Sly Stone 1963-1965 (1994)


Release of this CD: 1994, September, 13 [CD Ace Records Ltd. (EU), Cat.# CDCHD 539 / UPC: 029667153928]
The copyrights in this sound recording are owned by Rhino Records Inc. and are licensed to Ace Records Ltd.
℗ Rhino Records Inc.
This compilation ℗© 1994 Ace Records Ltd.
Made in the UK

Credits:

Compiled By, Liner Notes – Alec Palao
Design [Package] – Phil Smee
Producer [Post-production] – David Young
Written-By – Sylvester Stewart (tracks: 2 to 8, 11, 13 to 15, 17 to 26, 28)


Tracklist:

01. Sly & Rose - The Swim (02:42)
02. Sly - Scat Swim (02:26)
03. Gloria Scott & The Tonettes - I Taught Him (02:07)
04. Gloria Scott & The Tonettes - Don't Say I Didn't Warn You (02:31)
05. Sly - Help Me With My Broken Heart (03:08)
06. Sly - Out Of Sight (03:07)
07. Emile O'Connor - The Nerve Of You (02:51)
08. Emile O'Connor - Every Dog Has His Day (02:18)
09. Sly - On Broadway (02:34)
10. Sly - Searchin' (02:32)
11. Sly - Lord, Lord 02:24)
12. Sly - The Seventh Son (02:17)
13. Sly & Sal - The Jerk (02:44)
14. Bobby Freeman - That Little Old Heartbreaker Me (02:55)
15. Bobby Freeman - I'll Never Fall In Love Again (02:36)
16. Sly & Billy Preston - Ain't That Lovin' You Baby (02:30)
17. Sly - Buttermilk (Part 1) (02:13)
18. George & Teddy - Fake It 03:25)
19. George & Teddy - Laugh (02:14)
20. Sly & Billy Breston - Little Latin Lupe Lu (02:20)
21. Sly & Freddie - Dance All Night (02:54)
22. Sly - Temptation Walk (02:16)
23. Sly - Underdog (03:33)
24. Sly & Billy Preston - Can't You Tell I Love Her (03:02)
25. Sly & Billy Preston - Life Of Fortune And Fame (02:25)
26. Sly & Billy Preston - Take My Advice (03:05)
27. Sly & Billy Preston - As I Get Older (02:59)
28. Sly - Radio Spot (01:33)

Exact Audio Copy V1.0 beta 1 from 15. November 2010

EAC extraction logfile from 21. June 2011, 20:20

Various / Precious Stone - In The Studio With Sly Stone 1963-1965

Used drive : HP DVD Writer 1040r Adapter: 1 ID: 0

Read mode : Secure
Utilize accurate stream : Yes
Defeat audio cache : Yes
Make use of C2 pointers : No

Read offset correction : 6
Overread into Lead-In and Lead-Out : No
Fill up missing offset samples with silence : Yes
Delete leading and trailing silent blocks : No
Null samples used in CRC calculations : No
Used interface : Native Win32 interface for Win NT & 2000

Used output format : User Defined Encoder
Selected bitrate : 1024 kBit/s
Quality : High
Add ID3 tag : No
Command line compressor : C:\Program Files\Exact Audio Copy\FLAC\FLAC.EXE
Additional command line options : -6 -V -T "ARTIST=%a" -T "TITLE=%t" -T "ALBUM=%g" -T "DATE=%y" -T "TRACKNUMBER=%n" -T "GENRE=%m" -T "COMMENT=%e" %j–picture="%i"%j %s -o %d


TOC of the extracted CD

Track | Start | Length | Start sector | End sector
––––––––––––––––––––––––––––-
1 | 0:00.32 | 2:41.65 | 32 | 12171
2 | 2:42.22 | 2:26.63 | 12172 | 23184
3 | 5:09.10 | 2:07.67 | 23185 | 32776
4 | 7:17.02 | 2:31.18 | 32777 | 44119
5 | 9:48.20 | 3:08.62 | 44120 | 58281
6 | 12:57.07 | 3:07.28 | 58282 | 72334
7 | 16:04.35 | 2:51.47 | 72335 | 85206
8 | 18:56.07 | 2:18.18 | 85207 | 95574
9 | 21:14.25 | 2:34.57 | 95575 | 107181
10 | 23:49.07 | 2:32.65 | 107182 | 118646
11 | 26:21.72 | 2:24.65 | 118647 | 129511
12 | 28:46.62 | 2:17.40 | 129512 | 139826
13 | 31:04.27 | 2:44.38 | 139827 | 152164
14 | 33:48.65 | 2:55.55 | 152165 | 165344
15 | 36:44.45 | 2:36.42 | 165345 | 177086
16 | 39:21.12 | 2:30.70 | 177087 | 188406
17 | 41:52.07 | 2:13.58 | 188407 | 198439
18 | 44:05.65 | 3:25.12 | 198440 | 213826
19 | 47:31.02 | 2:14.13 | 213827 | 223889
20 | 49:45.15 | 2:20.70 | 223890 | 234459
21 | 52:06.10 | 2:54.72 | 234460 | 247581
22 | 55:01.07 | 2:16.00 | 247582 | 257781
23 | 57:17.07 | 3:33.20 | 257782 | 273776
24 | 60:50.27 | 3:02.55 | 273777 | 287481
25 | 63:53.07 | 2:25.50 | 287482 | 298406
26 | 66:18.57 | 3:05.35 | 298407 | 312316
27 | 69:24.17 | 2:59.43 | 312317 | 325784
28 | 72:23.60 | 1:33.00 | 325785 | 332759


Range status and errors

Selected range

Filename C:\Users\Mike3\Desktop\Precious Stone ~ In The Studio with Sly Stone 1963-1965\Various - Precious Stone - In The Studio With Sly Stone 1963-1965.wav

Peak level 100.0 %
Extraction speed 0.0 X
Range quality 100.0 %
Test CRC 4D07329C
Copy CRC 4D07329C
Copy OK

No errors occurred


AccurateRip summary

Track 1 accurately ripped (confidence 1) [B66C8E9F]
Track 2 accurately ripped (confidence 1) [731C39FC]
Track 3 accurately ripped (confidence 1) [33C962D5]
Track 4 accurately ripped (confidence 1) [03B912E9]
Track 5 accurately ripped (confidence 1) [271F1B0D]
Track 6 accurately ripped (confidence 1) [B2BF387E]
Track 7 accurately ripped (confidence 1) [6D0B2406]
Track 8 accurately ripped (confidence 1) [5595975C]
Track 9 accurately ripped (confidence 1) [45FD9C09]
Track 10 accurately ripped (confidence 1) [E1C1D2D1]
Track 11 accurately ripped (confidence 1) [80B47577]
Track 12 accurately ripped (confidence 1) [722D09C6]
Track 13 accurately ripped (confidence 1) [3FD46796]
Track 14 accurately ripped (confidence 1) [C79C221F]
Track 15 accurately ripped (confidence 1) [F8632929]
Track 16 accurately ripped (confidence 1) [8E43E141]
Track 17 accurately ripped (confidence 1) [C11B2B9C]
Track 18 accurately ripped (confidence 1) [020B6872]
Track 19 accurately ripped (confidence 1) [82473165]
Track 20 accurately ripped (confidence 1) [42D172DD]
Track 21 accurately ripped (confidence 1) [6D5F8CE0]
Track 22 accurately ripped (confidence 1) [0C14C2E3]
Track 23 accurately ripped (confidence 1) [E4DEF1D6]
Track 24 accurately ripped (confidence 1) [3C27E0E2]
Track 25 accurately ripped (confidence 1) [C0C3FF6B]
Track 26 accurately ripped (confidence 1) [9EC994FC]
Track 27 accurately ripped (confidence 1) [3912F21E]
Track 28 accurately ripped (confidence 1) [A558B1EB]

All tracks accurately ripped

End of status report

==== Log checksum 53FF3CB302E1A6F9C4098EFB36C264CDAF6717945BC001F71588ED0D9C187899 ====

––––––––––––––––––––––––––––––––––––––––
Analyzed: Bobby Freeman / Precious Stone - In The Studio With Sly Stone 1963-1965
––––––––––––––––––––––––––––––––––––––––

DR Peak RMS Duration Track
––––––––––––––––––––––––––––––––––––––––
DR14 0.00 dB -17.11 dB 2:56 14-That Little Old Heartbreaker Me
DR12 -2.00 dB -16.22 dB 2:37 15-I'll Never Fall In Love Again
––––––––––––––––––––––––––––––––––––––––

Number of tracks: 2
Official DR value: DR13

Samplerate: 44100 Hz
Channels: 2
Bits per sample: 16
Bitrate: 765 kbps
Codec: FLAC
================================================================================

––––––––––––––––––––––––––––––––––––––––
Analyzed: Emile O'Connor / Precious Stone - In The Studio With Sly Stone 1963-1965 (1-2)
George & Teddy / Precious Stone - In The Studio With Sly Stone 1963-1965 (3-4)
––––––––––––––––––––––––––––––––––––––––

DR Peak RMS Duration Track
––––––––––––––––––––––––––––––––––––––––
DR13 0.00 dB -17.13 dB 2:52 07-The Nerve Of You
DR12 0.00 dB -15.85 dB 2:18 08-Every Dog Has His Day
DR14 0.00 dB -16.88 dB 3:25 18-Fake It
DR14 0.00 dB -15.81 dB 2:14 19-Laugh
––––––––––––––––––––––––––––––––––––––––

Number of tracks: 4
Official DR value: DR13

Samplerate: 44100 Hz
Channels: 2
Bits per sample: 16
Bitrate: 765 kbps
Codec: FLAC
================================================================================

––––––––––––––––––––––––––––––––––––––––
Analyzed: Gloria Scott & The Tonettes / Precious Stone - In The Studio With Sly Stone 1963-1965 (1-2)
Sly & Billy Breston / Precious Stone - In The Studio With Sly Stone 1963-1965 (3)
––––––––––––––––––––––––––––––––––––––––

DR Peak RMS Duration Track
––––––––––––––––––––––––––––––––––––––––
DR11 -1.00 dB -14.60 dB 2:08 03-I Taught Him
DR12 0.00 dB -15.12 dB 2:31 04-Don't Say I Didn't Warn You
DR13 -1.00 dB -17.18 dB 2:21 20-Little Latin Lupe Lu
––––––––––––––––––––––––––––––––––––––––

Number of tracks: 3
Official DR value: DR12

Samplerate: 44100 Hz
Channels: 2
Bits per sample: 16
Bitrate: 765 kbps
Codec: FLAC
================================================================================

––––––––––––––––––––––––––––––––––––––––
Analyzed: Sly & Billy Preston / Precious Stone - In The Studio With Sly Stone 1963-1965
––––––––––––––––––––––––––––––––––––––––

DR Peak RMS Duration Track
––––––––––––––––––––––––––––––––––––––––
DR14 0.00 dB -15.38 dB 2:31 16-Ain't That Lovin' You Baby
DR14 0.00 dB -18.68 dB 3:03 24-Can't You Tell I Love Her
DR14 0.00 dB -17.14 dB 2:26 25-Life Of Fortune And Fame
DR16 0.00 dB -18.80 dB 3:05 26-Take My Advice
DR13 0.00 dB -16.70 dB 3:00 27-As I Get Older
––––––––––––––––––––––––––––––––––––––––

Number of tracks: 5
Official DR value: DR14

Samplerate: 44100 Hz
Channels: 2
Bits per sample: 16
Bitrate: 765 kbps
Codec: FLAC
================================================================================

––––––––––––––––––––––––––––––––––––––––
Statistics for: 21-Dance All Night
Number of samples: 7715736
Duration: 2:55
––––––––––––––––––––––––––––––––––––––––

Left Right

Peak Value: -2.26 dB –- -2.00 dB
Avg RMS: -17.41 dB –- -17.32 dB
DR channel: 13.03 dB –- 13.67 dB
––––––––––––––––––––––––––––––––––––––––

Official DR Value: DR13

Samplerate: 44100 Hz
Channels: 2
Bits per sample: 16
Bitrate: 765 kbps
Codec: FLAC
================================================================================
––––––––––––––––––––––––––––––––––––––––
Analyzed: Sly & Rose / Precious Stone - In The Studio With Sly Stone 1963-1965 (1)
Sly & Sal / Precious Stone - In The Studio With Sly Stone 1963-1965 (2)
––––––––––––––––––––––––––––––––––––––––

DR Peak RMS Duration Track
––––––––––––––––––––––––––––––––––––––––
DR13 0.00 dB -14.57 dB 2:42 01-The Swim
DR12 -2.00 dB -15.70 dB 2:45 13-The Jerk
––––––––––––––––––––––––––––––––––––––––

Number of tracks: 2
Official DR value: DR12

Samplerate: 44100 Hz
Channels: 2
Bits per sample: 16
Bitrate: 765 kbps
Codec: FLAC
================================================================================

––––––––––––––––––––––––––––––––––––––––
Analyzed: Sly / Precious Stone - In The Studio With Sly Stone 1963-1965
––––––––––––––––––––––––––––––––––––––––

DR Peak RMS Duration Track
––––––––––––––––––––––––––––––––––––––––
DR11 -3.00 dB -15.39 dB 2:27 02-Scat Swim
DR12 0.00 dB -15.59 dB 3:09 05-Help Me With My Broken Heart
DR13 0.00 dB -15.68 dB 3:07 06-Out Of Sight
DR13 0.00 dB -17.14 dB 2:35 09-On Broadway
DR11 -2.00 dB -15.95 dB 2:33 10-Searchin'
DR12 -1.00 dB -15.83 dB 2:25 11-Lord, Lord
DR15 0.00 dB -16.37 dB 2:18 12-The Seventh Son
DR13 -3.00 dB -17.59 dB 2:14 17-Buttermilk (Part 1)
DR13 0.00 dB -16.72 dB 2:16 22-Temptation Walk
DR13 0.00 dB -14.58 dB 3:33 23-Underdog
DR13 0.00 dB -16.85 dB 1:33 28-Radio Spot
––––––––––––––––––––––––––––––––––––––––

Number of tracks: 11
Official DR value: DR13

Samplerate: 44100 Hz
Channels: 2
Bits per sample: 16
Bitrate: 765 kbps
Codec: FLAC
================================================================================

Thanks to Mike3

password: BlondStyle