Subcategories

V.A. - Red Room Chill Out Lounge (2009) (Repost)

Posted By: gribovar
V.A. - Red Room Chill Out Lounge (2009) (Repost)

V.A. - Red Room Chill Out Lounge (2009)
EAC Rip | FLAC (image+.cue+log) - 372 MB | MP3 CBR 320 kbps (LAME 3.93) - 145 MB | Covers (18 MB) included
Genre: Chillout, Downtempo | RAR 3% Rec. | Label: Seven Days Music (88697 59413 2)

Seven Days Music present Red Room Chill Out Lounge. Landscape, Il Silencio, Solar, Air Breeze, Giorgio Del, Carpe Diem and more.
Tracklist:
01. Landscape - Sunset Chill
02. Il Silencio - Laguna
03. Echo One - Pale Moon
04. Solar - Darkness
05. Melodica - Tranquility
06. Air Breeze - The Wind
07. Giorgio Del Mar - Heartbeat
08. Waterfall - La Gumera
09. Carpe Diem - Cool Reaction
10. Shadow Lounge - The Course Of The Day

Total time: 53:44

Exact Audio Copy V0.99 prebeta 4 from 23. January 2008

EAC extraction logfile from 6. November 2009, 22:51

Various / Red Room Chill Out Lounge

Used drive : PIONEER DVD-RW DVR-112D Adapter: 1 ID: 0

Read mode : Secure
Utilize accurate stream : Yes
Defeat audio cache : Yes
Make use of C2 pointers : No

Read offset correction : 48
Overread into Lead-In and Lead-Out : No
Fill up missing offset samples with silence : Yes
Delete leading and trailing silent blocks : No
Null samples used in CRC calculations : Yes
Used interface : Installed external ASPI interface

Used output format : User Defined Encoder
Selected bitrate : 192 kBit/s
Quality : Low
Add ID3 tag : Yes
Command line compressor : C:\Program Files\E A C Audio\Flac\flac.exe
Additional command line options : -V -8 -T "artist=%a" -T "title=%t" -T "album=%g" -T "date=%y" -T "tracknumber=%n" -T "genre=%m" %s


TOC of the extracted CD

Track | Start | Length | Start sector | End sector
––––––––––––––––––––––––––––-
1 | 0:00.00 | 5:35.25 | 0 | 25149
2 | 5:35.25 | 5:12.42 | 25150 | 48591
3 | 10:47.67 | 4:57.02 | 48592 | 70868
4 | 15:44.69 | 6:05.04 | 70869 | 98247
5 | 21:49.73 | 5:12.61 | 98248 | 121708
6 | 27:02.59 | 5:09.71 | 121709 | 144954
7 | 32:12.55 | 6:31.71 | 144955 | 174350
8 | 38:44.51 | 4:46.67 | 174351 | 195867
9 | 43:31.43 | 5:09.62 | 195868 | 219104
10 | 48:41.30 | 5:02.16 | 219105 | 241770


Range status and errors

Selected range

Filename G:\tvixhd1\_Various - Red Room Chill Out Lounge\Various - Red Room Chill Out Lounge.wav

Peak level 98.5 %
Range quality 99.9 %
Test CRC 67F2BE85
Copy CRC 67F2BE85
Copy OK

No errors occurred


AccurateRip summary

Track 1 not present in database
Track 2 not present in database
Track 3 not present in database
Track 4 not present in database
Track 5 not present in database
Track 6 not present in database
Track 7 not present in database
Track 8 not present in database
Track 9 not present in database
Track 10 not present in database

None of the tracks are present in the AccurateRip database

End of status report

[CUETools log; Date: 24.04.2018 11:04:33; Version: 2.1.4]
[CTDB TOCID: I2xBca6BSt62PPr0I5cqz4AOKzY-] found.
Track | CTDB Status
1 | (1/1) Accurately ripped
2 | (1/1) Accurately ripped
3 | (1/1) Accurately ripped
4 | (1/1) Accurately ripped
5 | (1/1) Accurately ripped
6 | (1/1) Accurately ripped
7 | (0/1) No match
8 | (1/1) Accurately ripped
9 | (1/1) Accurately ripped
10 | (1/1) Accurately ripped
[AccurateRip ID: 001474ca-00a3a22b-820c970a] disk not present in database.

Track Peak [ CRC32 ] [W/O NULL] [ LOG ]
– 98,5 [67F2BE85] [A26679C2] CRC32
01 98,4 [00562E80] [B34537EB]
02 98,4 [E1BE7E6A] [5C5378CF]
03 98,4 [09611D1C] [08D82538]
04 98,4 [2D936B31] [9A674FF3]
05 98,4 [0B401BA3] [4CC7282C]
06 98,4 [18C3D51F] [07DA0E67]
07 98,4 [0F07CED4] [C6E58D67]
08 98,5 [D1ABA58B] [9912AEF5]
09 98,4 [A111A518] [DA7AE261]
10 98,4 [CE4231D6] [1D356052]

Thanks to sklon

See also: