Subcategories
Tags
Language
Tags

V.A. - Rouge & Noir (1993)

Posted By: gribovar
V.A. - Rouge & Noir (1993)

V.A. - Rouge & Noir (1993)
EAC Rip | FLAC (image+.cue+log) - 369 MB | MP3 CBR 320 kbps (LAME 3.93) - 135 MB | Covers - 150 MB
Genre: New Age, Electronic | RAR 3% Rec. | Label: Innovative Communication (IC 2179-2)

Erotic music. Bodies in harmony. Red and Black. Songs for making love. Sexy music. Dangerous. Touch, feel, smell, demand. Explosive and senseous. Exploring the curves, following inner desires. Unreleased and remixed erotic songs by: Software, Megabyte, Dancing Fantasy, TeeKay, Blue Knights, etc.
Tracklist:
01. Megabyte - Electric Lover
02. Software - Rubber-Man
03. Passe Simple - Merciere Street
04. Interface - Virgin's Taste
05. Blue Knights - Vicious Love
06. Terry Marshall - Physical Sensation
07. Software - I Love You
08. Win Kowa - Body Glow
09. TeeKay - Hip Sextension
10. Software - My Echo
11. Dancing Fantasy - Point Blank
12. Freeze Frame - Where Are You
13. Software - Rouge & Noir

Total time: 57:17

Exact Audio Copy V1.5 from 20. February 2020

EAC extraction logfile from 31. October 2020, 17:49

Various Artists / Rouge&Noir

Used drive : TEAC CD-W540E Adapter: 1 ID: 0

Read mode : Secure
Utilize accurate stream : Yes
Defeat audio cache : Yes
Make use of C2 pointers : No

Read offset correction : 686
Overread into Lead-In and Lead-Out : No
Fill up missing offset samples with silence : Yes
Delete leading and trailing silent blocks : No
Null samples used in CRC calculations : Yes
Used interface : Native Win32 interface for Win NT & 2000

Used output format : User Defined Encoder
Selected bitrate : 896 kBit/s
Quality : High
Add ID3 tag : No
Command line compressor : C:\flac.exe
Additional command line options : -6 -V -T "ARTIST=%artist%" -T "TITLE=%title%" -T "ALBUM=%albumtitle%" -T "DATE=%year%" -T "TRACKNUMBER=%tracknr%" -T "GENRE=%genre%" -T "COMMENT=ripped by mag_vitaly" %source%


TOC of the extracted CD

Track | Start | Length | Start sector | End sector
––––––––––––––––––––––––––––-
1 | 0:00.00 | 4:29.62 | 0 | 20236
2 | 4:29.62 | 3:39.38 | 20237 | 36699
3 | 8:09.25 | 4:51.50 | 36700 | 58574
4 | 13:01.00 | 4:33.00 | 58575 | 79049
5 | 17:34.00 | 3:35.37 | 79050 | 95211
6 | 21:09.37 | 4:55.13 | 95212 | 117349
7 | 26:04.50 | 3:51.25 | 117350 | 134699
8 | 29:56.00 | 4:44.62 | 134700 | 156061
9 | 34:40.62 | 5:15.25 | 156062 | 179711
10 | 39:56.12 | 4:12.63 | 179712 | 198674
11 | 44:09.00 | 4:01.62 | 198675 | 216811
12 | 48:10.62 | 3:45.13 | 216812 | 233699
13 | 51:56.00 | 5:21.00 | 233700 | 257774


Range status and errors

Selected range

Filename C:\1993 - Erotic Music - Rouge&Noir - (#IC 2179-2)\Erotic Music - Rouge&Noir - (#IC 2179-2).wav

Peak level 95.5 %
Extraction speed 8.4 X
Range quality 100.0 %
Test CRC 7F3E74F2
Copy CRC 7F3E74F2
Copy OK

No errors occurred


AccurateRip summary

Track 1 accurately ripped (confidence 6) [517BBE0B] (AR v2)
Track 2 accurately ripped (confidence 6) [BDDA925F] (AR v2)
Track 3 accurately ripped (confidence 6) [A0EB9AD9] (AR v2)
Track 4 accurately ripped (confidence 6) [2508EEA8] (AR v2)
Track 5 accurately ripped (confidence 6) [FE8C202C] (AR v2)
Track 6 accurately ripped (confidence 6) [D5E4E6CE] (AR v2)
Track 7 accurately ripped (confidence 6) [1909BBB0] (AR v2)
Track 8 accurately ripped (confidence 6) [8A0CAAD7] (AR v2)
Track 9 accurately ripped (confidence 6) [DC342BAB] (AR v2)
Track 10 accurately ripped (confidence 6) [257AB706] (AR v2)
Track 11 accurately ripped (confidence 6) [4B326F47] (AR v2)
Track 12 accurately ripped (confidence 6) [7F222BD6] (AR v2)
Track 13 accurately ripped (confidence 5) [5FB20433] (AR v2)

All tracks accurately ripped

End of status report

==== Log checksum 3B29FBF1CFF72B60D7C5447D8BA282974578B90B33E352CC499D905C6BF43570 ====

[CUETools log; Date: 28.11.2020 16:15:52; Version: 2.1.4]
[CTDB TOCID: 12lW1C5jkyGry6atbubQ_B6FI9U-] found.
Track | CTDB Status
1 | (17/17) Accurately ripped
2 | (17/17) Accurately ripped
3 | (17/17) Accurately ripped
4 | (17/17) Accurately ripped
5 | (17/17) Accurately ripped
6 | (17/17) Accurately ripped
7 | (17/17) Accurately ripped
8 | (17/17) Accurately ripped
9 | (17/17) Accurately ripped
10 | (17/17) Accurately ripped
11 | (17/17) Accurately ripped
12 | (17/17) Accurately ripped
13 | (17/17) Accurately ripped
[AccurateRip ID: 001b3af0-0110ec24-c00d6d0d] found.
Track [ CRC | V2 ] Status
01 [c3b7da82|517bbe0b] (2+6/8) Accurately ripped
02 [afb7c2e5|bdda925f] (2+6/8) Accurately ripped
03 [5e31df9a|a0eb9ad9] (2+6/8) Accurately ripped
04 [85713b15|2508eea8] (2+6/8) Accurately ripped
05 [a7298e9b|fe8c202c] (2+6/8) Accurately ripped
06 [6ad459cd|d5e4e6ce] (2+6/8) Accurately ripped
07 [49bdc84d|1909bbb0] (2+6/8) Accurately ripped
08 [bf85daf2|8a0caad7] (2+6/8) Accurately ripped
09 [de2e39d2|dc342bab] (2+6/8) Accurately ripped
10 [cf2a78f3|257ab706] (2+6/8) Accurately ripped
11 [87b4c85b|4b326f47] (2+6/8) Accurately ripped
12 [74a2a4bc|7f222bd6] (2+6/8) Accurately ripped
13 [0b8fe816|5fb20433] (2+5/7) Accurately ripped
Offsetted by -98:
01 [6eacceb4] (0/8) No match
02 [459e736f] (0/8) No match
03 [94b32902] (0/8) No match (V2 was not tested)
04 [02114d01] (0/8) No match
05 [0b0c064f] (0/8) No match (V2 was not tested)
06 [fdd4bc73] (0/8) No match (V2 was not tested)
07 [e9591b1d] (0/8) No match
08 [8c79308a] (0/8) No match
09 [29f394e2] (0/8) No match
10 [62eae259] (0/8) No match (V2 was not tested)
11 [48f6147d] (0/8) No match (V2 was not tested)
12 [a35e26d6] (0/8) No match
13 [5fb1f2f2] (0/7) No match (V2 was not tested)

Track Peak [ CRC32 ] [W/O NULL] [ LOG ]
– 95,5 [7F3E74F2] [5570BA3C] CRC32
01 95,5 [92A6401D] [6C4F384A]
02 95,5 [8885159B] [58E844BA]
03 95,5 [496B165F] [9331D903]
04 95,5 [ECC9DD68] [7D3BD5B8]
05 95,5 [71DE855B] [9C22F61C]
06 95,5 [54680567] [A0544E48]
07 95,5 [2A5FA4B0] [9B8636FC]
08 95,5 [6F296F8B] [FC1B0836]
09 95,5 [7E71B6C5] [1F7E4861]
10 95,5 [5D72E44D] [00D6802D]
11 95,5 [870E6635] [061E75D3]
12 95,5 [F47FD01B] [F5A99E29]
13 95,5 [AF71E6D3] [7191D113]

Thanks to mag23847