Subcategories

V.A. - Simply Erotica [4CD Box Set] (2011)

Posted By: gribovar
V.A. - Simply Erotica [4CD Box Set] (2011)

V.A. - Simply Erotica [4CD Box Set] (2011)
EAC Rip | FLAC (tracks+.cue+log) - 1,56 GB | MP3 CBR 320 kbps (LAME 3.93) - 618 MB | Covers - 205 MB
Genre: Lounge, Chillout | RAR 3% Rec. | Label: Union Square Music (SIMPLYCD096)

Tonight is definitely the night, the mood and the company are just right. So, if you’ve lit the candles and poured the wine, all you need to do now is put on the exotic, passionate and intimate sounds of Simply Erotica and prepare to turn private fantasy into sensual reality.
CD 1 Tracklist (Come In For Coffee):
01. Eduardo Ferreira - New Rhythm
02. Porto Sound Station - Aeroporto De UFO
03. Cesar Romario - Cidade Maravilhosa
04. DJ Adriano - Neve Bolsa
05. Jordge Luciano - Partodo Tempo
06. Marco E Ricardo - Sister Framcisca
07. Marcos Jose - Viva Salvador
08. Rio Sound System - Over And Over
09. Marco E Ricardo - Iguacu Falls
10. Cesar Romario - Wild Pantanal
11. Eduardo Ferreira - Whitу Not
12. Porto Sound Station - Cidade Alta
13. Claudio Silva - Joao Pessoa
14. Jorge Luciano - Fogo Ilha
15. Dj Adriano - Paz Montanha

Total time: 01:06:45

CD 2 Tracklist (Dim The Lights):
01. The Left Knee - Fool Of Promise
02. Blue Run - Feels Right
03. Roberto Serrador - Look At Me
04. Brahma Singh - I Can Hear Your Heartbeat
05. Vijay Rhaman - Warmer
06. Limited Addiction Feat. Wayne Tennant - Save A Place
07. Nu Standart - Pink Sunset
08. Darling Android - The Groove
09. Ends Of The Spectrum - Swing Action
10. Hi Tension - Celestial Hotline
11. Verdict - Tender Keys

Total time: 01:05:20

CD 3 Tracklist (Boudoir Beats):
01. The Ice Network - See Each Other
02. Nishree Sound - Anticipation
03. Febre Dos Matos - Intimate Moment
04. Uru Mystic Quartet - After Hours
05. Maxi Project - Move With Me
06. Big Bang Theory - Delicious Fantasy
07. DJ Marcio - Down Time
08. Ends Of The Spectrum - Tease
09. Rio Sound System - No Going Back
10. Cheb Bin Hassan - Breathless
11. Jorge Luciano - Party Time
12. DJ Storm - The Garden Of Eden

Total time: 01:03:40

CD 4 Tracklist (Chillin'):
01. Jazz Urbaine - Love Theme From Blade Runner
02. Gentle Moon - Reminisce
03. Brahma Singh - Resting Place
04. Phoenix Project - Time Eternal
05. The Beat Soldiers - Reflections
06. Dream Orchestra - Real Vibrations
07. DJ Kasem - Touch The Stars
08. Chandra T - Human Synergy
09. Tranquil DJs - Skin
10. Mystic East - Destination: Sunset
11. Eskape - Afterglow

Total time: 01:06:27

Exact Audio Copy V1.0 beta 1 from 15. November 2010

EAC extraction logfile from 7. April 2012, 22:57

Various / CD1 - Come In For Coffee

Used drive : ASUS DRW-24B3ST Adapter: 3 ID: 0

Read mode : Secure
Utilize accurate stream : Yes
Defeat audio cache : Yes
Make use of C2 pointers : No

Read offset correction : 6
Overread into Lead-In and Lead-Out : No
Fill up missing offset samples with silence : Yes
Delete leading and trailing silent blocks : No
Null samples used in CRC calculations : Yes
Used interface : Native Win32 interface for Win NT & 2000
Gap handling : Appended to previous track

Used output format : User Defined Encoder
Selected bitrate : 1024 kBit/s
Quality : High
Add ID3 tag : No
Command line compressor : C:\Program Files\Exact Audio Copy\Flac\flac.exe
Additional command line options : -8 -V -T "ARTIST=%a" -T "TITLE=%t" -T "ALBUM=%g" -T "DATE=%y" -T "TRACKNUMBER=%n" -T "GENRE=%m" -T "COMMENT=ripped by Oleandris" %s


TOC of the extracted CD

Track | Start | Length | Start sector | End sector
––––––––––––––––––––––––––––-
1 | 0:00.00 | 4:43.46 | 0 | 21270
2 | 4:43.46 | 5:01.53 | 21271 | 43898
3 | 9:45.24 | 4:09.55 | 43899 | 62628
4 | 13:55.04 | 3:55.41 | 62629 | 80294
5 | 17:50.45 | 3:56.54 | 80295 | 98048
6 | 21:47.24 | 4:12.20 | 98049 | 116968
7 | 25:59.44 | 4:41.34 | 116969 | 138077
8 | 30:41.03 | 4:42.40 | 138078 | 159267
9 | 35:23.43 | 4:08.36 | 159268 | 177903
10 | 39:32.04 | 4:25.06 | 177904 | 197784
11 | 43:57.10 | 4:34.56 | 197785 | 218390
12 | 48:31.66 | 4:48.64 | 218391 | 240054
13 | 53:20.55 | 4:08.67 | 240055 | 258721
14 | 57:29.47 | 4:49.61 | 258722 | 280457
15 | 62:19.33 | 4:26.15 | 280458 | 300422


Track 1

Filename F:\ЗАГРУЗКИ\ Simply Erotica 4CD (2011)\CD1 - Come In For Coffee\01. Eduardo Ferreira - New Rhythm.wav

Pre-gap length 0:00:02.00

Peak level 98.2 %
Extraction speed 3.7 X
Track quality 100.0 %
Test CRC 5BD7A870
Copy CRC 5BD7A870
Track not present in AccurateRip database
Copy OK

Track 2

Filename F:\ЗАГРУЗКИ\ Simply Erotica 4CD (2011)\CD1 - Come In For Coffee\02. Porto Sound Station - Aeroporto De UFO.wav

Pre-gap length 0:00:02.62

Peak level 98.0 %
Extraction speed 4.2 X
Track quality 100.0 %
Test CRC 7B439ED3
Copy CRC 7B439ED3
Track not present in AccurateRip database
Copy OK

Track 3

Filename F:\ЗАГРУЗКИ\ Simply Erotica 4CD (2011)\CD1 - Come In For Coffee\03. Cesar Romario - Cidade Maravilhosa.wav

Pre-gap length 0:00:02.63

Peak level 67.0 %
Extraction speed 3.6 X
Track quality 99.9 %
Test CRC 5EC4FA9F
Copy CRC 5EC4FA9F
Track not present in AccurateRip database
Copy OK

Track 4

Filename F:\ЗАГРУЗКИ\ Simply Erotica 4CD (2011)\CD1 - Come In For Coffee\04. DJ Adriano - Neve Bolsa.wav

Pre-gap length 0:00:02.62

Peak level 98.0 %
Extraction speed 4.9 X
Track quality 100.0 %
Test CRC CC7DED76
Copy CRC CC7DED76
Track not present in AccurateRip database
Copy OK

Track 5

Filename F:\ЗАГРУЗКИ\ Simply Erotica 4CD (2011)\CD1 - Come In For Coffee\05. Jordge Luciano - Partodo Tempo.wav

Pre-gap length 0:00:02.62

Peak level 95.0 %
Extraction speed 5.1 X
Track quality 100.0 %
Test CRC 006EC521
Copy CRC 006EC521
Track not present in AccurateRip database
Copy OK

Track 6

Filename F:\ЗАГРУЗКИ\ Simply Erotica 4CD (2011)\CD1 - Come In For Coffee\06. Marco У Ricardo - Sister Framcisca.wav

Pre-gap length 0:00:02.62

Peak level 97.8 %
Extraction speed 5.4 X
Track quality 100.0 %
Test CRC 143462FE
Copy CRC 143462FE
Track not present in AccurateRip database
Copy OK

Track 7

Filename F:\ЗАГРУЗКИ\ Simply Erotica 4CD (2011)\CD1 - Come In For Coffee\07. Marcos Jose - Viva Salvador.wav

Pre-gap length 0:00:02.63

Peak level 97.6 %
Extraction speed 5.8 X
Track quality 100.0 %
Test CRC 5DC5D203
Copy CRC 5DC5D203
Track not present in AccurateRip database
Copy OK

Track 8

Filename F:\ЗАГРУЗКИ\ Simply Erotica 4CD (2011)\CD1 - Come In For Coffee\08. Rio Sound System - Over And Over.wav

Pre-gap length 0:00:02.62

Peak level 98.0 %
Extraction speed 6.1 X
Track quality 100.0 %
Test CRC 7C65B2AC
Copy CRC 7C65B2AC
Track not present in AccurateRip database
Copy OK

Track 9

Filename F:\ЗАГРУЗКИ\ Simply Erotica 4CD (2011)\CD1 - Come In For Coffee\09. Marco У Ricardo - Iguacu Falls.wav

Pre-gap length 0:00:02.62

Peak level 97.1 %
Extraction speed 6.2 X
Track quality 100.0 %
Test CRC 52A4ADD3
Copy CRC 52A4ADD3
Track not present in AccurateRip database
Copy OK

Track 10

Filename F:\ЗАГРУЗКИ\ Simply Erotica 4CD (2011)\CD1 - Come In For Coffee\10. Cesar Romario - Wild Pantanal.wav

Pre-gap length 0:00:02.62

Peak level 98.2 %
Extraction speed 6.6 X
Track quality 100.0 %
Test CRC 48FA39FD
Copy CRC 48FA39FD
Track not present in AccurateRip database
Copy OK

Track 11

Filename F:\ЗАГРУЗКИ\ Simply Erotica 4CD (2011)\CD1 - Come In For Coffee\11. Eduardo Ferreira - Whitу Not.wav

Pre-gap length 0:00:02.62

Peak level 98.2 %
Extraction speed 6.8 X
Track quality 100.0 %
Test CRC EF4EBB79
Copy CRC EF4EBB79
Track not present in AccurateRip database
Copy OK

Track 12

Filename F:\ЗАГРУЗКИ\ Simply Erotica 4CD (2011)\CD1 - Come In For Coffee\12. Porto Sound Station - Cidade Alta.wav

Pre-gap length 0:00:02.62

Peak level 98.1 %
Extraction speed 7.1 X
Track quality 100.0 %
Test CRC 5ED5F4B1
Copy CRC 5ED5F4B1
Track not present in AccurateRip database
Copy OK

Track 13

Filename F:\ЗАГРУЗКИ\ Simply Erotica 4CD (2011)\CD1 - Come In For Coffee\13. Claudio Silva - Joao Pessoa.wav

Pre-gap length 0:00:02.62

Peak level 98.2 %
Extraction speed 7.2 X
Track quality 100.0 %
Test CRC 25C83E66
Copy CRC 25C83E66
Track not present in AccurateRip database
Copy OK

Track 14

Filename F:\ЗАГРУЗКИ\ Simply Erotica 4CD (2011)\CD1 - Come In For Coffee\14. Jorge Luciano - Fogo Ilha.wav

Pre-gap length 0:00:02.62

Peak level 98.2 %
Extraction speed 7.6 X
Track quality 100.0 %
Test CRC A65152D9
Copy CRC A65152D9
Track not present in AccurateRip database
Copy OK

Track 15

Filename F:\ЗАГРУЗКИ\ Simply Erotica 4CD (2011)\CD1 - Come In For Coffee\15. Dj Adriano - Paz Montanha.wav

Pre-gap length 0:00:02.62

Peak level 98.5 %
Extraction speed 7.7 X
Track quality 100.0 %
Test CRC 3E2D2A2F
Copy CRC 3E2D2A2F
Track not present in AccurateRip database
Copy OK


None of the tracks are present in the AccurateRip database

No errors occurred

End of status report

==== Log checksum D9790C9130721E454D50825542329F09F7C825F97591CD279B6605FA6B1C53F6 ====

[CUETools log; Date: 18.09.2019 13:57:09; Version: 2.1.4]
[CTDB TOCID: CUt0gOPGmOWAI2jT5GfdBSV1rn8-] found.
Track | CTDB Status
1 | (7/7) Accurately ripped
2 | (7/7) Accurately ripped
3 | (7/7) Accurately ripped
4 | (7/7) Accurately ripped
5 | (7/7) Accurately ripped
6 | (7/7) Accurately ripped
7 | (7/7) Accurately ripped
8 | (7/7) Accurately ripped
9 | (7/7) Accurately ripped
10 | (7/7) Accurately ripped
11 | (7/7) Accurately ripped
12 | (7/7) Accurately ripped
13 | (7/7) Accurately ripped
14 | (7/7) Accurately ripped
15 | (7/7) Accurately ripped
[AccurateRip ID: 00248854-019d8fc4-cb0fa50f] found.
Track [ CRC | V2 ] Status
01 [2fdfad82|035b0fd1] (0+3/3) Accurately ripped
02 [921c37ad|867d03a4] (0+3/3) Accurately ripped
03 [cbaa4586|f4137c95] (0+3/3) Accurately ripped
04 [87260dd2|3b00e497] (0+3/3) Accurately ripped
05 [0a34fe8f|024b5740] (0+3/3) Accurately ripped
06 [dd9c6dc7|adfa82e1] (0+3/3) Accurately ripped
07 [342b5319|3a8f2dd9] (0+3/3) Accurately ripped
08 [7e12081c|43652dd8] (0+3/3) Accurately ripped
09 [eeb80f66|63c82275] (0+3/3) Accurately ripped
10 [806cbdc3|3296bdde] (0+3/3) Accurately ripped
11 [b4636884|6abdf160] (0+3/3) Accurately ripped
12 [ea3f04de|c90c9f63] (0+3/3) Accurately ripped
13 [17675832|ab0cb8ff] (0+3/3) Accurately ripped
14 [1a1300dd|c8e3d5bb] (0+3/3) Accurately ripped
15 [e55c5512|dd74deef] (0+3/3) Accurately ripped

Track Peak [ CRC32 ] [W/O NULL] [ LOG ]
– 98,5 [2214FBD3] [A13D54BB]
01 98,2 [5BD7A870] [E0E2B75F] CRC32
02 98,0 [7B439ED3] [32859C62] CRC32
03 67,0 [5EC4FA9F] [B985B1EE] CRC32
04 98,0 [CC7DED76] [E948CA62] CRC32
05 95,0 [006EC521] [77B5F657] CRC32
06 97,8 [143462FE] [981DD7AD] CRC32
07 97,6 [5DC5D203] [7638B5FC] CRC32
08 98,0 [7C65B2AC] [C4A8E66B] CRC32
09 97,1 [52A4ADD3] [E1D267BA] CRC32
10 98,2 [48FA39FD] [93E781CA] CRC32
11 98,2 [EF4EBB79] [AE34214A] CRC32
12 98,1 [5ED5F4B1] [A33046FD] CRC32
13 98,2 [25C83E66] [761EC4EE] CRC32
14 98,2 [A65152D9] [138F5451] CRC32
15 98,5 [3E2D2A2F] [A6D51582] CRC32

Exact Audio Copy V1.0 beta 1 from 15. November 2010

EAC extraction logfile from 8. April 2012, 0:55

Various / CD2 - Dim The Lights

Used drive : PLEXTOR DVDR PX-L890SA Adapter: 5 ID: 0

Read mode : Secure
Utilize accurate stream : Yes
Defeat audio cache : Yes
Make use of C2 pointers : No

Read offset correction : 6
Overread into Lead-In and Lead-Out : No
Fill up missing offset samples with silence : Yes
Delete leading and trailing silent blocks : No
Null samples used in CRC calculations : Yes
Used interface : Native Win32 interface for Win NT & 2000
Gap handling : Appended to previous track

Used output format : User Defined Encoder
Selected bitrate : 1024 kBit/s
Quality : High
Add ID3 tag : No
Command line compressor : C:\Program Files\Exact Audio Copy\Flac\flac.exe
Additional command line options : -8 -V -T "ARTIST=%a" -T "TITLE=%t" -T "ALBUM=%g" -T "DATE=%y" -T "TRACKNUMBER=%n" -T "GENRE=%m" -T "COMMENT=ripped by Oleandris" %s


TOC of the extracted CD

Track | Start | Length | Start sector | End sector
––––––––––––––––––––––––––––-
1 | 0:00.00 | 6:04.49 | 0 | 27348
2 | 6:04.49 | 6:00.55 | 27349 | 54403
3 | 12:05.29 | 4:20.42 | 54404 | 73945
4 | 16:25.71 | 6:14.65 | 73946 | 102060
5 | 22:40.61 | 4:41.34 | 102061 | 123169
6 | 27:22.20 | 6:09.64 | 123170 | 150908
7 | 33:32.09 | 6:09.10 | 150909 | 178593
8 | 39:41.19 | 5:51.24 | 178594 | 204942
9 | 45:32.43 | 7:11.61 | 204943 | 237328
10 | 52:44.29 | 6:03.70 | 237329 | 264623
11 | 58:48.24 | 6:32.03 | 264624 | 294026


Track 1

Filename F:\ЗАГРУЗКИ\ Simply Erotica 4CD (2011)\CD2 - Dim The Lights\01. The Left Knee - Fool Of Promise.wav

Pre-gap length 0:00:02.00

Peak level 91.3 %
Extraction speed 3.9 X
Track quality 100.0 %
Test CRC B9947CE6
Copy CRC B9947CE6
Track not present in AccurateRip database
Copy OK

Track 2

Filename F:\ЗАГРУЗКИ\ Simply Erotica 4CD (2011)\CD2 - Dim The Lights\02. Blue Run - Feels Right.wav

Pre-gap length 0:00:02.62

Peak level 75.8 %
Extraction speed 4.5 X
Track quality 100.0 %
Test CRC 9CB0E3A7
Copy CRC 9CB0E3A7
Track not present in AccurateRip database
Copy OK

Track 3

Filename F:\ЗАГРУЗКИ\ Simply Erotica 4CD (2011)\CD2 - Dim The Lights\03. Roberto Serrador - Look At Me.wav

Pre-gap length 0:00:02.62

Peak level 98.2 %
Extraction speed 4.8 X
Track quality 100.0 %
Test CRC AEC2B340
Copy CRC AEC2B340
Track not present in AccurateRip database
Copy OK

Track 4

Filename F:\ЗАГРУЗКИ\ Simply Erotica 4CD (2011)\CD2 - Dim The Lights\04. Brahma Singh - I Can Hear Your Heartbeat.wav

Pre-gap length 0:00:02.62

Peak level 98.2 %
Extraction speed 5.4 X
Track quality 100.0 %
Test CRC BDCADD76
Copy CRC BDCADD76
Track not present in AccurateRip database
Copy OK

Track 5

Filename F:\ЗАГРУЗКИ\ Simply Erotica 4CD (2011)\CD2 - Dim The Lights\05. Vijay Rhaman - Warmer.wav

Pre-gap length 0:00:02.62

Peak level 95.0 %
Extraction speed 5.6 X
Track quality 100.0 %
Test CRC B513EE19
Copy CRC B513EE19
Track not present in AccurateRip database
Copy OK

Track 6

Filename F:\ЗАГРУЗКИ\ Simply Erotica 4CD (2011)\CD2 - Dim The Lights\06. Limited Addiction Feat. Wayne Tennant - Save A Place.wav

Pre-gap length 0:00:02.62

Peak level 69.2 %
Extraction speed 6.1 X
Track quality 100.0 %
Test CRC C107DE7B
Copy CRC C107DE7B
Track not present in AccurateRip database
Copy OK

Track 7

Filename F:\ЗАГРУЗКИ\ Simply Erotica 4CD (2011)\CD2 - Dim The Lights\07. Nu Standart - Pink Sunset.wav

Pre-gap length 0:00:02.62

Peak level 78.2 %
Extraction speed 6.5 X
Track quality 100.0 %
Test CRC 29CDB773
Copy CRC 29CDB773
Track not present in AccurateRip database
Copy OK

Track 8

Filename F:\ЗАГРУЗКИ\ Simply Erotica 4CD (2011)\CD2 - Dim The Lights\08. Darling Android - The Groove.wav

Pre-gap length 0:00:02.06

Peak level 70.9 %
Extraction speed 5.8 X
Track quality 99.9 %
Test CRC CF309263
Copy CRC CF309263
Track not present in AccurateRip database
Copy OK

Track 9

Filename F:\ЗАГРУЗКИ\ Simply Erotica 4CD (2011)\CD2 - Dim The Lights\09. Ends Of The Spectrum - Swing Action.wav

Pre-gap length 0:00:02.38

Peak level 95.9 %
Extraction speed 7.4 X
Track quality 100.0 %
Test CRC DD70676A
Copy CRC DD70676A
Track not present in AccurateRip database
Copy OK

Track 10

Filename F:\ЗАГРУЗКИ\ Simply Erotica 4CD (2011)\CD2 - Dim The Lights\10. Hi Tension - Celestial Hotline.wav

Pre-gap length 0:00:02.62

Peak level 85.8 %
Extraction speed 6.4 X
Track quality 99.9 %
Test CRC FF94E5A5
Copy CRC FF94E5A5
Track not present in AccurateRip database
Copy OK

Track 11

Filename F:\ЗАГРУЗКИ\ Simply Erotica 4CD (2011)\CD2 - Dim The Lights\11. Verdict - Tender Keys.wav

Pre-gap length 0:00:02.62

Peak level 65.9 %
Extraction speed 7.9 X
Track quality 100.0 %
Test CRC 05D15E33
Copy CRC 05D15E33
Track not present in AccurateRip database
Copy OK


None of the tracks are present in the AccurateRip database

No errors occurred

End of status report

==== Log checksum C6D21B139C89A05FF6D8A25C53604F4D47664D163816772E7A7239611D7EAE8F ====

[CUETools log; Date: 18.09.2019 14:00:02; Version: 2.1.4]
[CTDB TOCID: 4uTGxj_voDC8m4qpsHUJT4Cj.dY-] found.
Track | CTDB Status
1 | (6/6) Accurately ripped
2 | (6/6) Accurately ripped
3 | (6/6) Accurately ripped
4 | (6/6) Accurately ripped
5 | (6/6) Accurately ripped
6 | (6/6) Accurately ripped
7 | (6/6) Accurately ripped
8 | (6/6) Accurately ripped
9 | (6/6) Accurately ripped
10 | (6/6) Accurately ripped
11 | (6/6) Accurately ripped
[AccurateRip ID: 001a1cfc-00e36f0c-960f500b] found.
Track [ CRC | V2 ] Status
01 [b7e6c312|6b74e2c7] (0+4/4) Accurately ripped
02 [602167d3|ec37079a] (0+4/4) Accurately ripped
03 [9f13ad4c|1b5aae1d] (0+4/4) Accurately ripped
04 [043ec230|957831c0] (0+4/4) Accurately ripped
05 [859dff90|2193f596] (0+4/4) Accurately ripped
06 [2740935c|ac766a01] (0+4/4) Accurately ripped
07 [839f836d|bee098fa] (0+4/4) Accurately ripped
08 [235883c6|0a18ed7c] (0+4/4) Accurately ripped
09 [425182da|3e4ab33f] (0+4/4) Accurately ripped
10 [dbc504e1|ddf2f00d] (0+4/4) Accurately ripped
11 [e63ab7c8|b53376d6] (0+4/4) Accurately ripped

Track Peak [ CRC32 ] [W/O NULL] [ LOG ]
– 98,2 [67E34DD4] [E81C48E5]
01 91,3 [B9947CE6] [51ECC040] CRC32
02 75,8 [9CB0E3A7] [817A8F38] CRC32
03 98,2 [AEC2B340] [E1513351] CRC32
04 98,2 [BDCADD76] [C172CB98] CRC32
05 95,0 [B513EE19] [F20795CB] CRC32
06 69,2 [C107DE7B] [611F7B0A] CRC32
07 78,2 [29CDB773] [5E28AE3C] CRC32
08 70,9 [CF309263] [A75A7B3E] CRC32
09 95,9 [DD70676A] [E77E41D8] CRC32
10 85,8 [FF94E5A5] [844E38E5] CRC32
11 65,9 [05D15E33] [276981F9] CRC32

Exact Audio Copy V1.0 beta 1 from 15. November 2010

EAC extraction logfile from 8. April 2012, 22:47

Various / CD3 - Boudoir Beats

Used drive : ASUS DRW-24B3ST Adapter: 3 ID: 0

Read mode : Secure
Utilize accurate stream : Yes
Defeat audio cache : Yes
Make use of C2 pointers : No

Read offset correction : 6
Overread into Lead-In and Lead-Out : No
Fill up missing offset samples with silence : Yes
Delete leading and trailing silent blocks : No
Null samples used in CRC calculations : Yes
Used interface : Native Win32 interface for Win NT & 2000
Gap handling : Appended to previous track

Used output format : User Defined Encoder
Selected bitrate : 1024 kBit/s
Quality : High
Add ID3 tag : No
Command line compressor : C:\Program Files\Exact Audio Copy\Flac\flac.exe
Additional command line options : -8 -V -T "ARTIST=%a" -T "TITLE=%t" -T "ALBUM=%g" -T "DATE=%y" -T "TRACKNUMBER=%n" -T "GENRE=%m" -T "COMMENT=ripped by Oleandris" %s


TOC of the extracted CD

Track | Start | Length | Start sector | End sector
––––––––––––––––––––––––––––-
1 | 0:00.00 | 5:53.67 | 0 | 26541
2 | 5:53.67 | 5:10.59 | 26542 | 49850
3 | 11:04.51 | 4:56.69 | 49851 | 72119
4 | 16:01.45 | 5:26.58 | 72120 | 96627
5 | 21:28.28 | 4:28.38 | 96628 | 116765
6 | 25:56.66 | 5:57.58 | 116766 | 143598
7 | 31:54.49 | 6:49.40 | 143599 | 174313
8 | 38:44.14 | 5:44.46 | 174314 | 200159
9 | 44:28.60 | 4:30.27 | 200160 | 220436
10 | 48:59.12 | 4:21.66 | 220437 | 240077
11 | 53:21.03 | 5:46.26 | 240078 | 266053
12 | 59:07.29 | 4:33.22 | 266054 | 286550


Track 1

Filename F:\ЗАГРУЗКИ\ Simply Erotica 4CD (2011)\CD3 - Boudoir Beats\01. The Ice Network - See Each Other.wav

Pre-gap length 0:00:02.00

Peak level 98.2 %
Extraction speed 3.9 X
Track quality 100.0 %
Test CRC 0C5B3ACB
Copy CRC 0C5B3ACB
Track not present in AccurateRip database
Copy OK

Track 2

Filename F:\ЗАГРУЗКИ\ Simply Erotica 4CD (2011)\CD3 - Boudoir Beats\02. Nishree Sound - Anticipation.wav

Pre-gap length 0:00:01.62

Peak level 98.2 %
Extraction speed 3.6 X
Track quality 99.9 %
Test CRC 5F43499C
Copy CRC 5F43499C
Track not present in AccurateRip database
Copy OK

Track 3

Filename F:\ЗАГРУЗКИ\ Simply Erotica 4CD (2011)\CD3 - Boudoir Beats\03. Febre Dos Matos - Intimate Moment.wav

Pre-gap length 0:00:01.62

Peak level 98.3 %
Extraction speed 4.8 X
Track quality 100.0 %
Test CRC 02DC4784
Copy CRC 02DC4784
Track not present in AccurateRip database
Copy OK

Track 4

Filename F:\ЗАГРУЗКИ\ Simply Erotica 4CD (2011)\CD3 - Boudoir Beats\04. Uru Mystic Quartet - After Hours.wav

Pre-gap length 0:00:01.36

Peak level 94.9 %
Extraction speed 4.4 X
Track quality 99.9 %
Test CRC 6DC47574
Copy CRC 6DC47574
Track not present in AccurateRip database
Copy OK

Track 5

Filename F:\ЗАГРУЗКИ\ Simply Erotica 4CD (2011)\CD3 - Boudoir Beats\05. Maxi Project - Move With Me.wav

Pre-gap length 0:00:02.13

Peak level 94.4 %
Extraction speed 5.5 X
Track quality 100.0 %
Test CRC FBF7492D
Copy CRC FBF7492D
Track not present in AccurateRip database
Copy OK

Track 6

Filename F:\ЗАГРУЗКИ\ Simply Erotica 4CD (2011)\CD3 - Boudoir Beats\06. Big Bang Theory - Delicious Fantasy.wav

Pre-gap length 0:00:01.35

Peak level 92.7 %
Extraction speed 6.0 X
Track quality 100.0 %
Test CRC EFB94492
Copy CRC EFB94492
Track not present in AccurateRip database
Copy OK

Track 7

Filename F:\ЗАГРУЗКИ\ Simply Erotica 4CD (2011)\CD3 - Boudoir Beats\07. DJ Marcio - Down Time.wav

Pre-gap length 0:00:02.21

Peak level 94.6 %
Extraction speed 6.5 X
Track quality 100.0 %
Test CRC EC28E7D9
Copy CRC EC28E7D9
Track not present in AccurateRip database
Copy OK

Track 8

Filename F:\ЗАГРУЗКИ\ Simply Erotica 4CD (2011)\CD3 - Boudoir Beats\08. Ends Of The Spectrum - Tease.wav

Pre-gap length 0:00:01.62

Peak level 88.2 %
Extraction speed 6.7 X
Track quality 100.0 %
Test CRC 5E34E368
Copy CRC 5E34E368
Track not present in AccurateRip database
Copy OK

Track 9

Filename F:\ЗАГРУЗКИ\ Simply Erotica 4CD (2011)\CD3 - Boudoir Beats\09. Rio Sound System - No Going Back.wav

Pre-gap length 0:00:01.62

Peak level 98.2 %
Extraction speed 6.8 X
Track quality 100.0 %
Test CRC 404CC779
Copy CRC 404CC779
Track not present in AccurateRip database
Copy OK

Track 10

Filename F:\ЗАГРУЗКИ\ Simply Erotica 4CD (2011)\CD3 - Boudoir Beats\10. Cheb Bin Hassan - Breathless.wav

Pre-gap length 0:00:01.62

Peak level 98.2 %
Extraction speed 7.0 X
Track quality 100.0 %
Test CRC 0BB1E142
Copy CRC 0BB1E142
Track not present in AccurateRip database
Copy OK

Track 11

Filename F:\ЗАГРУЗКИ\ Simply Erotica 4CD (2011)\CD3 - Boudoir Beats\11. Jorge Luciano - Party Time.wav

Pre-gap length 0:00:01.62

Peak level 98.2 %
Extraction speed 6.3 X
Track quality 99.9 %
Test CRC E2556FBD
Copy CRC E2556FBD
Track not present in AccurateRip database
Copy OK

Track 12

Filename F:\ЗАГРУЗКИ\ Simply Erotica 4CD (2011)\CD3 - Boudoir Beats\12. DJ Storm - The Garden Of Eden.wav

Pre-gap length 0:00:01.62

Peak level 98.9 %
Extraction speed 6.0 X
Track quality 99.9 %
Test CRC 47CEA997
Copy CRC 47CEA997
Track not present in AccurateRip database
Copy OK


None of the tracks are present in the AccurateRip database

No errors occurred

End of status report

==== Log checksum 28405D2624FCF55B9158BA86B21EE207ADDAE2F336E180A8F0134902A67DB62F ====

[CUETools log; Date: 18.09.2019 14:00:27; Version: 2.1.4]
[CTDB TOCID: TX2Lc4s6QgxRDiOtYHGTJCft.I8-] found.
Track | CTDB Status
1 | (7/7) Accurately ripped
2 | (7/7) Accurately ripped
3 | (7/7) Accurately ripped
4 | (7/7) Accurately ripped
5 | (7/7) Accurately ripped
6 | (7/7) Accurately ripped
7 | (7/7) Accurately ripped
8 | (7/7) Accurately ripped
9 | (7/7) Accurately ripped
10 | (7/7) Accurately ripped
11 | (7/7) Accurately ripped
12 | (7/7) Accurately ripped
[AccurateRip ID: 001ce2ec-010d267e-ac0eec0c] found.
Track [ CRC | V2 ] Status
01 [5f95fbb1|c3fc8b4d] (0+3/3) Accurately ripped
02 [7cc7ea2a|b79e8386] (0+3/3) Accurately ripped
03 [bf9b3e4a|f08b834b] (0+3/3) Accurately ripped
04 [ba459e55|8f61c462] (0+3/3) Accurately ripped
05 [10bc9f16|e2ef7f3d] (0+3/3) Accurately ripped
06 [22427eda|e7a64d7b] (0+3/3) Accurately ripped
07 [a6389565|95848d92] (0+3/3) Accurately ripped
08 [c9be764a|d583d9ac] (0+3/3) Accurately ripped
09 [ccf23651|359ee4dd] (0+3/3) Accurately ripped
10 [ffdf7463|5d60cb30] (0+3/3) Accurately ripped
11 [b1f763ce|33eacbd0] (0+3/3) Accurately ripped
12 [1336861e|ae021d1c] (0+3/3) Accurately ripped

Track Peak [ CRC32 ] [W/O NULL] [ LOG ]
– 98,9 [01956B26] [439C3A00]
01 98,2 [0C5B3ACB] [8C1DA09F] CRC32
02 98,2 [5F43499C] [15464E9A] CRC32
03 98,3 [02DC4784] [39232FC8] CRC32
04 94,9 [6DC47574] [3DDAA7F3] CRC32
05 94,4 [FBF7492D] [6CB7C0D6] CRC32
06 92,7 [EFB94492] [4E6698E6] CRC32
07 94,5 [EC28E7D9] [1C0E4CE8] CRC32
08 88,2 [5E34E368] [C710C4C4] CRC32
09 98,2 [404CC779] [14F1F740] CRC32
10 98,2 [0BB1E142] [06CE8B68] CRC32
11 98,2 [E2556FBD] [EC624D9B] CRC32
12 98,9 [47CEA997] [5F4692BE] CRC32

Exact Audio Copy V1.0 beta 1 from 15. November 2010

EAC extraction logfile from 8. April 2012, 23:17

Various / CD4 - Chillin'

Used drive : PLEXTOR DVDR PX-L890SA Adapter: 5 ID: 0

Read mode : Secure
Utilize accurate stream : Yes
Defeat audio cache : Yes
Make use of C2 pointers : No

Read offset correction : 6
Overread into Lead-In and Lead-Out : No
Fill up missing offset samples with silence : Yes
Delete leading and trailing silent blocks : No
Null samples used in CRC calculations : Yes
Used interface : Native Win32 interface for Win NT & 2000
Gap handling : Appended to previous track

Used output format : User Defined Encoder
Selected bitrate : 1024 kBit/s
Quality : High
Add ID3 tag : No
Command line compressor : C:\Program Files\Exact Audio Copy\Flac\flac.exe
Additional command line options : -8 -V -T "ARTIST=%a" -T "TITLE=%t" -T "ALBUM=%g" -T "DATE=%y" -T "TRACKNUMBER=%n" -T "GENRE=%m" -T "COMMENT=ripped by Oleandris" %s


TOC of the extracted CD

Track | Start | Length | Start sector | End sector
––––––––––––––––––––––––––––-
1 | 0:00.00 | 3:59.67 | 0 | 17991
2 | 3:59.67 | 6:01.52 | 17992 | 45118
3 | 10:01.44 | 6:14.01 | 45119 | 73169
4 | 16:15.45 | 6:10.72 | 73170 | 100991
5 | 22:26.42 | 7:00.49 | 100992 | 132540
6 | 29:27.16 | 6:10.31 | 132541 | 160321
7 | 35:37.47 | 6:10.51 | 160322 | 188122
8 | 41:48.23 | 6:32.59 | 188123 | 217581
9 | 48:21.07 | 5:38.59 | 217582 | 242990
10 | 53:59.66 | 6:10.04 | 242991 | 270744
11 | 60:09.70 | 6:17.41 | 270745 | 299060


Track 1

Filename F:\ЗАГРУЗКИ\ Simply Erotica 4CD (2011)\CD4 - Chillin'\01. Jazz Urbaine - Love Theme From Blade Runner.wav

Pre-gap length 0:00:02.00

Peak level 94.6 %
Extraction speed 1.9 X
Track quality 100.0 %
Test CRC 7205E6F4
Copy CRC 7205E6F4
Track not present in AccurateRip database
Copy OK

Track 2

Filename F:\ЗАГРУЗКИ\ Simply Erotica 4CD (2011)\CD4 - Chillin'\02. Gentle Moon - Reminisce.wav

Pre-gap length 0:00:02.62

Peak level 98.2 %
Extraction speed 2.3 X
Track quality 100.0 %
Test CRC 8AF66CB2
Copy CRC 8AF66CB2
Track not present in AccurateRip database
Copy OK

Track 3

Filename F:\ЗАГРУЗКИ\ Simply Erotica 4CD (2011)\CD4 - Chillin'\03. Brahma Singh - Resting Place.wav

Pre-gap length 0:00:02.62

Peak level 97.9 %
Extraction speed 2.6 X
Track quality 100.0 %
Test CRC 2379B9CF
Copy CRC 2379B9CF
Track not present in AccurateRip database
Copy OK

Track 4

Filename F:\ЗАГРУЗКИ\ Simply Erotica 4CD (2011)\CD4 - Chillin'\04. Phoenix Project - Time Eternal.wav

Pre-gap length 0:00:02.62

Peak level 97.5 %
Extraction speed 2.8 X
Track quality 100.0 %
Test CRC 4630A69B
Copy CRC 4630A69B
Track not present in AccurateRip database
Copy OK

Track 5

Filename F:\ЗАГРУЗКИ\ Simply Erotica 4CD (2011)\CD4 - Chillin'\05. The Beat Soldiers - Reflections.wav

Pre-gap length 0:00:02.62

Peak level 71.8 %
Extraction speed 3.1 X
Track quality 100.0 %
Test CRC 939EDE34
Copy CRC 939EDE34
Track not present in AccurateRip database
Copy OK

Track 6

Filename F:\ЗАГРУЗКИ\ Simply Erotica 4CD (2011)\CD4 - Chillin'\06. Dream Orchestra - Real Vibrations.wav

Pre-gap length 0:00:02.62

Peak level 98.2 %
Extraction speed 3.3 X
Track quality 100.0 %
Test CRC A0D332A3
Copy CRC A0D332A3
Track not present in AccurateRip database
Copy OK

Track 7

Filename F:\ЗАГРУЗКИ\ Simply Erotica 4CD (2011)\CD4 - Chillin'\07. DJ Kasem - Touch The Stars.wav

Pre-gap length 0:00:02.62

Peak level 98.2 %
Extraction speed 3.5 X
Track quality 100.0 %
Test CRC D146441D
Copy CRC D146441D
Track not present in AccurateRip database
Copy OK

Track 8

Filename F:\ЗАГРУЗКИ\ Simply Erotica 4CD (2011)\CD4 - Chillin'\08. Chandra T - Human Synergy.wav

Pre-gap length 0:00:02.62

Peak level 97.9 %
Extraction speed 3.7 X
Track quality 100.0 %
Test CRC 5A1B7576
Copy CRC 5A1B7576
Track not present in AccurateRip database
Copy OK

Track 9

Filename F:\ЗАГРУЗКИ\ Simply Erotica 4CD (2011)\CD4 - Chillin'\09. Tranquil DJs - Skin.wav

Pre-gap length 0:00:02.62

Peak level 98.5 %
Extraction speed 3.9 X
Track quality 100.0 %
Test CRC D77E577A
Copy CRC D77E577A
Track not present in AccurateRip database
Copy OK

Track 10

Filename F:\ЗАГРУЗКИ\ Simply Erotica 4CD (2011)\CD4 - Chillin'\10. Mystic East - Destination- Sunset.wav

Pre-gap length 0:00:02.62

Peak level 98.2 %
Extraction speed 4.1 X
Track quality 100.0 %
Test CRC 3639F30C
Copy CRC 3639F30C
Track not present in AccurateRip database
Copy OK

Track 11

Filename F:\ЗАГРУЗКИ\ Simply Erotica 4CD (2011)\CD4 - Chillin'\11. Eskape - Afterglow.wav

Pre-gap length 0:00:02.62

Peak level 94.2 %
Extraction speed 2.7 X
Track quality 99.9 %
Test CRC AA20290B
Copy CRC AA20290B
Track not present in AccurateRip database
Copy OK


None of the tracks are present in the AccurateRip database

No errors occurred

End of status report

==== Log checksum 1AF4B0216FD589148F63071519244E3121CFCC9CE2F13109B7CC5CDFABAEA861 ====

[CUETools log; Date: 18.09.2019 14:01:05; Version: 2.1.4]
[CTDB TOCID: oLjeJ3DeNWM6BkfeUhyeCMX_TQI-] found.
Track | CTDB Status
1 | (7/8) Accurately ripped
2 | (7/8) Accurately ripped
3 | (7/8) Accurately ripped
4 | (7/8) Accurately ripped
5 | (7/8) Accurately ripped
6 | (7/8) Accurately ripped
7 | (7/8) Accurately ripped
8 | (7/8) Accurately ripped
9 | (7/8) Accurately ripped
10 | (7/8) Accurately ripped
11 | (7/8) Accurately ripped
[AccurateRip ID: 001aae9e-00ea2b6d-8a0f930b] found.
Track [ CRC | V2 ] Status
01 [ba06755e|9605b403] (0+3/3) Accurately ripped
02 [823220fd|870b1b40] (0+3/3) Accurately ripped
03 [b7a51feb|ffe34a77] (0+3/3) Accurately ripped
04 [f4f11707|2bbbfb31] (0+3/3) Accurately ripped
05 [bf738308|99085a8a] (0+3/3) Accurately ripped
06 [f7113d09|49d662d1] (0+3/3) Accurately ripped
07 [b968ac16|16096c1b] (0+3/3) Accurately ripped
08 [f4aaea18|ff12a10e] (0+3/3) Accurately ripped
09 [bf8624b6|8a7f4152] (0+3/3) Accurately ripped
10 [b5dd80ce|6b342e31] (0+3/3) Accurately ripped
11 [763a0949|6fbb82fd] (0+3/3) Accurately ripped

Track Peak [ CRC32 ] [W/O NULL] [ LOG ]
– 98,5 [D8C1299C] [298B8591]
01 94,6 [7205E6F4] [B367A40C] CRC32
02 98,2 [8AF66CB2] [068F419D] CRC32
03 97,9 [2379B9CF] [EECCE4E1] CRC32
04 97,5 [4630A69B] [D767B135] CRC32
05 71,8 [939EDE34] [A6F42B90] CRC32
06 98,2 [A0D332A3] [C126C814] CRC32
07 98,2 [D146441D] [04823C79] CRC32
08 97,9 [5A1B7576] [5223B48B] CRC32
09 98,5 [D77E577A] [F8CB9C73] CRC32
10 98,2 [3639F30C] [8F39F2FC] CRC32
11 94,2 [AA20290B] [2F7EB871] CRC32

Thanks to Oleandris