Subcategories

V.A. - Sky Dancing - Nada Masala Vol. 2-3 (2001-2003)

Posted By: gribovar
V.A. - Sky Dancing - Nada Masala Vol. 2-3 (2001-2003)

V.A. - Sky Dancing - Nada Masala Vol. 2-3 (2001-2003)
EAC Rip | WavPack (image+.cue+log) - 960 MB | MP3 CBR 320 kbps (LAME 3.93) - 394 MB | Covers included
Genre: Dub, Downtempo, Ambient | RAR 3% Rec. | Label: Dakini Records

Sky Dancing - Nada Masala Vol. 2 (2001). Sky Dancing - Nada Masala Vol. 2 is Dakini's second label compilation, the follow-up to Vol. 1, which has been the label's best-selling and most popular release so far. Vol. 1 quickly sold out its first and second pressings, and has now been re-released in the US and Europe on Milan Music/Universal, with an initial pressing of 20, 000 copies. Vol. 2 is eagerly anticipated. It has been one year in the making, and represents the cream of chilled electronica from around the globe (except Ibiza, thank you). No filler here. Every track is the best the artist can make, and the album is compiled to create a total trip through sound. Like the first comp., 'Sky Dancing 2' is a seductive collection of tribal beats, zen-dubs and ethereal grooves. 'Nada' means 'sound', and 'masala' means 'blend'. Mix in equal parts ambient soundscapes, trance rhythms, dub mixing, ethnic instrumentation, and you've got the Dakini blend. Exotic, erotic and hypnotic.

Sky Dancing - Nada Masala Vol. 3 (2003). The third and final volume in Dakini's original compilation series featuring original hand-painted artwork by Seisen Ito and 80 minutes of deep, groovy chill. The 'Sky Dancing' series remains Dakini's best-seller, with over 20, 000 copies of vol.1 in print. Vol.3 has been two years in the making and features new tracks from regular Dakini contributors like Makyo, Jaia and Jairamji, as well as some fresh new artists and a track from Six Degrees artist (and Dakini fan) Karsh Kale.

V.A. - Sky Dancing - Nada Masala Vol. 2-3 (2001-2003)

V.A. - Sky Dancing - Nada Masala Vol. 2 (2001)
EAC Rip | WavPack (image+.cue+log) - 486 MB | MP3 CBR 320 kbps (LAME 3.93) - 197 MB | Covers (13 MB) included
Genre: Dub, Downtempo, Ambient | RAR 3% Rec. | Label: Dakini Records (DAK2108)

Tracklist:
01. Sevda - Veil Of Illusion
02. Masala - Lucid Dreams
03. Professor Trance - Inner Horizon
04. Makyo - Erzulie (Phantom Remix)
05. Blue Planet Corporation - Mangrove
06. Makyo - Behind The Veil (Remix)
07. Ochi Brothers - Sandhiprakash
08. Jaia - Le Chant Des Sirenes
09. Ishq - Yu

Total time: 01:17:56

Exact Audio Copy V0.99 prebeta 4 from 23. January 2008

EAC extraction logfile from 9. November 2008, 22:19

Various / Sky Dancing - Nada Masala vol.2

Used drive : HL-DT-STRW/DVD GCC-4241N Adapter: 1 ID: 0

Read mode : Secure
Utilize accurate stream : Yes
Defeat audio cache : Yes
Make use of C2 pointers : No

Read offset correction : 102
Overread into Lead-In and Lead-Out : No
Fill up missing offset samples with silence : Yes
Delete leading and trailing silent blocks : No
Null samples used in CRC calculations : Yes
Used interface : Installed external ASPI interface

Used output format : User Defined Encoder
Selected bitrate : 768 kBit/s
Quality : High
Add ID3 tag : No
Command line compressor : C:\Program Files\Exact Audio Copy\wavpack.exe
Additional command line options : -hmxd -w "GENRE=%m" -w "DATE=%y" -w "COMMENT=Released by a-one" %s %d


TOC of the extracted CD

Track | Start | Length | Start sector | End sector
––––––––––––––––––––––––––––-
1 | 0:00.00 | 9:27.42 | 0 | 42566
2 | 9:27.42 | 7:39.20 | 42567 | 77011
3 | 17:06.62 | 4:54.66 | 77012 | 99127
4 | 22:01.53 | 10:00.02 | 99128 | 144129
5 | 32:01.55 | 7:04.58 | 144130 | 175987
6 | 39:06.38 | 11:56.06 | 175988 | 229693
7 | 51:02.44 | 7:24.29 | 229694 | 263022
8 | 58:26.73 | 9:32.14 | 263023 | 305936
9 | 67:59.12 | 9:57.15 | 305937 | 350726


Range status and errors

Selected range

Filename C:\Rips\Various Artists - Sky Dancing - Nada Masala vol.2.wav

Peak level 96.6 %
Range quality 100.0 %
Test CRC 281C7474
Copy CRC 281C7474
Copy OK

No errors occurred

End of status report

[CUETools log; Date: 12.05.2017 20:41:44; Version: 2.1.4]
[CTDB TOCID: GXJS8tZOUj0P5W.w5C_oWyJg5kc-] found.
Track | CTDB Status
1 | (11/11) Accurately ripped
2 | (11/11) Accurately ripped
3 | (11/11) Accurately ripped
4 | (11/11) Accurately ripped
5 | (11/11) Accurately ripped
6 | (11/11) Accurately ripped
7 | (11/11) Accurately ripped
8 | (11/11) Accurately ripped
9 | (11/11) Accurately ripped
[AccurateRip ID: 0019c28e-00be27b6-74124409] found.
Track [ CRC | V2 ] Status
01 [437f7e7a|5f912c18] (02+03/12) Accurately ripped
02 [f40d42c5|396757f1] (02+03/12) Accurately ripped
03 [8976d88e|8a7644e3] (02+03/12) Accurately ripped
04 [da80d713|a3c1ac63] (02+03/12) Accurately ripped
05 [ec47d24a|377c42d0] (02+03/12) Accurately ripped
06 [05ef9d3c|0c18c25e] (02+03/12) Accurately ripped
07 [faa51300|ab0c08ce] (02+03/12) Accurately ripped
08 [1910e926|9b399d97] (02+03/12) Accurately ripped
09 [94f8c8a6|48f2d888] (02+03/12) Accurately ripped
Offsetted by 18:
01 [8744c13d] (05/12) Accurately ripped
02 [7fd04f3f] (05/12) Accurately ripped
03 [7079a214] (05/12) Accurately ripped
04 [85460a8d] (05/12) Accurately ripped
05 [1ad1b62e] (05/12) Accurately ripped
06 [0d1afb58] (05/12) Accurately ripped
07 [8fe55c60] (05/12) Accurately ripped
08 [6f6df3f8] (05/12) Accurately ripped
09 [af0a8ae0] (05/12) Accurately ripped

Track Peak [ CRC32 ] [W/O NULL] [ LOG ]
– 96,6 [281C7474] [1E56C547] CRC32
01 96,6 [DF493AF9] [F9AE0843]
02 96,5 [BB134515] [BB261D6B]
03 96,6 [668E278C] [AC6278D3]
04 96,6 [BADB913D] [27545B8C]
05 96,5 [928215EC] [2E1ABDFE]
06 96,6 [11FE19E6] [20800C09]
07 96,6 [D4BF3CA3] [BB8BF491]
08 96,5 [837E6807] [66F2D411]
09 79,4 [EEFF15BD] [0E7F6919]

Tex Willer – Storie Complete N. 219 - Nelle Paludi della Lousiana

V.A. - Sky Dancing - Nada Masala Vol. 3 (2003)
EAC Rip | WavPack (image+.cue+log) - 474 MB | MP3 CBR 320 kbps (LAME 3.93) - 197 MB | Covers (14 MB) included
Genre: Dub, Downtempo, Ambient | RAR 3% Rec. | Label: Dakini Records (DAK2112)

Tracklist:
01. Makyo - Pashyanti (Deeply Dubbed Mix)
02. Ascendence - Marathon
03. Bageshree - Bhakti
04. Karsh Kale - Ashes
05. Macchiato - Kenya AA
06. Jaïa - Evolving To Outside
07. Essa 3 - Sundial
08. Jairamji - Temple

Total time: 01:17:31

Exact Audio Copy V0.99 prebeta 4 from 23. January 2008

EAC extraction logfile from 16. December 2008, 21:27

Various / Sky Dancing - Nada Masala vol.3

Used drive : HL-DT-STRW/DVD GCC-4241N Adapter: 1 ID: 0

Read mode : Secure
Utilize accurate stream : Yes
Defeat audio cache : Yes
Make use of C2 pointers : No

Read offset correction : 102
Overread into Lead-In and Lead-Out : No
Fill up missing offset samples with silence : Yes
Delete leading and trailing silent blocks : No
Null samples used in CRC calculations : Yes
Used interface : Installed external ASPI interface

Used output format : User Defined Encoder
Selected bitrate : 768 kBit/s
Quality : High
Add ID3 tag : No
Command line compressor : C:\Program Files\Exact Audio Copy\wavpack.exe
Additional command line options : -hmxd -w "GENRE=%m" -w "DATE=%y" -w "COMMENT=Released by a-one" %s %d


TOC of the extracted CD

Track | Start | Length | Start sector | End sector
––––––––––––––––––––––––––––-
1 | 0:00.00 | 9:42.44 | 0 | 43693
2 | 9:42.44 | 9:26.33 | 43694 | 86176
3 | 19:09.02 | 6:53.42 | 86177 | 117193
4 | 26:02.44 | 5:05.59 | 117194 | 140127
5 | 31:08.28 | 10:57.01 | 140128 | 189403
6 | 42:05.29 | 9:52.69 | 189404 | 233872
7 | 51:58.23 | 9:44.67 | 233873 | 277739
8 | 61:43.15 | 15:47.41 | 277740 | 348805


Range status and errors

Selected range

Filename C:\Rips\Various Artists - Sky Dancing - Nada Masala vol.3.wav

Peak level 99.2 %
Range quality 100.0 %
Test CRC 3B7ED5D7
Copy CRC 3B7ED5D7
Copy OK

No errors occurred

End of status report

[CUETools log; Date: 12.05.2017 20:42:39; Version: 2.1.4]
[CTDB TOCID: 9kIdkzMjNhWLJgmziz3SugjnDh0-] found.
Track | CTDB Status
1 | (9/9) Accurately ripped
2 | (9/9) Accurately ripped
3 | (9/9) Accurately ripped
4 | (9/9) Accurately ripped
5 | (9/9) Accurately ripped
6 | (9/9) Accurately ripped
7 | (9/9) Accurately ripped
8 | (9/9) Accurately ripped
[AccurateRip ID: 0015ed58-00933f7d-60122a08] found.
Track [ CRC | V2 ] Status
01 [409ffe8f|6036ec70] (3+5/8) Accurately ripped
02 [a14c4485|92a5ece4] (3+5/8) Accurately ripped
03 [1c291398|80322c36] (3+5/8) Accurately ripped
04 [97662a26|e85c8a06] (3+5/8) Accurately ripped
05 [2f5fd7e5|02b53564] (3+5/8) Accurately ripped
06 [e5febf1a|373744ff] (3+5/8) Accurately ripped
07 [ab7bac18|fa559674] (3+5/8) Accurately ripped
08 [be2421e3|4f17df90] (3+5/8) Accurately ripped

Track Peak [ CRC32 ] [W/O NULL] [ LOG ]
– 99,2 [3B7ED5D7] [3AB8E39E] CRC32
01 82,9 [642D5F71] [CEF2DB99]
02 85,2 [77FA370B] [73ECB517]
03 86,7 [7FD0EF98] [E64310B1]
04 88,5 [CEC42309] [4A240A77]
05 99,2 [3726B3D7] [AB02DCCD]
06 86,0 [CCA5A299] [1DB565C3]
07 76,6 [BEBDF843] [01E1E0D1]
08 89,0 [2EA73009] [F5A5FB8A]

Thanks to a-one