VA - Smooth Jazz For Lovers (2002)

Posted By: JET 1
VA - Smooth Jazz For Lovers (2002)

VA - Smooth Jazz For Lovers (2002)
EAC Rip | FLAC (Image) +CUE, LOG | 305 MB | Covers Included
Genre: Smooth Jazz | Label: Shanachie | Catalog Number: SMJ51602

Smooth jazz compilation album featuring artists from the Shanachie label.

EAC extraction logfile from 27. August 2008, 11:43 for CD
Various / Smooth Jazz For Lovers

Used drive : _NEC DVD_RW ND-4570A Adapter: 0 ID: 0
Read mode : Secure with NO C2, accurate stream, disable cache
Read offset correction : 48
Overread into Lead-In and Lead-Out : No

Used output format : C:\Program Files\Exact Audio Copy\flac.exe (User Defined Encoder)
320 kBit/s
Additional command line options : -8 -V -T "ARTIST=%a" -T "TITLE=%t" -T "ALBUM=%g" -T "DATE=%y" -T "TRACKNUMBER=%n" -T "GENRE=%m" -T "COMMENT=EAC FLAC -8" %s

Other options :
Fill up missing offset samples with silence : Yes
Delete leading and trailing silent blocks : No
Installed external ASPI interface


Track 1
Filename I:\Various Artists - Smooth Jazz for Lovers (2002) [FLAC]\01 - Eddie daniels - We'll always be together.wav

Pre-gap length 0:00:02.00

Peak level 100.0 %
Track quality 100.0 %
Test CRC 97FE9F3B
Copy CRC 97FE9F3B
Copy OK

Track 2
Filename I:\Various Artists - Smooth Jazz for Lovers (2002) [FLAC]\02 - Walter beasley - Nice and easy.wav

Pre-gap length 0:00:02.00

Peak level 99.9 %
Track quality 100.0 %
Test CRC DE3B9FA5
Copy CRC DE3B9FA5
Copy OK

Track 3
Filename I:\Various Artists - Smooth Jazz for Lovers (2002) [FLAC]\03 - Jon lucien - This could be paradise.wav

Pre-gap length 0:00:02.00

Peak level 92.5 %
Track quality 100.0 %
Test CRC 99A21D41
Copy CRC 99A21D41
Copy OK

Track 4
Filename I:\Various Artists - Smooth Jazz for Lovers (2002) [FLAC]\04 - Nestor torres - Treasures of the heart.wav

Pre-gap length 0:00:02.00

Peak level 99.8 %
Track quality 100.0 %
Test CRC 9C13F9DD
Copy CRC 9C13F9DD
Copy OK

Track 5
Filename I:\Various Artists - Smooth Jazz for Lovers (2002) [FLAC]\05 - Kim waters - Night fall.wav

Pre-gap length 0:00:02.00

Peak level 94.8 %
Track quality 100.0 %
Test CRC D6B0AA14
Copy CRC D6B0AA14
Copy OK

Track 6
Filename I:\Various Artists - Smooth Jazz for Lovers (2002) [FLAC]\06 - Ed hamilton - If only.wav

Pre-gap length 0:00:02.00

Peak level 99.9 %
Track quality 99.9 %
Test CRC 9C3D875B
Copy CRC 9C3D875B
Copy OK

Track 7
Filename I:\Various Artists - Smooth Jazz for Lovers (2002) [FLAC]\07 - Alfonzo blackwell - Joy.wav

Pre-gap length 0:00:02.00

Peak level 99.8 %
Track quality 100.0 %
Test CRC 33ADC408
Copy CRC 33ADC408
Copy OK

Track 8
Filename I:\Various Artists - Smooth Jazz for Lovers (2002) [FLAC]\08 - Satin doll - In a sentimental mood.wav

Pre-gap length 0:00:02.00

Peak level 99.8 %
Track quality 100.0 %
Test CRC E2CE0BA5
Copy CRC E2CE0BA5
Copy OK

Track 9
Filename I:\Various Artists - Smooth Jazz for Lovers (2002) [FLAC]\09 - Bob baldwin - Give in to love.wav

Pre-gap length 0:00:02.00

Peak level 100.0 %
Track quality 100.0 %
Test CRC 98B6AF4A
Copy CRC 98B6AF4A
Copy OK

Track 10
Filename I:\Various Artists - Smooth Jazz for Lovers (2002) [FLAC]\10 - Kim pensyl - When you were mine.wav

Pre-gap length 0:00:02.00

Peak level 90.0 %
Track quality 99.9 %
Test CRC 7B28BF0F
Copy CRC 7B28BF0F
Copy OK

No errors occured


End of status report


Tracklist:
01. Eddie Daniels - We'll Always Be Together [05:04]
02. Walter Beasley - Nice And Easy [04:24]
03. Jon Lucien - This Could Be Paradise [05:24]
04. Nestor Torres - Treasures Of The Heart [04:47]
05. Kim Waters - Night Fall [05:32]
06. Ed Hamilton - If Only [03:50]
07. Alfonzo Blackwell - Joy [04:04]
08. Satin Doll - In A Sentimental Mood [05:01]
09. Bob Baldwin - Give In To Love [05:01]
10. Kim Pensyl - When You Were Mine [05:15]