Subcategories

VA - Soul Sisters [3CD] (2012)

Posted By: JET 1
VA - Soul Sisters [3CD] (2012)

VA - Soul Sisters [3CD] (2012)
EAC Rip | FLAC (Tracks) +CUE, LOG | 1.2 GB | No Scans
Genre: Soul, Funk, Disco | Label: U.M.T.V. | Catalog Number: 533 81694

62 original female Soul/Disco/R&B masters 1964-2009. Amazing collection from Etta James to Amy Winehouse! TV advertised custom product

Exact Audio Copy V1.0 beta 3 from 29. August 2011

EAC extraction logfile from 17. December 2012, 19:33

Various Artists / Soul Sisters Disk One

Used drive : PLEXTOR DVDR PX-L890SA Adapter: 5 ID: 0

Read mode : Secure
Utilize accurate stream : Yes
Defeat audio cache : Yes
Make use of C2 pointers : No

Read offset correction : 6
Overread into Lead-In and Lead-Out : No
Fill up missing offset samples with silence : Yes
Delete leading and trailing silent blocks : No
Null samples used in CRC calculations : Yes
Used interface : Native Win32 interface for Win NT & 2000
Gap handling : Appended to previous track

Used output format : User Defined Encoder
Selected bitrate : 768 kBit/s
Quality : High
Add ID3 tag : No
Command line compressor : C:\Program Files (x86)\Exact Audio Copy\FLAC\FLAC.EXE
Additional command line options : -6 -V -T "ARTIST=%artist%" -T "TITLE=%title%" -T "ALBUM=%albumtitle%" -T "DATE=%year%" -T "TRACKNUMBER=%tracknr%" -T "GENRE=%genre%" -T "COMMENT=%comment%" -T "BAND=%albuminterpret%" -T "ALBUMARTIST=%albuminterpret%" -T "COMPOSER=%composer%" %haslyrics%–tag-from-file=LYRICS="%lyricsfile%"%haslyrics% -T "DISCNUMBER=%cdnumber%" -T "TOTALDISCS=%totalcds%" -T "TOTALTRACKS=%numtracks%" %hascover%–picture="%coverfile%"%hascover% %source% -o %dest%


TOC of the extracted CD

Track | Start | Length | Start sector | End sector
––––––––––––––––––––––––––––-
1 | 0:00.00 | 3:34.48 | 0 | 16097
2 | 3:34.48 | 2:59.12 | 16098 | 29534
3 | 6:33.60 | 2:49.03 | 29535 | 42212
4 | 9:22.63 | 2:51.69 | 42213 | 55106
5 | 12:14.57 | 2:46.18 | 55107 | 67574
6 | 15:01.00 | 2:53.18 | 67575 | 80567
7 | 17:54.18 | 2:37.28 | 80568 | 92370
8 | 20:31.46 | 3:30.74 | 92371 | 108194
9 | 24:02.45 | 3:54.60 | 108195 | 125804
10 | 27:57.30 | 3:27.64 | 125805 | 141393
11 | 31:25.19 | 2:38.01 | 141394 | 153244
12 | 34:03.20 | 4:03.53 | 153245 | 171522
13 | 38:06.73 | 2:43.26 | 171523 | 183773
14 | 40:50.24 | 2:00.51 | 183774 | 192824
15 | 42:51.00 | 2:11.59 | 192825 | 202708
16 | 45:02.59 | 2:27.42 | 202709 | 213775
17 | 47:30.26 | 2:28.62 | 213776 | 224937
18 | 49:59.13 | 2:33.64 | 224938 | 236476
19 | 52:33.02 | 2:47.14 | 236477 | 249015
20 | 55:20.16 | 3:16.69 | 249016 | 263784
21 | 58:37.10 | 3:40.47 | 263785 | 280331


Track 1

Filename D:\01 I Say a Little Prayer.wav

Pre-gap length 0:00:02.00

Peak level 100.0 %
Extraction speed 3.4 X
Track quality 100.0 %
Test CRC F6EA2EE5
Copy CRC F6EA2EE5
Track not present in AccurateRip database
Copy OK

Track 2

Filename D:\02 At Last.wav

Pre-gap length 0:00:00.31

Peak level 90.1 %
Extraction speed 3.7 X
Track quality 100.0 %
Test CRC C9803BA1
Copy CRC C9803BA1
Track not present in AccurateRip database
Copy OK

Track 3

Filename D:\03 Our Day Will Come.wav

Pre-gap length 0:00:00.31

Peak level 68.4 %
Extraction speed 3.9 X
Track quality 100.0 %
Test CRC 70F4FA9E
Copy CRC 70F4FA9E
Track not present in AccurateRip database
Copy OK

Track 4

Filename D:\04 Walk On By.wav

Pre-gap length 0:00:00.31

Peak level 96.4 %
Extraction speed 4.1 X
Track quality 100.0 %
Test CRC 550B6122
Copy CRC 550B6122
Track not present in AccurateRip database
Copy OK

Track 5

Filename D:\05 Mad About the Boy.wav

Pre-gap length 0:00:00.31

Peak level 100.0 %
Extraction speed 4.3 X
Track quality 100.0 %
Test CRC A5B05710
Copy CRC A5B05710
Track not present in AccurateRip database
Copy OK

Track 6

Filename D:\06 Band of Gold.wav

Pre-gap length 0:00:00.31

Peak level 100.0 %
Extraction speed 4.5 X
Track quality 100.0 %
Test CRC 3979C325
Copy CRC 3979C325
Track not present in AccurateRip database
Copy OK

Track 7

Filename D:\07 Piece of My Heart.wav

Pre-gap length 0:00:00.31

Peak level 100.0 %
Extraction speed 3.4 X
Track quality 99.9 %
Test CRC 02BD0E75
Copy CRC 02BD0E75
Track not present in AccurateRip database
Copy OK

Track 8

Filename D:\08 Ain't No Mountain High Enough.wav

Pre-gap length 0:00:00.31

Peak level 99.5 %
Extraction speed 5.1 X
Track quality 100.0 %
Test CRC 8A96CC75
Copy CRC 8A96CC75
Track not present in AccurateRip database
Copy OK

Track 9

Filename D:\09 Woman to Woman.wav

Pre-gap length 0:00:00.31

Peak level 100.0 %
Extraction speed 5.4 X
Track quality 100.0 %
Test CRC 6840C102
Copy CRC 6840C102
Track not present in AccurateRip database
Copy OK

Track 10

Filename D:\10 (If Loving You is Wrong) I Don't Want to Be Right.wav

Pre-gap length 0:00:00.31

Peak level 90.3 %
Extraction speed 5.4 X
Track quality 100.0 %
Test CRC F45F95EB
Copy CRC F45F95EB
Track not present in AccurateRip database
Copy OK

Track 11

Filename D:\11 Dancing in the Street.wav

Pre-gap length 0:00:00.31

Peak level 96.0 %
Extraction speed 4.0 X
Track quality 99.9 %
Test CRC 2280BF6C
Copy CRC 2280BF6C
Track not present in AccurateRip database
Copy OK

Track 12

Filename D:\12 Finally Made Me Happy.wav

Pre-gap length 0:00:00.31

Peak level 72.4 %
Extraction speed 4.8 X
Track quality 99.9 %
Test CRC E8450D63
Copy CRC E8450D63
Track not present in AccurateRip database
Copy OK

Track 13

Filename D:\13 The Clapping Song (Clap Pat Clap Song).wav

Pre-gap length 0:00:00.31

Peak level 100.0 %
Extraction speed 4.3 X
Track quality 99.9 %
Test CRC 6E3C0B79
Copy CRC 6E3C0B79
Track not present in AccurateRip database
Copy OK

Track 14

Filename D:\14 My Boy Lollipop.wav

Pre-gap length 0:00:00.31

Peak level 91.2 %
Extraction speed 5.5 X
Track quality 100.0 %
Test CRC 4A2DF686
Copy CRC 4A2DF686
Track not present in AccurateRip database
Copy OK

Track 15

Filename D:\15 Tainted Love.wav

Pre-gap length 0:00:00.31

Peak level 90.5 %
Extraction speed 4.0 X
Track quality 99.9 %
Test CRC 8C3BFC9A
Copy CRC 8C3BFC9A
Track not present in AccurateRip database
Copy OK

Track 16

Filename D:\16 I Can't Stand the Rain.wav

Pre-gap length 0:00:00.31

Peak level 100.0 %
Extraction speed 6.0 X
Track quality 100.0 %
Test CRC 81159A75
Copy CRC 81159A75
Track not present in AccurateRip database
Copy OK

Track 17

Filename D:\17 Please Mr Postman.wav

Pre-gap length 0:00:00.31

Peak level 73.8 %
Extraction speed 6.1 X
Track quality 100.0 %
Test CRC 8F79B778
Copy CRC 8F79B778
Track not present in AccurateRip database
Copy OK

Track 18

Filename D:\18 Two Can Have a Party.wav

Pre-gap length 0:00:00.31

Peak level 63.8 %
Extraction speed 6.2 X
Track quality 100.0 %
Test CRC CC4BD729
Copy CRC CC4BD729
Track not present in AccurateRip database
Copy OK

Track 19

Filename D:\19 My Guy.wav

Pre-gap length 0:00:00.31

Peak level 98.1 %
Extraction speed 6.5 X
Track quality 100.0 %
Test CRC 9BBA6DAA
Copy CRC 9BBA6DAA
Track not present in AccurateRip database
Copy OK

Track 20

Filename D:\20 Movin' On a Groove.wav

Pre-gap length 0:00:00.31

Peak level 100.0 %
Extraction speed 6.9 X
Track quality 100.0 %
Test CRC E44DE976
Copy CRC E44DE976
Track not present in AccurateRip database
Copy OK

Track 21

Filename D:\21 Save the Best for Last.wav

Pre-gap length 0:00:00.31

Peak level 100.0 %
Extraction speed 7.1 X
Track quality 100.0 %
Test CRC 87555EEE
Copy CRC 87555EEE
Track not present in AccurateRip database
Copy OK


None of the tracks are present in the AccurateRip database

No errors occurred

End of status report

==== Log checksum 700FBCC7DF5BF3FE113128B2521BE667D907096BEEEFAFBF13F41A320D01FEAA ====

Exact Audio Copy V1.0 beta 3 from 29. August 2011

EAC extraction logfile from 18. December 2012, 9:50

Various Artists / Soul Sisters (Disk Two)

Used drive : PLEXTOR DVDR PX-L890SA Adapter: 5 ID: 0

Read mode : Secure
Utilize accurate stream : Yes
Defeat audio cache : Yes
Make use of C2 pointers : No

Read offset correction : 6
Overread into Lead-In and Lead-Out : No
Fill up missing offset samples with silence : Yes
Delete leading and trailing silent blocks : No
Null samples used in CRC calculations : Yes
Used interface : Native Win32 interface for Win NT & 2000
Gap handling : Appended to previous track

Used output format : User Defined Encoder
Selected bitrate : 1024 kBit/s
Quality : High
Add ID3 tag : No
Command line compressor : C:\Program Files (x86)\Exact Audio Copy\FLAC\FLAC.EXE
Additional command line options : -8 -V -T "ARTIST=%artist%" -T "TITLE=%title%" -T "ALBUM=%albumtitle%" -T "DATE=%year%" -T "TRACKNUMBER=%tracknr%" -T "GENRE=%genre%" -T "COMMENT=%comment%" -T "BAND=%albuminterpret%" -T "ALBUMARTIST=%albuminterpret%" -T "COMPOSER=%composer%" %haslyrics%–tag-from-file=LYRICS="%lyricsfile%"%haslyrics% -T "DISCNUMBER=%cdnumber%" -T "TOTALDISCS=%totalcds%" -T "TOTALTRACKS=%numtracks%" %hascover%–picture="%coverfile%"%hascover% %source% -o %dest%


TOC of the extracted CD

Track | Start | Length | Start sector | End sector
––––––––––––––––––––––––––––-
1 | 0:00.00 | 4:38.28 | 0 | 20877
2 | 4:38.28 | 2:53.66 | 20878 | 33918
3 | 7:32.19 | 3:36.29 | 33919 | 50147
4 | 11:08.48 | 2:41.14 | 50148 | 62236
5 | 13:49.62 | 3:25.64 | 62237 | 77675
6 | 17:15.51 | 3:47.02 | 77676 | 94702
7 | 21:02.53 | 2:30.32 | 94703 | 105984
8 | 23:33.10 | 3:04.31 | 105985 | 119815
9 | 26:37.41 | 2:57.21 | 119816 | 133111
10 | 29:34.62 | 3:20.25 | 133112 | 148136
11 | 32:55.12 | 3:18.04 | 148137 | 162990
12 | 36:13.16 | 2:28.13 | 162991 | 174103
13 | 38:41.29 | 3:46.15 | 174104 | 191068
14 | 42:27.44 | 4:39.73 | 191069 | 212066
15 | 47:07.42 | 5:22.11 | 212067 | 236227
16 | 52:29.53 | 2:57.43 | 236228 | 249545
17 | 55:27.21 | 2:56.64 | 249546 | 262809
18 | 58:24.10 | 2:50.66 | 262810 | 275625
19 | 61:15.01 | 4:31.40 | 275626 | 295990
20 | 65:46.41 | 2:27.70 | 295991 | 307085
21 | 68:14.36 | 2:42.35 | 307086 | 319270


Track 1

Filename D:\01 Midnight Train to Georgia.wav

Pre-gap length 0:00:02.00

Peak level 100.0 %
Extraction speed 3.6 X
Track quality 100.0 %
Test CRC 7B19BB4E
Copy CRC 7B19BB4E
Track not present in AccurateRip database
Copy OK

Track 2

Filename D:\02 Feeling Good.wav

Pre-gap length 0:00:00.31

Peak level 87.0 %
Extraction speed 3.7 X
Track quality 100.0 %
Test CRC C24AD636
Copy CRC C24AD636
Track not present in AccurateRip database
Copy OK

Track 3

Filename D:\03 Empire State of My Mind (Part 2.wav

Pre-gap length 0:00:00.31

Peak level 75.8 %
Extraction speed 4.1 X
Track quality 100.0 %
Test CRC 3E95750E
Copy CRC 3E95750E
Track not present in AccurateRip database
Copy OK

Track 4

Filename D:\04 Spooky.wav

Pre-gap length 0:00:00.31

Peak level 77.7 %
Extraction speed 4.1 X
Track quality 100.0 %
Test CRC AA343D1D
Copy CRC AA343D1D
Track not present in AccurateRip database
Copy OK

Track 5

Filename D:\05 Light My Fire.wav

Pre-gap length 0:00:00.31

Peak level 87.0 %
Extraction speed 3.5 X
Track quality 99.9 %
Test CRC BFB7801D
Copy CRC BFB7801D
Track not present in AccurateRip database
Copy OK

Track 6

Filename D:\06 Warwick Avenue.wav

Pre-gap length 0:00:00.31

Peak level 63.7 %
Extraction speed 4.8 X
Track quality 100.0 %
Test CRC 93BEE80A
Copy CRC 93BEE80A
Track not present in AccurateRip database
Copy OK

Track 7

Filename D:\07 Needle in a Haystack.wav

Pre-gap length 0:00:00.31

Peak level 80.4 %
Extraction speed 4.6 X
Track quality 100.0 %
Test CRC F9DC2F23
Copy CRC F9DC2F23
Track not present in AccurateRip database
Copy OK

Track 8

Filename D:\08 I Just Want to Make Love to You.wav

Pre-gap length 0:00:00.31

Peak level 81.2 %
Extraction speed 5.0 X
Track quality 100.0 %
Test CRC 96077A0A
Copy CRC 96077A0A
Track not present in AccurateRip database
Copy OK

Track 9

Filename D:\09 California Soul.wav

Pre-gap length 0:00:00.31

Peak level 95.4 %
Extraction speed 3.9 X
Track quality 99.9 %
Test CRC 144DD403
Copy CRC 144DD403
Track not present in AccurateRip database
Copy OK

Track 10

Filename D:\10 Think (About It).wav

Pre-gap length 0:00:00.31

Peak level 99.9 %
Extraction speed 5.4 X
Track quality 100.0 %
Test CRC 0FAF5234
Copy CRC 0FAF5234
Track not present in AccurateRip database
Copy OK

Track 11

Filename D:\11 Sunshine of Your Love.wav

Pre-gap length 0:00:00.31

Peak level 68.7 %
Extraction speed 5.6 X
Track quality 100.0 %
Test CRC E9F2561A
Copy CRC E9F2561A
Track not present in AccurateRip database
Copy OK

Track 12

Filename D:\12 Mr. Big Stuff.wav

Pre-gap length 0:00:00.31

Peak level 100.0 %
Extraction speed 5.4 X
Track quality 100.0 %
Test CRC 0BD3C87A
Copy CRC 0BD3C87A
Track not present in AccurateRip database
Copy OK

Track 13

Filename D:\13 The Perfect Year.wav

Pre-gap length 0:00:00.31

Peak level 67.2 %
Extraction speed 6.0 X
Track quality 100.0 %
Test CRC 9D68998B
Copy CRC 9D68998B
Track not present in AccurateRip database
Copy OK

Track 14

Filename D:\14 My Lovin' (You're Never Gonna Get It).wav

Pre-gap length 0:00:00.31

Peak level 67.6 %
Extraction speed 6.4 X
Track quality 100.0 %
Test CRC A6ECBB02
Copy CRC A6ECBB02
Track not present in AccurateRip database
Copy OK

Track 15

Filename D:\15 The Message from the Soul Sisters.wav

Pre-gap length 0:00:00.31

Peak level 68.5 %
Extraction speed 6.8 X
Track quality 100.0 %
Test CRC D7026D38
Copy CRC D7026D38
Track not present in AccurateRip database
Copy OK

Track 16

Filename D:\16 Stoned Love.wav

Pre-gap length 0:00:00.31

Peak level 91.1 %
Extraction speed 6.4 X
Track quality 100.0 %
Test CRC 3FFBFFD7
Copy CRC 3FFBFFD7
Track not present in AccurateRip database
Copy OK

Track 17

Filename D:\17 Love Makes a Woman.wav

Pre-gap length 0:00:00.31

Peak level 98.5 %
Extraction speed 6.6 X
Track quality 100.0 %
Test CRC F1734026
Copy CRC F1734026
Track not present in AccurateRip database
Copy OK

Track 18

Filename D:\18 Don't Mess with Bill.wav

Pre-gap length 0:00:00.31

Peak level 96.9 %
Extraction speed 6.6 X
Track quality 100.0 %
Test CRC F91E681A
Copy CRC F91E681A
Track not present in AccurateRip database
Copy OK

Track 19

Filename D:\19 Wish I Didn't Miss You.wav

Pre-gap length 0:00:00.31

Peak level 55.5 %
Extraction speed 7.4 X
Track quality 100.0 %
Test CRC C0BE4CDF
Copy CRC C0BE4CDF
Track not present in AccurateRip database
Copy OK

Track 20

Filename D:\20 Do You Really Want to Rescue Me (Part 1).wav

Pre-gap length 0:00:00.31

Peak level 99.6 %
Extraction speed 6.6 X
Track quality 100.0 %
Test CRC 473ADECE
Copy CRC 473ADECE
Track not present in AccurateRip database
Copy OK

Track 21

Filename D:\21 What a Man.wav

Pre-gap length 0:00:00.31

Peak level 82.2 %
Extraction speed 6.9 X
Track quality 100.0 %
Test CRC 6F68B5E8
Copy CRC 6F68B5E8
Track not present in AccurateRip database
Copy OK


None of the tracks are present in the AccurateRip database

No errors occurred

End of status report

==== Log checksum 9645BCE4AC579AAF5929A954E8CDDE23836E458F40B28F3E8296EB71F4F382A4 ====

Exact Audio Copy V1.0 beta 3 from 29. August 2011

EAC extraction logfile from 18. December 2012, 9:06

Va Artist / Soul Sisters Disc Three

Used drive : PLEXTOR DVDR PX-L890SA Adapter: 5 ID: 0

Read mode : Secure
Utilize accurate stream : Yes
Defeat audio cache : Yes
Make use of C2 pointers : No

Read offset correction : 6
Overread into Lead-In and Lead-Out : No
Fill up missing offset samples with silence : Yes
Delete leading and trailing silent blocks : No
Null samples used in CRC calculations : Yes
Used interface : Native Win32 interface for Win NT & 2000
Gap handling : Appended to previous track

Used output format : User Defined Encoder
Selected bitrate : 1024 kBit/s
Quality : High
Add ID3 tag : No
Command line compressor : C:\Program Files (x86)\Exact Audio Copy\FLAC\FLAC.EXE
Additional command line options : -8 -V -T "ARTIST=%artist%" -T "TITLE=%title%" -T "ALBUM=%albumtitle%" -T "DATE=%year%" -T "TRACKNUMBER=%tracknr%" -T "GENRE=%genre%" -T "COMMENT=%comment%" -T "BAND=%albuminterpret%" -T "ALBUMARTIST=%albuminterpret%" -T "COMPOSER=%composer%" %haslyrics%–tag-from-file=LYRICS="%lyricsfile%"%haslyrics% -T "DISCNUMBER=%cdnumber%" -T "TOTALDISCS=%totalcds%" -T "TOTALTRACKS=%numtracks%" %hascover%–picture="%coverfile%"%hascover% %source% -o %dest%


TOC of the extracted CD

Track | Start | Length | Start sector | End sector
––––––––––––––––––––––––––––-
1 | 0:00.00 | 4:58.23 | 0 | 22372
2 | 4:58.23 | 5:21.56 | 22373 | 46503
3 | 10:20.04 | 3:16.07 | 46504 | 61210
4 | 13:36.11 | 2:20.53 | 61211 | 71763
5 | 15:56.64 | 2:52.62 | 71764 | 84725
6 | 18:49.51 | 3:03.22 | 84726 | 98472
7 | 21:52.73 | 4:05.00 | 98473 | 116847
8 | 25:57.73 | 2:52.54 | 116848 | 129801
9 | 28:50.52 | 3:21.25 | 129802 | 144901
10 | 32:12.02 | 2:50.19 | 144902 | 157670
11 | 35:02.21 | 4:23.12 | 157671 | 177407
12 | 39:25.33 | 4:55.27 | 177408 | 199559
13 | 44:20.60 | 2:35.64 | 199560 | 211248
14 | 46:56.49 | 4:31.09 | 211249 | 231582
15 | 51:27.58 | 4:24.12 | 231583 | 251394
16 | 55:51.70 | 6:02.28 | 251395 | 278572
17 | 61:54.23 | 3:34.25 | 278573 | 294647
18 | 65:28.48 | 2:33.19 | 294648 | 306141
19 | 68:01.67 | 3:16.71 | 306142 | 320912
20 | 71:18.63 | 5:23.10 | 320913 | 345147


Track 1

Filename E:\01 Love To Love You Baby.wav

Pre-gap length 0:00:02.00

Peak level 100.0 %
Extraction speed 3.9 X
Track quality 100.0 %
Test CRC BF6CDA7D
Copy CRC BF6CDA7D
Track not present in AccurateRip database
Copy OK

Track 2

Filename E:\02 Whole Lotta Love.wav

Pre-gap length 0:00:00.31

Peak level 100.0 %
Extraction speed 4.4 X
Track quality 100.0 %
Test CRC 0B718A30
Copy CRC 0B718A30
Track not present in AccurateRip database
Copy OK

Track 3

Filename E:\03 Aretha.wav

Pre-gap length 0:00:00.31

Peak level 94.3 %
Extraction speed 4.5 X
Track quality 100.0 %
Test CRC F938DF16
Copy CRC F938DF16
Track not present in AccurateRip database
Copy OK

Track 4

Filename E:\04 Tell Mama.wav

Pre-gap length 0:00:00.31

Peak level 100.0 %
Extraction speed 4.3 X
Track quality 100.0 %
Test CRC 4015A7B3
Copy CRC 4015A7B3
Track not present in AccurateRip database
Copy OK

Track 5

Filename E:\05 Jimmy Mack.wav

Pre-gap length 0:00:00.31

Peak level 56.7 %
Extraction speed 4.8 X
Track quality 100.0 %
Test CRC D3D7CF8F
Copy CRC D3D7CF8F
Track not present in AccurateRip database
Copy OK

Track 6

Filename E:\06 Nathan Jones.wav

Pre-gap length 0:00:00.31

Peak level 86.8 %
Extraction speed 5.0 X
Track quality 100.0 %
Test CRC 54062EBB
Copy CRC 54062EBB
Track not present in AccurateRip database
Copy OK

Track 7

Filename E:\07 Obsessed.wav

Pre-gap length 0:00:00.31

Peak level 54.3 %
Extraction speed 4.3 X
Track quality 99.9 %
Test CRC 13313E2E
Copy CRC 13313E2E
Track not present in AccurateRip database
Copy OK

Track 8

Filename E:\08 Rescue Me.wav

Pre-gap length 0:00:00.31

Peak level 100.0 %
Extraction speed 5.3 X
Track quality 100.0 %
Test CRC F23DC7F3
Copy CRC F23DC7F3
Track not present in AccurateRip database
Copy OK

Track 9

Filename E:\09 Theme From Mahogany (Do You Know Where You're Going To).wav

Pre-gap length 0:00:00.31

Peak level 58.9 %
Extraction speed 5.7 X
Track quality 100.0 %
Test CRC 1B44CE30
Copy CRC 1B44CE30
Track not present in AccurateRip database
Copy OK

Track 10

Filename E:\10 Im Gonna Tear Your Playhouse Down.wav

Pre-gap length 0:00:00.31

Copy aborted

Track 11

Filename E:\11 Mama Feelgood.wav

Pre-gap length 0:00:00.31

Peak level 100.0 %
Extraction speed 6.3 X
Track quality 100.0 %
Test CRC ACAB4E2A
Copy CRC ACAB4E2A
Track not present in AccurateRip database
Copy OK

Track 12

Filename E:\12 When You Gonna Learn.wav

Pre-gap length 0:00:00.31

Peak level 62.5 %
Extraction speed 6.6 X
Track quality 100.0 %
Test CRC 5400E72D
Copy CRC 5400E72D
Track not present in AccurateRip database
Copy OK

Track 13

Filename E:\13 Oh No Not My Baby.wav

Pre-gap length 0:00:00.31

Peak level 100.0 %
Extraction speed 6.2 X
Track quality 100.0 %
Test CRC 45E5E5B6
Copy CRC 45E5E5B6
Track not present in AccurateRip database
Copy OK

Track 14

Filename E:\14 The Way That I Love You.wav

Pre-gap length 0:00:00.31

Peak level 53.0 %
Extraction speed 7.0 X
Track quality 100.0 %
Test CRC 9532F34F
Copy CRC 9532F34F
Track not present in AccurateRip database
Copy OK

Track 15

Filename E:\15 Piano In The Dark.wav

Pre-gap length 0:00:00.31

Peak level 72.4 %
Extraction speed 7.1 X
Track quality 100.0 %
Test CRC 344B49B8
Copy CRC 344B49B8
Track not present in AccurateRip database
Copy OK

Track 16

Filename E:\16 Yes We Can Can.wav

Pre-gap length 0:00:00.31

Peak level 67.6 %
Extraction speed 7.6 X
Track quality 100.0 %
Test CRC 500857D5
Copy CRC 500857D5
Track not present in AccurateRip database
Copy OK

Track 17

Filename E:\17 Grandma's Hands.wav

Pre-gap length 0:00:00.31

Peak level 100.0 %
Extraction speed 7.3 X
Track quality 100.0 %
Test CRC 9501DBAB
Copy CRC 9501DBAB
Track not present in AccurateRip database
Copy OK

Track 18

Filename E:\18 Unwind Yourself.wav

Pre-gap length 0:00:00.31

Peak level 98.5 %
Extraction speed 6.9 X
Track quality 100.0 %
Test CRC 4632F827
Copy CRC 4632F827
Track not present in AccurateRip database
Copy OK

Track 19

Filename E:\19 What Have You Done For Me Lately.wav

Pre-gap length 0:00:00.31

Peak level 100.0 %
Extraction speed 7.6 X
Track quality 100.0 %
Test CRC FB75BBA0
Copy CRC FB75BBA0
Track not present in AccurateRip database
Copy OK

Track 20

Filename E:\20 Honey.wav

Pre-gap length 0:00:00.31

Peak level 71.6 %
Extraction speed 8.2 X
Track quality 100.0 %
Test CRC 9B1FB254
Copy CRC 9B1FB254
Track not present in AccurateRip database
Copy OK


19 track(s) not present in the AccurateRip database
1 track(s) not fully ripped for AccurateRip lookup

No tracks could be verified as accurate

No errors occurred

End of status report

==== Log checksum 2091455F1AA0D2392DE4C681259BF285A168CA9CA8CA99791CAC918B8A0F171B ====


Tracklist ::
Disk One
1. I Say A Little Prayer - Aretha Franklin
2. At Last - Etta James
3. Our Day Will Come - Amy Winehouse
4. Walk On By - Dionne Warwick
5. Mad About The Boy - Dinah Washington
6. Band of Gold - Freda Payne
7. Piece Of My Heart - Erma Franklin
8. Ain't No Mountain High Enough - Diana Ross
9. Woman To Woman - Shirley Brown
10. (If Loving You Is Wrong) I Don't Want To Be Right - Millie Jackson
11. Dancing In The Street - Martha Reeves & The Vandellas
12. Finally Made Me Happy - Macy Gray, Natalie Cole
13. The Clapping Song (Clap Pat Clap Slap) - Shirley Ellis
14. My Boy Lollipop - Millie
15. Tainted Love - Gloria Jones
16. I Can't Stand The Rain - Ann Peebles
17. Please Mr. Postman - The Marvelettes
18. Two Can Have A Party - Tammi Terrell
19. My Guy - Mary Wells
20. Movin’ On A Groove - Barbara Lynn
21. Save The Best For Last - Vanessa Williams

Disk Two
1. Midnight Train To Georgia - Gladys Knight & The Pips
2. Feeling Good - Nina Simone, Hal Mooney
3. Empire State Of Mind (Part 2) Broken Down - Alicia Keys
4. Spooky - Dusty Springfield
5. Light My Fire - Shirley Bassey
6. Warwick Avenue - Duffy
7. Needle In A Haystack - The Velvelettes
8. I Just Want To Make Love To You - Etta James
9. California Soul - Marlena Shaw
10. Think (About It) - Lyn Collins
11. Sunshine Of Your Love - Ella Fitzgerald
12. Mr. Big Stuff - Jean Knight
13. The Perfect Year - Dina Carroll
14. My Lovin' (You're Never Gonna Get It) - En Vogue
15. The Message From The Soul Sisters - Myra Barnes
16. Stoned Love - The Supremes
17. Love Makes A Woman - Barbara Acklin
18. Don't Mess With Bill - The Marvelettes
19. Wish I Didn?t Miss You - Angie Stone
20. Do You Really Want To Rescue Me, Part 1 - Elsie Mae
21. What A Man - Linda Lyndell

Disk Three
1. Love To Love You Baby - Donna Summer
2. Whole Lotta Love - Tina Turner
3. Aretha - Rumer
4. Tell Mama - Etta James
5. Jimmy Mack - Martha & The Vandellas
6. Nathan Jones - The Supremes
7. Obsessed - Mariah Carey
8. Rescue Me - Fontella Bass
9. Theme From Mahogany (Do You Know Where You're Going To) - Diana Ross
10. I’m Gonna Tear Your Playhouse Down - Ann Peebles
11. Mama Feelgood - Lyn Collins, The J.B.'s
12. When You Gonna Learn - Beverley Knight
13. Oh No Not My Baby - Maxine Brown
14. The Way That I Love You - Ashanti
15. Piano In The Dark - Brenda Russell
16. Yes We Can Can - The Pointer Sisters
17. Grandma's Hands - Blossoms
18. Unwind Yourself - Extended Edit
19. What Have You Done For Me Lately? - Sharon Jones And The Dap Kings
20. Honey - Erykah Badu