Subcategories

VA - The Many Faces Of Daft Punk (2015)

Posted By: popsakov
VA - The Many Faces Of Daft Punk (2015)

VA - The Many Faces Of Daft Punk (2015)
3CD | EAC Rip | FLAC (Img) + Cue + Log ~ 1,41 Gb | MP3 CBR320 ~ 528 Mb
Scans Included (JPG, 400 dpi) | RAR 5% Recovery
Electronic, Disco, House | Music Brokers #MBB7200

Daft Punk is one of the main exponents of the popularity of electronic music that emerged during the 90s. With their unique talent and unlimited imagination, this French duo has reinvented itself multiple times since its inception and along the road has re-energized the disco and house scene. After going through an electro era, now and via the highly successful album 'Random Access Memories'- they have immersed themselves into a 70's pop and funk sound that has led them to the peak of their popularity.

In The Many Faces Of Daft Punk we get into the fascinating inner world of the duo: its influence, guests artists, side projects, remixes and the music genres that they have influenced. The Many Faces of Daft Punk is a unique album, essential for both fans and followers to contemporary dance music. With remastered sound and a wonderful artwork, The Many Faces Of Daft Punk is an essential collection.

***************

VA - The Many Faces Of Daft Punk (2015)

Track List CD1- The Many Faces Of Daft Punk:

01. Nile Rodgers - Do What You Wanna Do (Mync Radio Edit) [03:09]
02. Benjamin Diamond - Little Scare (Album Version) [04:12]
03. Giorgio Moroder - Chase 2011 (Martin Brodin Dubbed Out Mix) [06:50]
04. Scott Grooves feat. Parilament/Funkadelic - Mothership Reconnection (Daft Pun… [07:16]
05. Richard Grey - One More Time (Chris Moody Remix) [07:59]
06. The Micronauts - Get Funky Get Down (Daft Punk Remix) [05:52]
07. Ruff Loaderz & Cut Up Boys - Music Sounds Better With You (Esquire Radio Edit) [03:56]
08. Benjamin Diamond - In Your Arms (We Gonna Make It) (Album Version) [04:20]
09. I:Cube - Disco Cubizm (Daft Punk Remix) [08:12]
10. Da Mongoloids - Spark Da Meth (Banginґ Like A Benzi Mix) [06:35]
11. Franz Ferdinand - Take Me Out (Daft Punk Remix) [04:35]

Exact Audio Copy V1.0 beta 3 from 29. August 2011

EAC extraction logfile from 6. August 2015, 13:48

Daft Punk / The Many Faces Of … CD1

Used drive : PIONEER BD-RW BDR-TD03 Adapter: 0 ID: 1

Read mode : Secure
Utilize accurate stream : Yes
Defeat audio cache : Yes
Make use of C2 pointers : No

Read offset correction : 667
Overread into Lead-In and Lead-Out : No
Fill up missing offset samples with silence : Yes
Delete leading and trailing silent blocks : No
Null samples used in CRC calculations : Yes
Used interface : Native Win32 interface for Win NT & 2000

Used output format : User Defined Encoder
Selected bitrate : 768 kBit/s
Quality : High
Add ID3 tag : No
Command line compressor : C:\Program Files (x86)\Exact Audio Copy\FLAC\FLAC.EXE
Additional command line options : -6 -V -T "ARTIST=%artist%" -T "TITLE=%title%" -T "ALBUM=%albumtitle%" -T "DATE=%year%" -T "TRACKNUMBER=%tracknr%" -T "GENRE=%genre%" -T "COMMENT=%comment%" -T "BAND=%albuminterpret%" -T "ALBUMARTIST=%albuminterpret%" -T "COMPOSER=%composer%" %haslyrics%–tag-from-file=LYRICS="%lyricsfile%"%haslyrics% -T "DISCNUMBER=%cdnumber%" -T "TOTALDISCS=%totalcds%" -T "TOTALTRACKS=%numtracks%" %hascover%–picture="%coverfile%"%hascover% %source% -o %dest%


TOC of the extracted CD

Track | Start | Length | Start sector | End sector
––––––––––––––––––––––––––––-
1 | 0:00.00 | 3:08.10 | 0 | 14109
2 | 3:08.10 | 4:11.66 | 14110 | 33000
3 | 7:20.01 | 6:49.38 | 33001 | 63713
4 | 14:09.39 | 7:15.47 | 63714 | 96385
5 | 21:25.11 | 7:58.66 | 96386 | 132301
6 | 29:24.02 | 5:51.29 | 132302 | 158655
7 | 35:15.31 | 3:55.19 | 158656 | 176299
8 | 39:10.50 | 4:20.00 | 176300 | 195799
9 | 43:30.50 | 8:11.10 | 195800 | 232634
10 | 51:41.60 | 6:34.38 | 232635 | 262222
11 | 58:16.23 | 4:34.19 | 262223 | 282791


Range status and errors

Selected range

Filename C:\Users\Deris\Desktop\TriDafPu\cd1\Daft Punk - The Many Faces Of … CD1.wav

Peak level 100.0 %
Extraction speed 4.8 X
Range quality 99.9 %
Test CRC AB188488
Copy CRC AB188488
Copy OK

No errors occurred


AccurateRip summary

Track 1 accurately ripped (confidence 3) [CCEABB3C] (AR v2)
Track 2 accurately ripped (confidence 3) [32C96C8E] (AR v2)
Track 3 accurately ripped (confidence 3) [4365F4A5] (AR v2)
Track 4 accurately ripped (confidence 3) [852CE870] (AR v2)
Track 5 accurately ripped (confidence 3) [2DC489A4] (AR v2)
Track 6 accurately ripped (confidence 3) [DDEFC122] (AR v2)
Track 7 accurately ripped (confidence 3) [5615466A] (AR v2)
Track 8 accurately ripped (confidence 3) [63BC1AD7] (AR v2)
Track 9 accurately ripped (confidence 3) [5AD2A0D6] (AR v2)
Track 10 accurately ripped (confidence 3) [F8AA2607] (AR v2)
Track 11 accurately ripped (confidence 3) [D4FD3713] (AR v2)

All tracks accurately ripped

End of status report

–– CUETools DB Plugin V2.1.3

[CTDB TOCID: sOkNWh_5UZwYYuVN7_ffPBy3CGw-] found, Submit result: sOkNWh_5UZwYYuVN7_ffPBy3CGw- has been confirmed
[b8f1cb48] (10/11) Accurately ripped
[823b079a] (01/11) No match


==== Log checksum 850B5B22348619A88A91F6D36DE6554DCDE771DF7F1D68BA0B664EA82EC4BFC0 ====

foobar2000 1.2.6 / Dynamic Range Meter 1.1.1
log date: 2015-08-09 03:12:43

––––––––––––––––––––––––––––––––––––––––
Analyzed: Daft Punk / The Many Faces Of … CD1
––––––––––––––––––––––––––––––––––––––––

DR Peak RMS Duration Track
––––––––––––––––––––––––––––––––––––––––
DR6 0.00 dB -7.51 dB 3:08 01-Nile Rodgers / Do What You Wanna Do (Mync Radio Edit)
DR7 -0.01 dB -8.53 dB 4:12 02-Benjamin Diamond / Little Scare (Album Version)
DR7 0.00 dB -8.65 dB 6:50 03-Giorgio Moroder / Chase 2011 (Martin Brodin Dubbed Out Mix)
DR7 0.00 dB -8.02 dB 7:16 04-Scott Grooves feat. Parilament/Funkadelic / Mothership Reconnection (Daft Pun…
DR7 -0.26 dB -9.26 dB 7:59 05-Richard Grey / One More Time (Chris Moody Remix)
DR5 0.00 dB -5.99 dB 5:51 06-The Micronauts / Get Funky Get Down (Daft Punk Remix)
DR8 0.00 dB -10.21 dB 3:55 07-Ruff Loaderz & Cut Up Boys / Music Sounds Better With You (Esquire Radio Edit)
DR6 0.00 dB -7.59 dB 4:20 08-Benjamin Diamond / In Your Arms (We Gonna Make It) (Album Version)
DR7 0.00 dB -7.79 dB 8:11 09-I:Cube / Disco Cubizm (Daft Punk Remix)
DR6 0.00 dB -7.31 dB 6:35 10-Da Mongoloids / Spark Da Meth (Banginґ Like A Benzi Mix)
DR6 -0.73 dB -7.86 dB 4:34 11-Franz Ferdinand / Take Me Out (Daft Punk Remix)
––––––––––––––––––––––––––––––––––––––––

Number of tracks: 11
Official DR value: DR6

Samplerate: 44100 Hz
Channels: 2
Bits per sample: 16
Bitrate: 980 kbps
Codec: FLAC
================================================================================

[CUETools log; Date: 09.08.2015 3:12:43; Version: 2.1.5]
[CTDB TOCID: sOkNWh_5UZwYYuVN7_ffPBy3CGw-] found.
Track | CTDB Status
1 | (11/12) Accurately ripped
2 | (11/12) Accurately ripped
3 | (11/12) Accurately ripped
4 | (11/12) Accurately ripped
5 | (11/12) Accurately ripped
6 | (11/12) Accurately ripped
7 | (11/12) Accurately ripped
8 | (11/12) Accurately ripped
9 | (11/12) Accurately ripped
10 | (11/12) Accurately ripped
11 | (11/12) Accurately ripped
[AccurateRip ID: 0019252f-00ddf1a9-8b0eba0b] found.
Track [ CRC | V2 ] Status
01 [f51ff205|cceabb3c] (0+3/3) Accurately ripped
02 [268e32c2|32c96c8e] (0+3/3) Accurately ripped
03 [17829973|4365f4a5] (0+3/3) Accurately ripped
04 [6fc04e93|852ce870] (0+3/3) Accurately ripped
05 [b4a2e8a7|2dc489a4] (0+3/3) Accurately ripped
06 [9fdeacf0|ddefc122] (0+3/3) Accurately ripped
07 [2b7660c3|5615466a] (0+3/3) Accurately ripped
08 [a00b6d4d|63bc1ad7] (0+3/3) Accurately ripped
09 [9ebb4056|5ad2a0d6] (0+3/3) Accurately ripped
10 [214b33cc|f8aa2607] (0+3/3) Accurately ripped
11 [5767a8bc|d4fd3713] (0+3/3) Accurately ripped

Track Peak [ CRC32 ] [W/O NULL] [ LOG ]
– 100,0 [AB188488] [87F40BD8] CRC32
01 100,0 [35C73F26] [3E4ECDF9]
02 99,8 [5350BC95] [6D6E0ADD]
03 100,0 [D8C92C6D] [5F57D7D3]
04 100,0 [56534D6B] [01112380]
05 97,0 [C8D16414] [B85106FC]
06 100,0 [14AF1E7B] [1ABD7E89]
07 100,0 [77185B45] [67B58008]
08 100,0 [8E989D2E] [516A0C32]
09 100,0 [BE971C61] [768ACA14]
10 100,0 [6712E9B2] [1CF92BF0]
11 91,9 [937DD9A3] [B5CA0E02]

VA - The Many Faces Of Daft Punk (2015)

Track List CD2 - Roots, & Influences:

01. Space - Magic Fly [04:18]
02. Cerrone - Supernature [04:28]
03. Acos Coolkas - Free Flight (Acos Coolkas Synth Touch Mix) [06:49]
04. The Whispers - And The Beat Goes On [03:55]
05. War - You Got The Power [02:41]
06. Space - Carry On, Turn Me On [07:13]
07. Sare Havlicek - White Russian (Lazy Summer) [05:20]
08. Arquiteq - Christine [05:04]
09. Oliver Cheatham - Get Down Saturday Night [07:10]
10. The Sugarhill Gang - Rapperґs Delight [03:37]
11. Peach - D.I.S.C.O. [03:29]
12. Gibsons Brothers - Cuba [07:52]

Exact Audio Copy V1.0 beta 3 from 29. August 2011

EAC extraction logfile from 7. August 2015, 10:59

Daft Punk / Roots & Influences CD2

Used drive : PIONEER BD-RW BDR-TD03 Adapter: 0 ID: 1

Read mode : Secure
Utilize accurate stream : Yes
Defeat audio cache : Yes
Make use of C2 pointers : No

Read offset correction : 667
Overread into Lead-In and Lead-Out : No
Fill up missing offset samples with silence : Yes
Delete leading and trailing silent blocks : No
Null samples used in CRC calculations : Yes
Used interface : Native Win32 interface for Win NT & 2000

Used output format : User Defined Encoder
Selected bitrate : 768 kBit/s
Quality : High
Add ID3 tag : No
Command line compressor : C:\Program Files (x86)\Exact Audio Copy\FLAC\FLAC.EXE
Additional command line options : -6 -V -T "ARTIST=%artist%" -T "TITLE=%title%" -T "ALBUM=%albumtitle%" -T "DATE=%year%" -T "TRACKNUMBER=%tracknr%" -T "GENRE=%genre%" -T "COMMENT=%comment%" -T "BAND=%albuminterpret%" -T "ALBUMARTIST=%albuminterpret%" -T "COMPOSER=%composer%" %haslyrics%–tag-from-file=LYRICS="%lyricsfile%"%haslyrics% -T "DISCNUMBER=%cdnumber%" -T "TOTALDISCS=%totalcds%" -T "TOTALTRACKS=%numtracks%" %hascover%–picture="%coverfile%"%hascover% %source% -o %dest%


TOC of the extracted CD

Track | Start | Length | Start sector | End sector
––––––––––––––––––––––––––––-
1 | 0:00.00 | 4:17.38 | 0 | 19312
2 | 4:17.38 | 4:27.38 | 19313 | 39375
3 | 8:45.01 | 6:49.00 | 39376 | 70050
4 | 15:34.01 | 3:54.10 | 70051 | 87610
5 | 19:28.11 | 2:40.19 | 87611 | 99629
6 | 22:08.30 | 7:12.10 | 99630 | 132039
7 | 29:20.40 | 5:19.29 | 132040 | 155993
8 | 34:39.69 | 5:03.57 | 155994 | 178775
9 | 39:43.51 | 7:09.57 | 178776 | 211007
10 | 46:53.33 | 3:36.10 | 211008 | 227217
11 | 50:29.43 | 3:28.38 | 227218 | 242855
12 | 53:58.06 | 7:51.57 | 242856 | 278237


Range status and errors

Selected range

Filename C:\Users\Deris\Desktop\TriDafPu\cd2\Daft Punk - Roots & Influences CD2.wav

Peak level 100.0 %
Extraction speed 4.8 X
Range quality 100.0 %
Test CRC 63FCE6E1
Copy CRC 63FCE6E1
Copy OK

No errors occurred


AccurateRip summary

Track 1 accurately ripped (confidence 3) [8CA2A308] (AR v2)
Track 2 accurately ripped (confidence 3) [EF506F8D] (AR v2)
Track 3 accurately ripped (confidence 3) [7A6C3A6D] (AR v2)
Track 4 accurately ripped (confidence 3) [85F4B7F3] (AR v2)
Track 5 accurately ripped (confidence 3) [FC2C3CEC] (AR v2)
Track 6 accurately ripped (confidence 3) [FF726B22] (AR v2)
Track 7 accurately ripped (confidence 3) [7EB495EE] (AR v2)
Track 8 accurately ripped (confidence 3) [0CE8E3E0] (AR v2)
Track 9 accurately ripped (confidence 3) [A0CAA7EF] (AR v2)
Track 10 accurately ripped (confidence 3) [A618C1BE] (AR v2)
Track 11 accurately ripped (confidence 3) [FDC245BD] (AR v2)
Track 12 accurately ripped (confidence 3) [611EC3F6] (AR v2)

All tracks accurately ripped

End of status report

–– CUETools DB Plugin V2.1.3

[CTDB TOCID: 0_8pFUeWDEuvkDwufY9SFKZI6iY-] found, Submit result: 0_8pFUeWDEuvkDwufY9SFKZI6iY- has been confirmed
[a66a729d] (10/11) Accurately ripped
[a782cbfe] (01/11) No match


==== Log checksum 00912DE15E6E28A90330659C4BD157AEE6A023F8F6EE69D813E20F606151D33F ====

foobar2000 1.2.6 / Dynamic Range Meter 1.1.1
log date: 2015-08-09 03:13:21

––––––––––––––––––––––––––––––––––––––––
Analyzed: Daft Punk / Roots & Influences CD2
––––––––––––––––––––––––––––––––––––––––

DR Peak RMS Duration Track
––––––––––––––––––––––––––––––––––––––––
DR5 0.00 dB -5.73 dB 4:18 01-Space / Magic Fly
DR7 -0.23 dB -8.06 dB 4:28 02-Cerrone / Supernature
DR4 -0.75 dB -5.94 dB 6:49 03-Acos Coolkas / Free Flight (Acos Coolkas Synth Touch Mix)
DR6 0.00 dB -7.57 dB 3:54 04-The Whispers / And The Beat Goes On
DR8 0.00 dB -8.57 dB 2:40 05-War / You Got The Power
DR5 0.00 dB -6.27 dB 7:12 06-Space / Carry On, Turn Me On
DR6 0.00 dB -6.99 dB 5:19 07-Sare Havlicek / White Russian (Lazy Summer)
DR4 0.00 dB -5.64 dB 5:04 08-Arquiteq / Christine
DR6 0.00 dB -7.22 dB 7:10 09-Oliver Cheatham / Get Down Saturday Night
DR7 0.00 dB -8.12 dB 3:36 10-The Sugarhill Gang / Rapperґs Delight
DR6 0.00 dB -7.18 dB 3:29 11-Peach / D.I.S.C.O.
DR6 0.00 dB -6.90 dB 7:52 12-Gibsons Brothers / Cuba
––––––––––––––––––––––––––––––––––––––––

Number of tracks: 12
Official DR value: DR6

Samplerate: 44100 Hz
Channels: 2
Bits per sample: 16
Bitrate: 1003 kbps
Codec: FLAC
================================================================================

[CUETools log; Date: 09.08.2015 3:13:22; Version: 2.1.5]
[CTDB TOCID: 0_8pFUeWDEuvkDwufY9SFKZI6iY-] found.
Track | CTDB Status
1 | (11/12) Accurately ripped
2 | (11/12) Accurately ripped
3 | (11/12) Accurately ripped
4 | (11/12) Accurately ripped
5 | (11/12) Accurately ripped
6 | (11/12) Accurately ripped
7 | (11/12) Accurately ripped
8 | (11/12) Accurately ripped
9 | (11/12) Accurately ripped
10 | (11/12) Accurately ripped
11 | (11/12) Accurately ripped
12 | (11/12) Accurately ripped
[AccurateRip ID: 001a951f-00fa2a66-8f0e7d0c] found.
Track [ CRC | V2 ] Status
01 [e35550ee|8ca2a308] (0+3/3) Accurately ripped
02 [29ebb6e5|ef506f8d] (0+3/3) Accurately ripped
03 [c8a5d6e9|7a6c3a6d] (0+3/3) Accurately ripped
04 [1221fed0|85f4b7f3] (0+3/3) Accurately ripped
05 [d3faa4bb|fc2c3cec] (0+3/3) Accurately ripped
06 [870444ec|ff726b22] (0+3/3) Accurately ripped
07 [bab833b7|7eb495ee] (0+3/3) Accurately ripped
08 [17f340b3|0ce8e3e0] (0+3/3) Accurately ripped
09 [bb140b6b|a0caa7ef] (0+3/3) Accurately ripped
10 [1cff4f17|a618c1be] (0+3/3) Accurately ripped
11 [e6a52127|fdc245bd] (0+3/3) Accurately ripped
12 [f990b5e7|611ec3f6] (0+3/3) Accurately ripped

Track Peak [ CRC32 ] [W/O NULL] [ LOG ]
– 100,0 [63FCE6E1] [63716E32] CRC32
01 100,0 [6AA96E27] [2E68A3FF]
02 97,3 [23526028] [13D655B1]
03 91,6 [C285C10E] [27B7DFA9]
04 100,0 [F9E86370] [F2F55088]
05 100,0 [C53F9FA4] [11CA989E]
06 100,0 [4F047B7B] [AFB58C22]
07 100,0 [E01CE8C0] [E4D660BB]
08 100,0 [4F1B8B93] [B800E9D9]
09 100,0 [D1D617A6] [C974725D]
10 100,0 [C648F05F] [3BFF894D]
11 100,0 [A2095975] [D5726BF9]
12 100,0 [EB4DC6D0] [A98EDF34]

VA - The Many Faces Of Daft Punk (2015)

Track List CD3 - The Nu Disco Scene:

01. Get Lucky - Karen Souza [04:58]
02. Bout A Thing - Ututut [03:45]
03. Sweet System - Kiwi Funk [02:39]
04. This Disco Rocks - G-Love Divine [04:57]
05. Wonderboogie - Mister Salo [05:13]
06. Shakeee - Max Vertigo & Sevenever [06:17]
07. Let's Go Suave - A & D [06:16]
08. Hands In The Air - Dino Grand & Roni Iron [03:58]
09. Kursh Groove - Sprite [06:28]
10. Close Your Eyes - Dj Fuzzy [05:18]
11. Bangin' Sesam - Beatkind [05:46]
12. Hip Hop Myself - Max (Italy) [07:22]

Exact Audio Copy V1.0 beta 3 from 29. August 2011

EAC extraction logfile from 7. August 2015, 12:37

Daft Punk / The Nu Disco Scene

Used drive : PIONEER BD-RW BDR-TD03 Adapter: 0 ID: 1

Read mode : Secure
Utilize accurate stream : Yes
Defeat audio cache : Yes
Make use of C2 pointers : No

Read offset correction : 667
Overread into Lead-In and Lead-Out : No
Fill up missing offset samples with silence : Yes
Delete leading and trailing silent blocks : No
Null samples used in CRC calculations : Yes
Used interface : Native Win32 interface for Win NT & 2000

Used output format : User Defined Encoder
Selected bitrate : 768 kBit/s
Quality : High
Add ID3 tag : No
Command line compressor : C:\Program Files (x86)\Exact Audio Copy\FLAC\FLAC.EXE
Additional command line options : -6 -V -T "ARTIST=%artist%" -T "TITLE=%title%" -T "ALBUM=%albumtitle%" -T "DATE=%year%" -T "TRACKNUMBER=%tracknr%" -T "GENRE=%genre%" -T "COMMENT=%comment%" -T "BAND=%albuminterpret%" -T "ALBUMARTIST=%albuminterpret%" -T "COMPOSER=%composer%" %haslyrics%–tag-from-file=LYRICS="%lyricsfile%"%haslyrics% -T "DISCNUMBER=%cdnumber%" -T "TOTALDISCS=%totalcds%" -T "TOTALTRACKS=%numtracks%" %hascover%–picture="%coverfile%"%hascover% %source% -o %dest%


TOC of the extracted CD

Track | Start | Length | Start sector | End sector
––––––––––––––––––––––––––––-
1 | 0:00.00 | 4:57.50 | 0 | 22324
2 | 4:57.50 | 3:44.13 | 22325 | 39137
3 | 8:41.63 | 2:38.45 | 39138 | 51032
4 | 11:20.33 | 4:56.64 | 51033 | 73296
5 | 16:17.22 | 5:12.31 | 73297 | 96727
6 | 21:29.53 | 6:16.54 | 96728 | 124981
7 | 27:46.32 | 6:15.10 | 124982 | 153116
8 | 34:01.42 | 3:57.59 | 153117 | 170950
9 | 37:59.26 | 6:27.59 | 170951 | 200034
10 | 44:27.10 | 5:17.54 | 200035 | 223863
11 | 49:44.64 | 5:45.21 | 223864 | 249759
12 | 55:30.10 | 7:21.10 | 249760 | 282844


Range status and errors

Selected range

Filename C:\Users\Deris\Desktop\TriDafPu\cd3\Daft Punk - The Nu Disco Scene.wav

Peak level 100.0 %
Extraction speed 4.8 X
Range quality 100.0 %
Test CRC 383C8B1E
Copy CRC 383C8B1E
Copy OK

No errors occurred


AccurateRip summary

Track 1 accurately ripped (confidence 3) [210BA58A] (AR v2)
Track 2 accurately ripped (confidence 3) [C3575D89] (AR v2)
Track 3 accurately ripped (confidence 3) [3F8F6A04] (AR v2)
Track 4 accurately ripped (confidence 3) [57C1B9B8] (AR v2)
Track 5 accurately ripped (confidence 3) [BEC6938A] (AR v2)
Track 6 accurately ripped (confidence 3) [270BBB10] (AR v2)
Track 7 accurately ripped (confidence 3) [FE3580DC] (AR v2)
Track 8 accurately ripped (confidence 3) [93C07F61] (AR v2)
Track 9 accurately ripped (confidence 3) [0EE5DD82] (AR v2)
Track 10 accurately ripped (confidence 3) [4F6FD42E] (AR v2)
Track 11 accurately ripped (confidence 3) [D4566B51] (AR v2)
Track 12 accurately ripped (confidence 3) [3FEB420C] (AR v2)

All tracks accurately ripped

End of status report

–– CUETools DB Plugin V2.1.3

[CTDB TOCID: 8xc.IXUe3XLSPcwYXCmSQFQ3Mh0-] found, Submit result: 8xc.IXUe3XLSPcwYXCmSQFQ3Mh0- has been confirmed
[3942926c] (11/12) Accurately ripped
[b7ed653f] (01/12) No match


==== Log checksum F5035796878438719E5729ABDBB05C981A6305B22099E80EDAACB71294FCD7BE ====

foobar2000 1.2.6 / Dynamic Range Meter 1.1.1
log date: 2015-08-09 03:14:11

––––––––––––––––––––––––––––––––––––––––
Analyzed: Daft Punk / The Nu Disco Scene
––––––––––––––––––––––––––––––––––––––––

DR Peak RMS Duration Track
––––––––––––––––––––––––––––––––––––––––
DR7 0.00 dB -8.65 dB 4:58 01-Get Lucky - Karen Souza
DR7 -1.20 dB -8.68 dB 3:44 02-Bout A Thing - Ututut
DR8 0.00 dB -9.62 dB 2:39 03-Sweet System - Kiwi Funk
DR8 0.00 dB -8.23 dB 4:57 04-This Disco Rocks - G-Love Divine
DR8 0.00 dB -9.17 dB 5:12 05-Wonderboogie - Mister Salo
DR8 0.00 dB -8.92 dB 6:17 06-Shakeee - Max Vertigo & Sevenever
DR7 0.00 dB -8.54 dB 6:15 07-Let's Go Suave - A & D
DR8 0.00 dB -9.05 dB 3:58 08-Hands In The Air - Dino Grand & Roni Iron
DR7 0.00 dB -8.79 dB 6:28 09-Kursh Groove - Sprite
DR8 0.00 dB -9.00 dB 5:18 10-Close Your Eyes - Dj Fuzzy
DR6 0.00 dB -7.76 dB 5:45 11-Bangin' Sesam - Beatkind
DR6 -0.60 dB -8.24 dB 7:21 12-Hip Hop Myself - Max (Italy)
––––––––––––––––––––––––––––––––––––––––

Number of tracks: 12
Official DR value: DR7

Samplerate: 44100 Hz
Channels: 2
Bits per sample: 16
Bitrate: 937 kbps
Codec: FLAC
================================================================================

[CUETools log; Date: 09.08.2015 3:14:13; Version: 2.1.5]
[CTDB TOCID: 8xc.IXUe3XLSPcwYXCmSQFQ3Mh0-] found.
Track | CTDB Status
1 | (12/13) Accurately ripped
2 | (12/13) Accurately ripped
3 | (12/13) Accurately ripped
4 | (12/13) Accurately ripped
5 | (12/13) Accurately ripped
6 | (12/13) Accurately ripped
7 | (12/13) Accurately ripped
8 | (12/13) Accurately ripped
9 | (12/13) Accurately ripped
10 | (12/13) Accurately ripped
11 | (12/13) Accurately ripped
12 | (12/13) Accurately ripped
[AccurateRip ID: 0019c20b-00f57d3a-bc0ebb0c] found.
Track [ CRC | V2 ] Status
01 [b1ccdd71|210ba58a] (0+3/3) Accurately ripped
02 [ade97d4e|c3575d89] (0+3/3) Accurately ripped
03 [f9cd958e|3f8f6a04] (0+3/3) Accurately ripped
04 [dea4fc0c|57c1b9b8] (0+3/3) Accurately ripped
05 [3b6921a8|bec6938a] (0+3/3) Accurately ripped
06 [e5653657|270bbb10] (0+3/3) Accurately ripped
07 [196c9039|fe3580dc] (0+3/3) Accurately ripped
08 [2d7ae743|93c07f61] (0+3/3) Accurately ripped
09 [c838f787|0ee5dd82] (0+3/3) Accurately ripped
10 [5b1ab70e|4f6fd42e] (0+3/3) Accurately ripped
11 [cf547d3a|d4566b51] (0+3/3) Accurately ripped
12 [f18f4989|3feb420c] (0+3/3) Accurately ripped

Track Peak [ CRC32 ] [W/O NULL] [ LOG ]
– 100,0 [383C8B1E] [DB6A7AF2] CRC32
01 100,0 [76F215FD] [1ED975DA]
02 87,0 [8884C816] [11B0D10E]
03 100,0 [A45DAB00] [BE349AC6]
04 100,0 [E0341AAF] [DAAC10F9]
05 100,0 [33BD9DA9] [AEAA7E6E]
06 100,0 [8D1F6D52] [9981A322]
07 100,0 [ED36E6BA] [9C2A367F]
08 100,0 [EF6850CE] [7F992A26]
09 100,0 [A02FC6F1] [EFB0FD2E]
10 100,0 [1FCAB766] [9CF52B5C]
11 100,0 [3D710F96] [ED1C712A]
12 93,3 [FEC0645F] [03800757]

VA - The Many Faces Of Daft Punk (2015)