Subcategories

VA - The Many Faces Of Lou Reed: A Journey Through The Inner World Of Lou Reed (2016)

Posted By: Pisulik
VA - The Many Faces Of Lou Reed: A Journey Through The Inner World Of Lou Reed (2016)

VA - The Many Faces Of Lou Reed: A Journey Through The Inner World Of Lou Reed (2016)
EAC Rip | FLAC (image) +cue, log - 1.17 GB | MP3 CBR 320 kbps - 550 MB | 03:07:39
Rock, Punk Rock, Art Rock, Glam Rock | Label: Music Brokers | Release Year: 2016

Along with Iggy Pop, Lou Reed has been one of the most outrageous artists of the 70s; an ambassador of the underground world that lives within each cosmopolitan city and always living life to the limit. With a remarkable literary talent and always pushing the limits sound wise, Lou became one of the most iconic artists ever, both as leader of The Velvet Underground and as a solo artist. The Many Faces Of Lou Reed is a journey through his side projects, little-known collaborations with artists such as bass player Fernando Saunders or legendary soul keyboardist Booker T.Jones; his live shows along the Velvet Underground and the Rock And Roll Heart tour (one of their most inspired). It is also a walk thru his immortal body of work, in the hands of artists who recognize him as their main influence. The Many Faces Of Lou Reed is a fundamental album for every rock music fan, a fantastic journey through unknown works, presented with extended liner notes, a luxurious cover art and remastered sound. Also…remember that it's not available on streaming platforms.

TRACKLIST

CD1
01. Fernando Saunders feat Lou Reed - Jesus (3:54)
02. Booker T.Jones feat Lou Reed - The Bronx (4:39)
03. The Velvet Underground - I'm Waiting For The Man (Live) (5:29)
04. The Velvet Underground - Lisa Says (Live) (5:49)
05. The Velvet Underground - Beginning To See The Light (Live) (5:26)
06. The Velvet Underground - I'll Be Your Mirror (Live) (2:16)
07. The Velvet Underground - Pale Blue Eyes (Live) (5:48)
08. The Velvet Underground - New Age (Live) (6:26)
09. The Velvet Underground - Some Kind Of Love (Live) (4:00)
10. The Velvet Underground - Sweet Bonnie Brown / It's Just Too Much (Live) (7:54)
11. Lou Reed - Coney Island Baby (Live) (7:25)
12. Lou Reed - Heroin (Live) (9:36)

Exact Audio Copy V1.0 beta 3 from 29. August 2011

EAC extraction logfile from 12. February 2017, 0:51

Various Artists / Many Faces Of Lou Reed CD1 Rare Recordings And The Velvet Underground Days

Used drive : PIONEER BD-RW BDR-TD03 Adapter: 0 ID: 1

Read mode : Secure
Utilize accurate stream : Yes
Defeat audio cache : Yes
Make use of C2 pointers : No

Read offset correction : 667
Overread into Lead-In and Lead-Out : No
Fill up missing offset samples with silence : Yes
Delete leading and trailing silent blocks : No
Null samples used in CRC calculations : Yes
Used interface : Native Win32 interface for Win NT & 2000

Used output format : User Defined Encoder
Selected bitrate : 768 kBit/s
Quality : High
Add ID3 tag : No
Command line compressor : C:\Program Files (x86)\Exact Audio Copy\FLAC\FLAC.EXE
Additional command line options : -6 -V -T "ARTIST=%artist%" -T "TITLE=%title%" -T "ALBUM=%albumtitle%" -T "DATE=%year%" -T "TRACKNUMBER=%tracknr%" -T "GENRE=%genre%" -T "COMMENT=%comment%" -T "BAND=%albuminterpret%" -T "ALBUMARTIST=%albuminterpret%" -T "COMPOSER=%composer%" %haslyrics%–tag-from-file=LYRICS="%lyricsfile%"%haslyrics% -T "DISCNUMBER=%cdnumber%" -T "TOTALDISCS=%totalcds%" -T "TOTALTRACKS=%numtracks%" %hascover%–picture="%coverfile%"%hascover% %source% -o %dest%


TOC of the extracted CD

Track | Start | Length | Start sector | End sector
––––––––––––––––––––––––––––-
1 | 0:00.00 | 3:54.00 | 0 | 17549
2 | 3:54.00 | 4:39.57 | 17550 | 38531
3 | 8:33.57 | 5:29.19 | 38532 | 63225
4 | 14:03.01 | 5:49.19 | 63226 | 89419
5 | 19:52.20 | 5:26.00 | 89420 | 113869
6 | 25:18.20 | 2:16.57 | 113870 | 124126
7 | 27:35.02 | 5:48.19 | 124127 | 150245
8 | 33:23.21 | 6:26.38 | 150246 | 179233
9 | 39:49.59 | 4:00.00 | 179234 | 197233
10 | 43:49.59 | 7:54.57 | 197234 | 232840
11 | 51:44.41 | 7:25.19 | 232841 | 266234
12 | 59:09.60 | 9:38.38 | 266235 | 309622


Range status and errors

Selected range

Filename C:\Users\Deris\Desktop\kpnemo.eu\TriLouRe\CD1\Various Artists - Many Faces Of Lou Reed CD1 Rare Recordings And The Velvet Underground Days.wav

Peak level 100.0 %
Extraction speed 5.1 X
Range quality 100.0 %
Test CRC B2A4771D
Copy CRC B2A4771D
Copy OK

No errors occurred


AccurateRip summary

Track 1 not present in database
Track 2 not present in database
Track 3 not present in database
Track 4 not present in database
Track 5 not present in database
Track 6 not present in database
Track 7 not present in database
Track 8 not present in database
Track 9 not present in database
Track 10 not present in database
Track 11 not present in database
Track 12 not present in database

None of the tracks are present in the AccurateRip database

End of status report

–– CUETools DB Plugin V2.1.3

[CTDB TOCID: vNCjB5hRvRKCwhcS9.YssD9Cm0c-] found, Submit result: vNCjB5hRvRKCwhcS9.YssD9Cm0c- has been confirmed
[e16c2c5d] (1/1) Accurately ripped


==== Log checksum EA04CDF0BC5320119F874F932C14B8B496A785989AD94C6E118F8FC59726591C ====


CD2
01. Sweet Jane (5:01)
02. Kill Your Sons (4:57)
03. Charley's Girl (5:28)
04. How Do You Think It Feels (4:46)
05. Lisa Says (7:05)
06. You Wear It So Well (4:15)
07. Satellite Of Love (5:21)
08. Berlin (5:49)
09. The Kids (5:14)
10. Oh Jim! (8:07)
11. I'm Waiting For The Man (9:01)
12. Walk On The Wild Side (5:13)

Exact Audio Copy V1.0 beta 3 from 29. August 2011

EAC extraction logfile from 13. February 2017, 0:42

Lou Reed / Many Faces Of Lou Reed CD2 Lou Reed: Rock And Roll Heart Tour 1976

Used drive : PIONEER BD-RW BDR-TD03 Adapter: 0 ID: 1

Read mode : Secure
Utilize accurate stream : Yes
Defeat audio cache : Yes
Make use of C2 pointers : No

Read offset correction : 667
Overread into Lead-In and Lead-Out : No
Fill up missing offset samples with silence : Yes
Delete leading and trailing silent blocks : No
Null samples used in CRC calculations : Yes
Used interface : Native Win32 interface for Win NT & 2000

Used output format : User Defined Encoder
Selected bitrate : 768 kBit/s
Quality : High
Add ID3 tag : No
Command line compressor : C:\Program Files (x86)\Exact Audio Copy\FLAC\FLAC.EXE
Additional command line options : -6 -V -T "ARTIST=%artist%" -T "TITLE=%title%" -T "ALBUM=%albumtitle%" -T "DATE=%year%" -T "TRACKNUMBER=%tracknr%" -T "GENRE=%genre%" -T "COMMENT=%comment%" -T "BAND=%albuminterpret%" -T "ALBUMARTIST=%albuminterpret%" -T "COMPOSER=%composer%" %haslyrics%–tag-from-file=LYRICS="%lyricsfile%"%haslyrics% -T "DISCNUMBER=%cdnumber%" -T "TOTALDISCS=%totalcds%" -T "TOTALTRACKS=%numtracks%" %hascover%–picture="%coverfile%"%hascover% %source% -o %dest%


TOC of the extracted CD

Track | Start | Length | Start sector | End sector
––––––––––––––––––––––––––––-
1 | 0:00.00 | 5:01.18 | 0 | 22592
2 | 5:01.18 | 4:57.56 | 22593 | 44923
3 | 9:58.74 | 5:28.56 | 44924 | 69579
4 | 15:27.55 | 4:46.37 | 69580 | 91066
5 | 20:14.17 | 7:05.56 | 91067 | 122997
6 | 27:19.73 | 4:15.74 | 122998 | 142196
7 | 31:35.72 | 5:21.73 | 142197 | 166344
8 | 36:57.70 | 5:49.17 | 166345 | 192536
9 | 42:47.12 | 5:14.18 | 192537 | 216104
10 | 48:01.30 | 8:07.55 | 216105 | 252684
11 | 56:09.10 | 9:01.70 | 252685 | 293329
12 | 65:11.05 | 5:13.00 | 293330 | 316804


Range status and errors

Selected range

Filename C:\Users\Deris\Desktop\kpnemo.eu\TriLouRe\CD2\Many Faces Of Lou Reed CD2 Lou Reed- Rock And Roll Heart Tour 1976.wav

Peak level 100.0 %
Extraction speed 5.1 X
Range quality 99.9 %
Test CRC A53F1A5D
Copy CRC A53F1A5D
Copy OK

No errors occurred


AccurateRip summary

Track 1 not present in database
Track 2 not present in database
Track 3 not present in database
Track 4 not present in database
Track 5 not present in database
Track 6 not present in database
Track 7 not present in database
Track 8 not present in database
Track 9 not present in database
Track 10 not present in database
Track 11 not present in database
Track 12 not present in database

None of the tracks are present in the AccurateRip database

End of status report

–– CUETools DB Plugin V2.1.3

[CTDB TOCID: z8fdQE86UGt76aOcv39QucGr6r8-] found, Submit result: z8fdQE86UGt76aOcv39QucGr6r8- has been confirmed
[9b34ca21] (1/1) Accurately ripped


==== Log checksum C3F8D2AF3FF6DE41CF3E5D680374AC396CC64670F0990505B3CA9B6731713CBB ====


CD3
01. Johnny J.Blair & The Cellabirds - Sunday Morning (3:17)
02. Kowtow Popof - Satellite Of Love (5:03)
03. Cordalene - Who Loves The Sun (2:58)
04. Book Pridermore - After Hours (2:12)
05. The Crowd Scene - Candy Says (3:27)
06. Radio Caroline - Pale Blue Eyes (3:31)
07. Okapi Guitars - Vicious (5:18)
08. TV For Dogs - How Do You Think It Feels (3:49)
09. The Special Agents - All Tomorrow's (Beach) Parties (2:48)
10. Silent 4 - I Love You (2:21)
11. Joe Scinta - Temptation Inside Your Heart (2:30)
12. Music For Viola - Going Down (3:13)
13. The Underhills - Turn To Me (4:31)
14. Lee Rude - Cremation (3:25)

Exact Audio Copy V1.0 beta 3 from 29. August 2011

EAC extraction logfile from 16. February 2017, 0:16

Various Artists / Many Faces Of Lou Reed CD3 The Songs

Used drive : PIONEER BD-RW BDR-TD03 Adapter: 0 ID: 1

Read mode : Secure
Utilize accurate stream : Yes
Defeat audio cache : Yes
Make use of C2 pointers : No

Read offset correction : 667
Overread into Lead-In and Lead-Out : No
Fill up missing offset samples with silence : Yes
Delete leading and trailing silent blocks : No
Null samples used in CRC calculations : Yes
Used interface : Native Win32 interface for Win NT & 2000

Used output format : User Defined Encoder
Selected bitrate : 768 kBit/s
Quality : High
Add ID3 tag : No
Command line compressor : C:\Program Files (x86)\Exact Audio Copy\FLAC\FLAC.EXE
Additional command line options : -6 -V -T "ARTIST=%artist%" -T "TITLE=%title%" -T "ALBUM=%albumtitle%" -T "DATE=%year%" -T "TRACKNUMBER=%tracknr%" -T "GENRE=%genre%" -T "COMMENT=%comment%" -T "BAND=%albuminterpret%" -T "ALBUMARTIST=%albuminterpret%" -T "COMPOSER=%composer%" %haslyrics%–tag-from-file=LYRICS="%lyricsfile%"%haslyrics% -T "DISCNUMBER=%cdnumber%" -T "TOTALDISCS=%totalcds%" -T "TOTALTRACKS=%numtracks%" %hascover%–picture="%coverfile%"%hascover% %source% -o %dest%


TOC of the extracted CD

Track | Start | Length | Start sector | End sector
––––––––––––––––––––––––––––-
1 | 0:00.00 | 3:17.19 | 0 | 14793
2 | 3:17.19 | 5:03.38 | 14794 | 37556
3 | 8:20.57 | 2:58.00 | 37557 | 50906
4 | 11:18.57 | 2:12.38 | 50907 | 60844
5 | 13:31.20 | 3:27.38 | 60845 | 76407
6 | 16:58.58 | 3:31.38 | 76408 | 92270
7 | 20:30.21 | 5:18.00 | 92271 | 116120
8 | 25:48.21 | 3:49.19 | 116121 | 133314
9 | 29:37.40 | 2:48.38 | 133315 | 145952
10 | 32:26.03 | 2:21.57 | 145953 | 156584
11 | 34:47.60 | 2:30.00 | 156585 | 167834
12 | 37:17.60 | 3:13.19 | 167835 | 182328
13 | 40:31.04 | 4:31.00 | 182329 | 202653
14 | 45:02.04 | 3:25.19 | 202654 | 218047


Range status and errors

Selected range

Filename C:\Users\Deris\Desktop\kpnemo.eu\TriLouRe\CD3\Various Artists - Many Faces Of Lou Reed CD3 The Songs.wav

Peak level 100.0 %
Extraction speed 4.7 X
Range quality 100.0 %
Test CRC 6506747D
Copy CRC 6506747D
Copy OK

No errors occurred


AccurateRip summary

Track 1 not present in database
Track 2 not present in database
Track 3 not present in database
Track 4 not present in database
Track 5 not present in database
Track 6 not present in database
Track 7 not present in database
Track 8 not present in database
Track 9 not present in database
Track 10 not present in database
Track 11 not present in database
Track 12 not present in database
Track 13 not present in database
Track 14 not present in database

None of the tracks are present in the AccurateRip database

End of status report

–– CUETools DB Plugin V2.1.3

[CTDB TOCID: wG3vrkT765Fc3p1oDsR921Q907s-] found, Submit result: wG3vrkT765Fc3p1oDsR921Q907s- has been confirmed
[06916f5a] (1/1) Accurately ripped


==== Log checksum 483F353403C960D6A62EE2C49C7DBF7D280BCD346172A4544D559753378E2E34 ====


All thanks go to the original releaser