Subcategories

Valensia - K.O.S.M.O.S (1996) [2018, Universal Music Japan UICY-78637]

Posted By: v3122
Valensia - K.O.S.M.O.S (1996) [2018, Universal Music Japan UICY-78637]

Valensia - K.O.S.M.O.S (1996)
EAC | Flac(Image) + Cue + Log & MP3 CBR 320Kbps
Universal Music Japan UICY-78637 | ~ 311 or 121 Mb | Scans(jpg) -> 121 Mb
Classic Rock, Symphonic Rock, Prog Rock

Valensia's second album "Valensia II" (also known as "K.O.S.M.O.S.") was the first Dutch surround sound CD ever made. It was, again, a success in Japan, but his Dutch record company didn't want to promote it. Due to this fact, it received less attention than it perhaps deserved in the Netherlands. K.O.S.M.O.S (Valensia often refers to it as "Costmost") was the most expensive album in the history of the Netherlands.
Valensia - K.O.S.M.O.S (1996):

Valensia - K.O.S.M.O.S (1996) [2018, Universal Music Japan UICY-78637]

Tracklist:

01. The barely acceptable truth of knowing 1:36
02. The barely acceptable truth of knowing II 4:50
03. Thunderbolt 4:18
04. Bleeding 4:58
05. Kosmos 4:20
06. The polka 3:34
07. Chique, mystique & excentrique 2:58
08. Never eyes 3:09
09. Cassopeian sky surveillance 0:48
10. The cassopeian 4:40
11. The masquerade 4:21
12. Blasphemian charlatan 4:51
13. Blue rain 6:00

Exact Audio Copy V1.3 from 2. September 2016

Отчёт EAC об извлечении, выполненном 19. июня 2018, 17:56

Valensia / KOSMOS

Дисковод: ASUS DRW-24B3ST Adapter: 1 ID: 0

Режим чтения : Достоверность
Использование точного потока : Да
Отключение кэша аудио : Да
Использование указателей C2 : Нет

Коррекция смещения при чтении : 6
Способность читать области Lead-in и Lead-out : Нет
Заполнение пропущенных сэмплов тишиной : Да
Удаление блоков с тишиной в начале и конце : Нет
При вычислениях CRC использовались нулевые сэмплы : Да
Интерфейс : Встроенный Win32-интерфейс для Win NT/2000

Выходной формат : Пользовательский кодировщик
Выбранный битрейт : 1024 kBit/s
Качество : Высокий
Добавление ID3-тега : Нет
Утилита сжатия : C:\Program Files (x86)\Exact Audio Copy\Flac\flac.exe
Дополнительные параметры : -V -8 -T "Date=%year%" -T "Genre=%genre%" %source%


TOC извлечённого CD

Трек | Старт | Длительность | Начальный сектор | Конечный сектор
––––––––––––––––––––––––––––––––––-
1 | 0:00.00 | 1:35.65 | 0 | 7189
2 | 1:35.65 | 4:49.45 | 7190 | 28909
3 | 6:25.35 | 4:18.17 | 28910 | 48276
4 | 10:43.52 | 4:57.65 | 48277 | 70616
5 | 15:41.42 | 4:20.10 | 70617 | 90126
6 | 20:01.52 | 3:33.43 | 90127 | 106144
7 | 23:35.20 | 2:58.22 | 106145 | 119516
8 | 26:33.42 | 3:09.25 | 119517 | 133716
9 | 29:42.67 | 0:47.43 | 133717 | 137284
10 | 30:30.35 | 4:39.45 | 137285 | 158254
11 | 35:10.05 | 4:21.00 | 158255 | 177829
12 | 39:31.05 | 4:50.47 | 177830 | 199626
13 | 44:21.52 | 6:00.08 | 199627 | 226634


Характеристики диапазона извлечения и сообщения об ошибках

Выбранный диапазон

Имя файла E:\Torrents-seed\Valensia - 2 Albums\1996 - K.O.S.M.O.S\Valensia - KOSMOS.wav

Пиковый уровень 100.0 %
Скорость извлечения 8.3 X
Качество диапазона 100.0 %
CRC теста DE017BCD
CRC копии DE017BCD
Копирование… OK

Ошибок не произошло


AccurateRip: сводка

Трек 1 точность не определена (достоверность 3) [99EC1B07], AccurateRip вернул [40C151BC] (AR v2)
Трек 2 точность не определена (достоверность 3) [29144F48], AccurateRip вернул [5E2E9C49] (AR v2)
Трек 3 точность не определена (достоверность 3) [D4F54173], AccurateRip вернул [78C0ABB5] (AR v2)
Трек 4 точность не определена (достоверность 3) [21C5BDA5], AccurateRip вернул [6BB043F9] (AR v2)
Трек 5 точность не определена (достоверность 3) [9D0AEC1E], AccurateRip вернул [65B35C9F] (AR v2)
Трек 6 точность не определена (достоверность 3) [B22DB91B], AccurateRip вернул [62D6D2E9] (AR v2)
Трек 7 точность не определена (достоверность 3) [04E235D1], AccurateRip вернул [32F4E05D] (AR v2)
Трек 8 точность не определена (достоверность 3) [463AE9F8], AccurateRip вернул [78F291BC] (AR v2)
Трек 9 точность не определена (достоверность 3) [94329F90], AccurateRip вернул [DC6AD148] (AR v2)
Трек 10 точность не определена (достоверность 3) [4C2CB9A6], AccurateRip вернул [4887B9A4] (AR v2)
Трек 11 точность не определена (достоверность 3) [BE51B921], AccurateRip вернул [EB91B92D] (AR v2)
Трек 12 точность не определена (достоверность 3) [1F0B5571], AccurateRip вернул [D6F327DE] (AR v2)
Трек 13 точность не определена (достоверность 3) [C25B6CC6], AccurateRip вернул [AFB1E728] (AR v2)

Ни один трек не прошёл проверки на точность
В вашей базе может быть иной вариант штамповки диска

Конец отчёта

==== Контрольная сумма отчёта B843D579D0072192FC6C8A5957C9AB1ED47F2A3CBB1B0DC19B4F99FCE737FD87 ====


[CUETools log; Date: 20.06.2018 12:22:23; Version: 2.1.5]
[AccurateRip ID: 0016f384-00e68116-b20bcd0d] found.
Track [ CRC | V2 ] Status
01 [debb6f44|99ec1b07] (0+0/3) No match
02 [4e79a4f2|29144f48] (0+0/3) No match
03 [3c8749c5|d4f54173] (0+0/3) No match
04 [c25324ba|21c5bda5] (0+0/3) No match
05 [70ea525f|9d0aec1e] (0+0/3) No match
06 [67fc2034|b22db91b] (0+0/3) No match
07 [affb049b|04e235d1] (0+0/3) No match
08 [de658af4|463ae9f8] (0+0/3) No match
09 [bb5ed891|94329f90] (0+0/3) No match
10 [e393705b|4c2cb9a6] (0+0/3) No match
11 [320774b8|be51b921] (0+0/3) No match
12 [8b04fdff|1f0b5571] (0+0/3) No match
13 [e02db47d|c25b6cc6] (0+0/3) No match
Offsetted by 539:
01 [793d92b4] (0/3) No match (V2 was not tested)
02 [53843bbd] (0/3) No match (V2 was not tested)
03 [cbdecaae] (0/3) No match (V2 was not tested)
04 [f07e93a1] (0/3) No match (V2 was not tested)
05 [1478aaaf] (0/3) No match (V2 was not tested)
06 [00fb8701] (0/3) No match (V2 was not tested)
07 [cc388a86] (0/3) No match (V2 was not tested)
08 [fea75c00] (0/3) No match (V2 was not tested)
09 [ffe22513] (0/3) No match (V2 was not tested)
10 [b5e74698] (0/3) No match (V2 was not tested)
11 [366e1843] (0/3) No match (V2 was not tested)
12 [178b39b9] (0/3) No match (V2 was not tested)
13 [a4806854] (0/3) No match (V2 was not tested)

Track Peak [ CRC32 ] [W/O NULL] [ LOG ]
– 100,0 [DE017BCD] [35D05788] CRC32
01 94,4 [C7BC2361] [0C31139A]
02 100,0 [5F6733A7] [C00F23BA]
03 100,0 [84E792A4] [CC152322]
04 97,4 [F41B24EF] [B2E0B515]
05 100,0 [97C4B816] [D673609E]
06 96,8 [D1EC36B0] [DB9F447E]
07 100,0 [9E75CF6E] [238FE75A]
08 88,7 [00C88513] [279B6C07]
09 100,0 [EF8EA378] [712C9877]
10 100,0 [78B787D5] [F6C68F60]
11 95,8 [283D1592] [D2AC37A0]
12 99,4 [DDDA8AED] [10C1D836]
13 100,0 [38C65FFB] [82C2CDDE]


Valensia - K.O.S.M.O.S (1996) [2018, Universal Music Japan UICY-78637]

All thanks go to Копысов

Download Valensia - K.O.S.M.O.S (1996):