Subcategories

Vangelis - Mask (1985) [Re-Up]

Posted By: Designol
Vangelis - Mask (1985) [Re-Up]

Vangelis - Mask (1985)
EAC | FLAC | Image (Cue&Log) ~ 224 Mb | Mp3 (CBR320) ~ 106 Mb | Scans included
Neo-Classical, Experimental Electronic, New Age | Label: Polydor | # 825 245-2 | 00:43:51

Mask is an e-music symphony in six movements. Vangelis is near his best on this album. He takes the best from his many different e-music personas and creates huge walls of dramatic and hypnotic sound. Vangelis combines symphonic synths, atmospheres, Berlin school sequences, choral chants, and sweet melodies in this soundscape. The mood shifts from bombastic to triumphant to mysterious to challenging and back and forth and in and out. The atmospheres weave through and around the soundscape, never losing the drama. Deep listeners will be on the edges of their seats. This great CD is like a soundtrack with no film.

Review by Jim Brenholts, Allmusic.com

Vangelis - Mask (1985) [Re-Up]



Tracklist:

01. Movement 1 (10:24)
02. Movement 2 (03:26)
03. Movement 3 (06:44)
04. Movement 4 (08:46)
05. Movement 5 (10:04)
06. Movement 6 (04:23)


Exact Audio Copy V1.0 beta 3 from 29. August 2011

Отчёт EAC об извлечении, выполненном 9. октября 2011, 15:52

Vangelis / Mask (Polydor 825 245-2)

Дисковод: PLEXTOR CD-R PREMIUM2 Adapter: 0 ID: 0

Режим чтения : Достоверность
Использование точного потока : Да
Отключение кэша аудио : Да
Использование указателей C2 : Нет

Коррекция смещения при чтении : 30
Способность читать области Lead-in и Lead-out : Да
Заполнение пропущенных сэмплов тишиной : Да
Удаление блоков с тишиной в начале и конце : Нет
При вычислениях CRC использовались нулевые сэмплы : Да
Интерфейс : Встроенный Win32-интерфейс для Win NT/2000

Выходной формат : Внутренние WAV-операции
Формат сэмплов : 44.100 Гц; 16 бит; стерео


TOC извлечённого CD

Трек | Старт | Длительность | Начальный сектор | Конечный сектор
––––––––––––––––––––––––––––––––––-
1 | 0:00.33 | 10:24.65 | 33 | 46897
2 | 10:25.23 | 3:26.37 | 46898 | 62384
3 | 13:51.60 | 6:44.65 | 62385 | 92749
4 | 20:36.50 | 8:46.45 | 92750 | 132244
5 | 29:23.20 | 10:04.58 | 132245 | 177602
6 | 39:28.03 | 4:23.55 | 177603 | 197382


Характеристики диапазона извлечения и сообщения об ошибках

Выбранный диапазон

Имя файла F:\Vangelis - Mask (Polydor 825 245-2) - 1985\Vangelis - Mask (Polydor 825 245-2).wav

Пиковый уровень 99.6 %
Скорость извлечения 6.3 X
Качество диапазона 99.9 %
CRC теста 745C8DB8
CRC копии 745C8DB8
Копирование… OK

Ошибок не произошло


AccurateRip: сводка

Трек 1 : извлечено точно (доверие 30) [BEBF632F] (AR v1)
Трек 2 : извлечено точно (доверие 31) [10CAF56F] (AR v1)
Трек 3 : извлечено точно (доверие 32) [327F5579] (AR v1)
Трек 4 : извлечено точно (доверие 32) [49D22730] (AR v1)
Трек 5 : извлечено точно (доверие 32) [259CA1A1] (AR v1)
Трек 6 : извлечено точно (доверие 30) [4A2CFE6F] (AR v1)

Все треки извлечены точно

Конец отчёта

==== Контрольная сумма отчёта A881CB74B4883657B15532F96C7E9E98083F0499967D457D4C34D66C3BF9C24B ====

foobar2000 1.2 / Dynamic Range Meter 1.1.1
log date: 2016-04-13 22:05:42

––––––––––––––––––––––––––––––––––––––––
Analyzed: Vangelis / Mask
––––––––––––––––––––––––––––––––––––––––

DR Peak RMS Duration Track
––––––––––––––––––––––––––––––––––––––––
DR13 -0.03 dB -17.78 dB 10:25 01-Movement 1
DR12 -7.25 dB -22.85 dB 3:26 02-Movement 2
DR14 -0.17 dB -18.19 dB 6:45 03-Movement 3
DR14 -4.59 dB -23.76 dB 8:47 04-Movement 4
DR14 -0.08 dB -16.29 dB 10:05 05-Movement 5
DR12 -12.72 dB -30.77 dB 4:24 06-Movement 6
––––––––––––––––––––––––––––––––––––––––

Number of tracks: 6
Official DR value: DR13

Samplerate: 44100 Hz
Channels: 2
Bits per sample: 16
Bitrate: 693 kbps
Codec: FLAC
================================================================================

Vangelis - Mask (1985) [Re-Up]

Vangelis - Mask (1985) [Re-Up]

All thanks to original releaser - Stripakulina

More interesting music in My Blog