Subcategories

VA - Albania. Polyphonies vocales et instrumentales (1988)

Posted By: aasana
VA - Albania. Polyphonies vocales et instrumentales (1988)

VA - Albania. Polyphonies vocales et instrumentales (1988)
EAC Rip | FLAC (tracks+.cue+.log+.m3u) & booklet | 00:47:18 | 235 MB
World, Folk | Label: Le Chant Du Monde

Recorded by Bernard Lortat-Jacob during fieldwork research in the 1980's, Albanie: Polyphonies vocales et instrumentales is one of the very few serious collections of Albanian folk music dating from the Communist era to have been made available to the wider world. The performances are based on those given at the National Folklore Festival held at Gjirokastër in 1983. Limiting himself to a survey of vocal and instrumental polyphony from southern Albania, Lortat-Jacob succeeds in presenting a collection that is arguably unrivalled in terms of quality and scope to this day.

Tracklist:
1/12. Men's choir, singers from Vlorë - Qu'ont vu les yeux de lanina? (What have Ianina's Eyes seen?)
2/12. Men's choir, singers from Vlorë - La légende de la femme emmurée (Legend of the walled-in woman)
3/12. Men's choir, singers from Gjirokastër - Au col de Peshkëpi (At the Peshkepi Pass)
4/12. Men's choir, singers from Permet - Chanson pour Odriçan (Song For Odrican)
5/12. Men's choir, singers from Korçë - Pour la liberté et le drapeau (For freedom and the Flag)
6/12. Men's choir, singers from Korçë - Du côté de la rivière (By the Riverside)
7/12. Soloist: men and women, men's choir, singers from Tepelenë - Que tu vives aussi longtemps que cette (May you live as long as this Earth!)
8/12. Women's choir, singers from Kolonjë - La chanson de Konofat (Konofat's Song)
9/12. Women's choir, singers from Kolonjë - Chant d'émigration (Song of Emigration)
10/12. Musicians from Korçë - Kaba
11/12. Musicians from Korçë - Kaba précédant une danse (Kaba preceding a dance)
12/12. Singers and musicians from Permet - Charretier qui mènes la caravane (Carter leading the Caravan)

Exact Audio Copy V1.3 from 2. September 2016

EAC extraction logfile from 9. August 2017, 10:32

Various Artists / Albania. Polyphonies vocales et instrumentales

Used drive : ATAPI iHAS122 F Adapter: 1 ID: 0

Read mode : Secure
Utilize accurate stream : Yes
Defeat audio cache : Yes
Make use of C2 pointers : No

Read offset correction : 6
Overread into Lead-In and Lead-Out : No
Fill up missing offset samples with silence : Yes
Delete leading and trailing silent blocks : No
Null samples used in CRC calculations : Yes
Used interface : Native Win32 interface for Win NT & 2000
Gap handling : Appended to previous track

Used output format : User Defined Encoder
Selected bitrate : 128 kBit/s
Quality : High
Add ID3 tag : No
Command line compressor : C:\Program Files (x86)\Exact Audio Copy\Flac\flac.exe
Additional command line options : -V -8 -T "Genre=%genre%" -T "Artist=%artist%" -T "Title=%title%" -T "Album=%albumtitle%" -T "Date=%year%" -T "Tracknumber=%tracknr%" -T "Comment=%comment%" %source%


TOC of the extracted CD

Track | Start | Length | Start sector | End sector
––––––––––––––––––––––––––––-
1 | 0:00.32 | 3:45.05 | 32 | 16911
2 | 3:45.37 | 5:54.00 | 16912 | 43461
3 | 9:39.37 | 5:35.08 | 43462 | 68594
4 | 15:14.45 | 3:13.22 | 68595 | 83091
5 | 18:27.67 | 1:36.58 | 83092 | 90349
6 | 20:04.50 | 2:02.47 | 90350 | 99546
7 | 22:07.22 | 4:28.53 | 99547 | 119699
8 | 26:36.00 | 2:55.65 | 119700 | 132889
9 | 29:31.65 | 5:30.70 | 132890 | 157709
10 | 35:02.60 | 3:22.62 | 157710 | 172921
11 | 38:25.47 | 4:35.28 | 172922 | 193574
12 | 43:01.00 | 4:17.55 | 193575 | 212904


Track 1

Filename F:\EAC Rip\01 - Men's choir, singers from Vlorë - Qu'ont vu les yeux de lanina (What have Ianina's Eyes seen).wav

Pre-gap length 0:00:02.32

Peak level 86.8 %
Extraction speed 4.5 X
Track quality 99.9 %
Test CRC 1C563E0B
Copy CRC 1C563E0B
Accurately ripped (confidence 1) [9CADB92C] (AR v2)
Copy OK

Track 2

Filename F:\EAC Rip\02 - Men's choir, singers from Vlorë - La légende de la femme emmurée (Legend of the walled-in woman).wav

Pre-gap length 0:00:05.25

Peak level 71.0 %
Extraction speed 6.0 X
Track quality 100.0 %
Test CRC EF28BFA5
Copy CRC EF28BFA5
Accurately ripped (confidence 1) [F88A36AA] (AR v2)
Copy OK

Track 3

Filename F:\EAC Rip\03 - Men's choir, singers from Gjirokastër - Au col de Peshkëpi (At the Peshkepi Pass).wav

Pre-gap length 0:00:07.00

Peak level 94.2 %
Extraction speed 6.7 X
Track quality 100.0 %
Test CRC 754F89BD
Copy CRC 754F89BD
Accurately ripped (confidence 1) [0A117F9B] (AR v2)
Copy OK

Track 4

Filename F:\EAC Rip\04 - Men's choir, singers from Permet - Chanson pour Odriçan (Song For Odrican).wav

Pre-gap length 0:00:07.10

Peak level 84.1 %
Extraction speed 6.7 X
Track quality 100.0 %
Test CRC E6E4FEB0
Copy CRC E6E4FEB0
Accurately ripped (confidence 1) [567FFCE1] (AR v2)
Copy OK

Track 5

Filename F:\EAC Rip\05 - Men's choir, singers from Korçë - Pour la liberté et le drapeau (For freedom and the Flag).wav

Pre-gap length 0:00:05.40

Peak level 79.7 %
Extraction speed 6.0 X
Track quality 100.0 %
Test CRC F12ED9D3
Copy CRC F12ED9D3
Accurately ripped (confidence 1) [2FE6D7B5] (AR v2)
Copy OK

Track 6

Filename F:\EAC Rip\06 - Men's choir, singers from Korçë - Du côté de la rivière (By the Riverside).wav

Pre-gap length 0:00:06.03

Peak level 87.6 %
Extraction speed 6.6 X
Track quality 100.0 %
Test CRC F2666262
Copy CRC F2666262
Accurately ripped (confidence 1) [00691422] (AR v2)
Copy OK

Track 7

Filename F:\EAC Rip\07 - Soloist- men and women, men's choir, singers from Tepelenë - Que tu vives aussi longtemps que cette (May you live as long as this Earth!).wav

Pre-gap length 0:00:07.32

Peak level 82.1 %
Extraction speed 7.8 X
Track quality 100.0 %
Test CRC 397426EF
Copy CRC 397426EF
Accurately ripped (confidence 1) [704C3E35] (AR v2)
Copy OK

Track 8

Filename F:\EAC Rip\08 - Women's choir, singers from Kolonjë - La chanson de Konofat (Konofat's Song).wav

Pre-gap length 0:00:05.35

Peak level 80.3 %
Extraction speed 7.7 X
Track quality 100.0 %
Test CRC 611ECBC2
Copy CRC 611ECBC2
Accurately ripped (confidence 1) [B72153DC] (AR v2)
Copy OK

Track 9

Filename F:\EAC Rip\09 - Women's choir, singers from Kolonjë - Chant d'émigration (Song of Emigration).wav

Pre-gap length 0:00:06.63

Peak level 83.1 %
Extraction speed 8.7 X
Track quality 100.0 %
Test CRC 8744C0DF
Copy CRC 8744C0DF
Accurately ripped (confidence 1) [0752C715] (AR v2)
Copy OK

Track 10

Filename F:\EAC Rip\10 - Musicians from Korçë - Kaba.wav

Pre-gap length 0:00:06.00

Peak level 80.1 %
Extraction speed 7.4 X
Track quality 99.9 %
Test CRC 7F16A034
Copy CRC 7F16A034
Accurately ripped (confidence 1) [35CB94F7] (AR v2)
Copy OK

Track 11

Filename F:\EAC Rip\11 - Musicians from Korçë - Kaba précédant une danse (Kaba preceding a dance).wav

Pre-gap length 0:00:06.20

Peak level 77.2 %
Extraction speed 9.2 X
Track quality 100.0 %
Test CRC BBDF7990
Copy CRC BBDF7990
Accurately ripped (confidence 1) [78B1F206] (AR v2)
Copy OK

Track 12

Filename F:\EAC Rip\12 - Singers and musicians from Permet - Charretier qui mènes la caravane (Carter leading the Caravan).wav

Pre-gap length 0:00:05.15

Peak level 87.4 %
Extraction speed 9.5 X
Track quality 100.0 %
Test CRC A8BB2AD8
Copy CRC A8BB2AD8
Accurately ripped (confidence 1) [CE3CDB1E] (AR v2)
Copy OK


All tracks accurately ripped

No errors occurred

End of status report

–– CUETools DB Plugin V2.1.6

[CTDB TOCID: ys5Ui83TxNxCC0f0O6KC_Br.7XI-] disk not present in database
Submit result: ys5Ui83TxNxCC0f0O6KC_Br.7XI- has been uploaded


==== Log checksum V22E05FC0BB6409655767G92BB8032BC27D91BD124499143C2PC065363ACCS22 ====