Subcategories

Various Artists - 100 Hits Country [5CD] (2007)

Posted By: BlondStyle
Various Artists - 100 Hits Country [5CD] (2007)

Various Artists - 100 Hits Country [5CD] (2007)
Country, Folk, Country-Pop/Rock | EAC Rip | FLAC, Tracks+CUE+LOG+Scans (JPEG) | 05:30:22 h. | 2,11 Gb
Label: Demon Music Group Ltd. (EU) | Cat.# DMG 100 008 | Released: 2007-10-15
Various Artists - 100 Hits Country [5CD] (2007)

5 CD collection containing 100 hits with Country music for many well known artists for many decades. Many artists such as Elvis Presley, Sara Evans, Carpenter, Johnny Cash, Dolly Parton and many more who will make you enjoy the real Country music spirit.

Various Artists - 100 Hits Country [5CD] (2007)

Various Artists - 100 Hits Country [5CD] (2007)


Release of this 5CD Set: 2007, October, 15 [CD Demon Music Group Ltd. (EU), Cat.# DMG 100 008 / UPC: 654378700828]
This compilation ℗© 2007 Demon Music Group Ltd.
Made in the E.U.

Tracklist:

Disc 1

01. Waylon Jennings - Good Ol' Boys (02:09)
02. Dolly Parton - Here You Come Again (02:54)
03. Billy Swan - I Can Help (04:02)
04. Frankie Laine - Rawhide (02:02)
05. Jimmy Dean - Big Bad John (03:01)
06. Tom T. Hall - Mr. Bojangles (03:43)
07. Charlie Daniels Band - The Devil Went Down To Georgia (03:36)
08. Brooks & Dunn - Boot Scootin' Boogie (03:18)
09. Alan Jackson - Gone Country (04:17)
10. Keith Whitley - When You Say Nothing At All (03:41)
11. Glen Campbell - Tennessee (03:05)
12. Curtis Day - The Cowboy Stomp (02:43)
13. Eddie Rabbitt - Every Which Way But Loose (02:51)
14. Travis Tritt - Here's A Quarter (Call Someone Who Cares) (02:33)
15. Linda Ronstadt - Desperado (03:32)
16. K.D. Lang - Constant Craving (04:36)
17. Tammy Wynette - D.i.v.o.r.c.e. (02:58)
18. John Anderson - Swingin' (03:02)
19. Eric Weissberg & Deliverance - Dueling Banjos (03:16)
20. Dwight Yoakam - Honky Tonk Man (02:48)

Disc 2

01. Lynn Anderson - Rose Garden (02:50)
02. Johnny Cash - (Ghost) Riders In The Sky (03:47)
03. Kris Kristofferson - Me And Bobby McGee (04:10)
04. John Denver - Take Me Home Country Roads (03:10)
05. The Everly Brothers - I'm On My Way Home Again (02:21)
06. Rodney Crowell - Leaving Louisiana In The Broad Daylight (03:24)
07. Maria Muldaur - My Tennessee Mountain Home (03:30)
08. Carlene Carter - Do It In A Heartbeat (03:30)
09. George Jones - Real Deal (03:23)
10. The Forester Sisters - (That's What You Do) When You're In Love (03:05)
11. Willie Nelson - Whiskey River (04:04)
12. Crystal Gayle - Don't It Make My Brown Eyes Blue (02:33)
13. Hoyt Axton - Della & The Dealer (03:25)
14. John Michael Montgomery - Be My Baby Tonight (02:48)
15. Beth Nielsen Chapman - Beyond The Blue (04:55)
16. Charley Pride - Crystal Chandeliers (02:49)
17. Guy Clark - Desperadoes Waiting For A Train (04:32)
18. Alabama - Tennessee River (03:03)
19. Carlene Carter - My Dixie Darlin' (02:38)
20. Stella Parton - The Danger Of A Stranger (02:34)

Disc 3

01. Elvis Presley - I Love You Because (02:42)
02. John Hartford - Gentle On My Mind (03:04)
03. John Denver - Annie's Song (03:00)
04. Gram Parsons - Hearts On Fire (03:49)
05. Dr. Hook & The Medicine Show - Sylvia's Mother (03:50)
06. Guy Clark - L.A. Freeway (04:57)
07. George Jones - He Stopped Loving Her Today (03:17)
08. Jim Reeves - He'll Have To Go (02:20)
09. Charlie Rich - Behind Closed Doors (02:57)
10. Porter Wagoner & Dolly Parton - The Last Thing On Her Mind (02:34)
11. Don Williams - True Love (02:53)
12. Linda Ronstadt - Blue Bayou (03:53)
13. Randy Travis - It's Just A Matter Of Time (03:57)
14. Lonestar - I'm Already There (04:14)
15. Mandy Barnett - Three Days (03:09)
16. Glen Campbell - I Love How You Love Me (02:36)
17. Crystal Gayle - Talking In Your Sleep (02:54)
18. Martina McBride - My Baby Loves Me (02:37)
19. John Michael Montgomery - I Love The Way You Love Me (04:03)
20. Mary Chapin Carpenter - Passionate Kisses (03:19)

Disc 4

01. Randy Travis - Forever And Ever, Amen (03:35)
02. Sara Evans - Born To Fly (05:35)
03. Brad Paisley - We Danced (03:47)
04. Pam Tillis - Don't Tell Me What To Do (03:12)
05. Mandy Barnett - Rainy Days (03:50)
06. K.T. Oslin - 80's Ladies (04:13)
07. K.D. Lang - Trail Of Broken Hearts (03:21)
08. Rodney Crowell - I Ain't Living Long Like This (03:38)
09. The Dillards - Somebody Touched Me (02:26)
10. Tracy Lawrence - How A Cowgirl Says Goodbye (03:30)
11. Beth Nielsen Chapman - Happy Girl (03:33)
12. Leslie Satcher - Love Letters From Old Mexico (04:00)
13. Kenny Chesney - I Lost It (03:54)
14. Blake Shelton - Austin (03:50)
15. Tracy Lawrence - Sticks And Stones (03:37)
16. Clint Black - A Better Man (03:05)
17. Gene Parsons - Drunkard's Dream (02:37)
18. John Prine - Sam Stone (04:15)
19. Gram Parsons - That's All It Took (02:58)
20. Dwight Yoakam With Maria McKee - Bury Me (03:20)

Disc 5

01. Jim Reeves - Welcome To My World (02:25)
02. Waylon Jennings - I'm A Ramblin' Man (02:47)
03. Merle Haggard - Pancho And Lefty (04:48)
04. Skeeter Davis - The End Of The World (02:37)
05. Marty Robbins - El Paso (04:40)
06. Melba Montgomery - No Charge (03:24)
07. Charlie Rich - Your Cheatin' Heart (02:55)
08. Eddy Arnold - I'll Hold You In My Heart (Till I Can Hold You In My Arms) (02:42)
09. Freddy Fender - Wasted Days And Wasted Nights (02:49)
10. Chet Atkins - Yakety Axe (02:03)
11. George Hamilton IV - She's A Little Bit Country (02:33)
12. Jerry Reed - Are You From Dixie (Cause I'm From Dixie Too) (02:11)
13. Hank Snow - I'm Movin' On (02:49)
14. Hank Locklin - Send Me The Pillow You Dream On (02:28)
15. Porter Wagoner - Green, Green Grass Of Home (02:22)
16. Willie Nelson - Shotgun Willie (02:39)
17. Tom Paxton - The Last Thing On My Mind (03:06)
18. Kris Kristofferson - The Silver Tongued Devil And I (03:36)
19. Vern Gosdin - The First Time Ever I Saw Your Face (04:57)
20. The Everly Brothers - I Walk The Line (02:38)

Exact Audio Copy V1.3 from 2. September 2016

EAC extraction logfile from 8. September 2017, 14:22

Various / 100 Hits Country - CD1

Used drive : ATAPI iHAS124 Y Adapter: 1 ID: 0

Read mode : Secure
Utilize accurate stream : Yes
Defeat audio cache : No
Make use of C2 pointers : Yes

Read offset correction : 48
Overread into Lead-In and Lead-Out : No
Fill up missing offset samples with silence : Yes
Delete leading and trailing silent blocks : No
Null samples used in CRC calculations : Yes
Used interface : Native Win32 interface for Win NT & 2000
Gap handling : Not detected, thus appended to previous track

Used output format : User Defined Encoder
Selected bitrate : 896 kBit/s
Quality : High
Add ID3 tag : No
Command line compressor : C:\Program Files (x86)\Exact Audio Copy\FLAC\FLAC.EXE
Additional command line options : -6 -V -T "ARTIST=%artist%" -T "TITLE=%title%" -T "ALBUM=%albumtitle%" -T "DATE=%year%" -T "TRACKNUMBER=%tracknr%" -T "GENRE=%genre%" -T "COMMENT=%comment%" -T "BAND=%albuminterpret%" -T "ALBUMARTIST=%albuminterpret%" -T "COMPOSER=%composer%" %haslyrics%–tag-from-file=LYRICS="%lyricsfile%"%haslyrics% -T "DISCNUMBER=%cdnumber%" -T "TOTALDISCS=%totalcds%" -T "TOTALTRACKS=%numtracks%" %hascover%–picture="%coverfile%"%hascover% %source% -o %dest%


TOC of the extracted CD

Track | Start | Length | Start sector | End sector
––––––––––––––––––––––––––––-
1 | 0:00.00 | 2:09.08 | 0 | 9682
2 | 2:09.08 | 2:54.53 | 9683 | 22785
3 | 5:03.61 | 4:02.69 | 22786 | 41004
4 | 9:06.55 | 2:02.21 | 41005 | 50175
5 | 11:09.01 | 3:01.61 | 50176 | 63811
6 | 14:10.62 | 3:43.32 | 63812 | 80568
7 | 17:54.19 | 3:36.62 | 80569 | 96830
8 | 21:31.06 | 3:18.61 | 96831 | 111741
9 | 24:49.67 | 4:17.62 | 111742 | 131078
10 | 29:07.54 | 3:41.12 | 131079 | 147665
11 | 32:48.66 | 3:05.00 | 147666 | 161540
12 | 35:53.66 | 2:43.01 | 161541 | 173766
13 | 38:36.67 | 2:51.71 | 173767 | 186662
14 | 41:28.63 | 2:33.38 | 186663 | 198175
15 | 44:02.26 | 3:32.67 | 198176 | 214142
16 | 47:35.18 | 4:36.20 | 214143 | 234862
17 | 52:11.38 | 2:58.49 | 234863 | 248261
18 | 55:10.12 | 3:02.63 | 248262 | 261974
19 | 58:13.00 | 3:16.48 | 261975 | 276722
20 | 61:29.48 | 2:48.28 | 276723 | 289350


Track 1

Filename A:\PsPBuRnOuT's MUSIC\COUNTRY\100 Hits Country\CD1 - 100 Hits Country\01.Waylon Jennings - Good Ol' Boys.wav

Peak level 94.6 %
Extraction speed 12.6 X
Track quality 100.0 %
Copy CRC D6F53EA1
Accurately ripped (confidence 2) [8A4DBA17] (AR v2)
Copy OK

Track 2

Filename A:\PsPBuRnOuT's MUSIC\COUNTRY\100 Hits Country\CD1 - 100 Hits Country\02.Dolly Parton - Here You Come Again.wav

Peak level 99.8 %
Extraction speed 19.1 X
Track quality 100.0 %
Copy CRC 23167134
Accurately ripped (confidence 2) [BC90CACD] (AR v2)
Copy OK

Track 3

Filename A:\PsPBuRnOuT's MUSIC\COUNTRY\100 Hits Country\CD1 - 100 Hits Country\03.Billy Swan - I Can Help.wav

Peak level 87.5 %
Extraction speed 20.5 X
Track quality 100.0 %
Copy CRC 599AD3BD
Accurately ripped (confidence 2) [8000CE8C] (AR v2)
Copy OK

Track 4

Filename A:\PsPBuRnOuT's MUSIC\COUNTRY\100 Hits Country\CD1 - 100 Hits Country\04.Frankie Laine - Rawhide.wav

Peak level 99.8 %
Extraction speed 20.1 X
Track quality 100.0 %
Copy CRC C0B47C7A
Accurately ripped (confidence 2) [728AE7B5] (AR v2)
Copy OK

Track 5

Filename A:\PsPBuRnOuT's MUSIC\COUNTRY\100 Hits Country\CD1 - 100 Hits Country\05.Jimmy Dean - Big Bad John.wav

Peak level 79.9 %
Extraction speed 21.6 X
Track quality 100.0 %
Copy CRC 3307FC3B
Accurately ripped (confidence 2) [03C95E54] (AR v2)
Copy OK

Track 6

Filename A:\PsPBuRnOuT's MUSIC\COUNTRY\100 Hits Country\CD1 - 100 Hits Country\06.Tom T. Hall - Mr Bojangles.wav

Peak level 95.6 %
Extraction speed 24.1 X
Track quality 100.0 %
Copy CRC AFF6D019
Accurately ripped (confidence 2) [F7E91C3D] (AR v2)
Copy OK

Track 7

Filename A:\PsPBuRnOuT's MUSIC\COUNTRY\100 Hits Country\CD1 - 100 Hits Country\07.Charlie Daniels Band - The Devil Went Down To Georgia.wav

Peak level 84.2 %
Extraction speed 24.1 X
Track quality 100.0 %
Copy CRC 04F18196
Accurately ripped (confidence 2) [16B47E61] (AR v2)
Copy OK

Track 8

Filename A:\PsPBuRnOuT's MUSIC\COUNTRY\100 Hits Country\CD1 - 100 Hits Country\08.Brooks & Dunn - Boot Scootin' Boogie.wav

Peak level 78.7 %
Extraction speed 20.7 X
Track quality 99.8 %
Copy CRC 4B57F564
Accurately ripped (confidence 2) [1B4C82EC] (AR v2)
Copy OK

Track 9

Filename A:\PsPBuRnOuT's MUSIC\COUNTRY\100 Hits Country\CD1 - 100 Hits Country\09.Alan Jackson - Gone Country.wav

Peak level 89.1 %
Extraction speed 22.0 X
Track quality 100.0 %
Copy CRC 031F3ACF
Accurately ripped (confidence 4) [B48CEC03] (AR v1)
Copy OK

Track 10

Filename A:\PsPBuRnOuT's MUSIC\COUNTRY\100 Hits Country\CD1 - 100 Hits Country\10.Keith Whitley - When You Say Nothing At All.wav

Peak level 84.1 %
Extraction speed 24.0 X
Track quality 99.9 %
Copy CRC F7F43C92
Accurately ripped (confidence 2) [DDD7C5AC] (AR v2)
Copy OK

Track 11

Filename A:\PsPBuRnOuT's MUSIC\COUNTRY\100 Hits Country\CD1 - 100 Hits Country\11.Glen Campbell - Tennessee.wav

Peak level 84.0 %
Extraction speed 22.4 X
Track quality 100.0 %
Copy CRC 864B4142
Accurately ripped (confidence 2) [24BA6E36] (AR v2)
Copy OK

Track 12

Filename A:\PsPBuRnOuT's MUSIC\COUNTRY\100 Hits Country\CD1 - 100 Hits Country\12.Curtis Day - The Cowboy Stomp.wav

Peak level 84.4 %
Extraction speed 29.5 X
Track quality 100.0 %
Copy CRC 6F0B76F1
Accurately ripped (confidence 2) [F1F303E2] (AR v2)
Copy OK

Track 13

Filename A:\PsPBuRnOuT's MUSIC\COUNTRY\100 Hits Country\CD1 - 100 Hits Country\13.Eddie Rabbitt - Every Which Way But Loose.wav

Peak level 99.8 %
Extraction speed 30.0 X
Track quality 100.0 %
Copy CRC B21E8935
Accurately ripped (confidence 2) [86873303] (AR v2)
Copy OK

Track 14

Filename A:\PsPBuRnOuT's MUSIC\COUNTRY\100 Hits Country\CD1 - 100 Hits Country\14.Travis Tritt - Here's A Quarter (Call Someone Who Cares).wav

Peak level 96.0 %
Extraction speed 30.1 X
Track quality 100.0 %
Copy CRC B95F43AA
Accurately ripped (confidence 2) [61C0ED09] (AR v2)
Copy OK

Track 15

Filename A:\PsPBuRnOuT's MUSIC\COUNTRY\100 Hits Country\CD1 - 100 Hits Country\15.Linda Ronstadt - Desperado.wav

Peak level 99.8 %
Extraction speed 31.7 X
Track quality 100.0 %
Copy CRC 4DB0246A
Accurately ripped (confidence 2) [F4E9C92A] (AR v2)
Copy OK

Track 16

Filename A:\PsPBuRnOuT's MUSIC\COUNTRY\100 Hits Country\CD1 - 100 Hits Country\16.K.D. Lang - Constant Craving.wav

Peak level 79.3 %
Extraction speed 27.4 X
Track quality 99.9 %
Copy CRC B18C88E4
Accurately ripped (confidence 2) [2D3F81F2] (AR v2)
Copy OK

Track 17

Filename A:\PsPBuRnOuT's MUSIC\COUNTRY\100 Hits Country\CD1 - 100 Hits Country\17.Tammy Wynette - D.i.v.o.r.c.e..wav

Peak level 99.8 %
Extraction speed 24.4 X
Track quality 100.0 %
Copy CRC F17F1253
Accurately ripped (confidence 2) [C5360ED5] (AR v2)
Copy OK

Track 18

Filename A:\PsPBuRnOuT's MUSIC\COUNTRY\100 Hits Country\CD1 - 100 Hits Country\18.John Anderson - Swingin'.wav

Peak level 99.8 %
Extraction speed 30.9 X
Track quality 100.0 %
Copy CRC 0030B5BE
Accurately ripped (confidence 2) [653122AB] (AR v2)
Copy OK

Track 19

Filename A:\PsPBuRnOuT's MUSIC\COUNTRY\100 Hits Country\CD1 - 100 Hits Country\19.Eric Weissberg & Deliverance - Dueling Banjos.wav

Peak level 96.8 %
Extraction speed 27.7 X
Track quality 99.8 %
Copy CRC 0AF82874
Accurately ripped (confidence 2) [A02629E9] (AR v2)
Copy OK

Track 20

Filename A:\PsPBuRnOuT's MUSIC\COUNTRY\100 Hits Country\CD1 - 100 Hits Country\20.Dwight Yoakam - Honky Tonk Man.wav

Peak level 99.8 %
Extraction speed 24.8 X
Track quality 100.0 %
Copy CRC 09F1D37C
Accurately ripped (confidence 2) [85FC57EE] (AR v2)
Copy OK


All tracks accurately ripped

No errors occurred

End of status report

–– CUETools DB Plugin V2.1.6

[CTDB TOCID: U.Zi815bfTwt5fQ25xSwz0u7LLY-] found
Submit result: U.Zi815bfTwt5fQ25xSwz0u7LLY- has been confirmed
Track | CTDB Status
1 | (29/29) Accurately ripped
2 | (29/29) Accurately ripped
3 | (29/29) Accurately ripped
4 | (29/29) Accurately ripped
5 | (29/29) Accurately ripped
6 | (29/29) Accurately ripped
7 | (29/29) Accurately ripped
8 | (29/29) Accurately ripped
9 | (29/29) Accurately ripped
10 | (29/29) Accurately ripped
11 | (29/29) Accurately ripped
12 | (29/29) Accurately ripped
13 | (29/29) Accurately ripped
14 | (29/29) Accurately ripped
15 | (29/29) Accurately ripped
16 | (29/29) Accurately ripped
17 | (29/29) Accurately ripped
18 | (29/29) Accurately ripped
19 | (29/29) Accurately ripped
20 | (28/29) Accurately ripped

Exact Audio Copy V1.3 from 2. September 2016

EAC extraction logfile from 8. September 2017, 14:50

Various / 100 Hits - Country - CD2

Used drive : ATAPI iHAS124 Y Adapter: 1 ID: 0

Read mode : Secure
Utilize accurate stream : Yes
Defeat audio cache : No
Make use of C2 pointers : Yes

Read offset correction : 48
Overread into Lead-In and Lead-Out : No
Fill up missing offset samples with silence : Yes
Delete leading and trailing silent blocks : No
Null samples used in CRC calculations : Yes
Used interface : Native Win32 interface for Win NT & 2000
Gap handling : Not detected, thus appended to previous track

Used output format : User Defined Encoder
Selected bitrate : 896 kBit/s
Quality : High
Add ID3 tag : No
Command line compressor : C:\Program Files (x86)\Exact Audio Copy\FLAC\FLAC.EXE
Additional command line options : -6 -V -T "ARTIST=%artist%" -T "TITLE=%title%" -T "ALBUM=%albumtitle%" -T "DATE=%year%" -T "TRACKNUMBER=%tracknr%" -T "GENRE=%genre%" -T "COMMENT=%comment%" -T "BAND=%albuminterpret%" -T "ALBUMARTIST=%albuminterpret%" -T "COMPOSER=%composer%" %haslyrics%–tag-from-file=LYRICS="%lyricsfile%"%haslyrics% -T "DISCNUMBER=%cdnumber%" -T "TOTALDISCS=%totalcds%" -T "TOTALTRACKS=%numtracks%" %hascover%–picture="%coverfile%"%hascover% %source% -o %dest%


TOC of the extracted CD

Track | Start | Length | Start sector | End sector
––––––––––––––––––––––––––––-
1 | 0:00.00 | 2:50.67 | 0 | 12816
2 | 2:50.67 | 3:47.01 | 12817 | 29842
3 | 6:37.68 | 4:10.38 | 29843 | 48630
4 | 10:48.31 | 3:10.68 | 48631 | 62948
5 | 13:59.24 | 2:21.31 | 62949 | 73554
6 | 16:20.55 | 3:24.68 | 73555 | 88922
7 | 19:45.48 | 3:30.57 | 88923 | 104729
8 | 23:16.30 | 3:30.24 | 104730 | 120503
9 | 26:46.54 | 3:23.42 | 120504 | 135770
10 | 30:10.21 | 3:05.43 | 135771 | 149688
11 | 33:15.64 | 4:04.01 | 149689 | 167989
12 | 37:19.65 | 2:33.38 | 167990 | 179502
13 | 39:53.28 | 3:25.24 | 179503 | 194901
14 | 43:18.52 | 2:48.70 | 194902 | 207571
15 | 46:07.47 | 4:55.42 | 207572 | 229738
16 | 51:03.14 | 2:49.56 | 229739 | 242469
17 | 53:52.70 | 4:32.59 | 242470 | 262928
18 | 58:25.54 | 3:03.34 | 262929 | 276687
19 | 61:29.13 | 2:38.00 | 276688 | 288537
20 | 64:07.13 | 2:34.47 | 288538 | 300134


Track 1

Filename A:\PsPBuRnOuT's MUSIC\COUNTRY\100 Hits Country\CD2 - 100 Hits Country\01.Lynn Anderson - Rose Garden.wav

Peak level 99.8 %
Extraction speed 8.7 X
Track quality 100.0 %
Copy CRC CB4B1F6A
Accurately ripped (confidence 2) [1E29B145] (AR v2)
Copy OK

Track 2

Filename A:\PsPBuRnOuT's MUSIC\COUNTRY\100 Hits Country\CD2 - 100 Hits Country\02.Johnny Cash - (Ghost) Riders In The Sky.wav

Peak level 84.1 %
Extraction speed 10.0 X
Track quality 100.0 %
Copy CRC 3EBF407F
Accurately ripped (confidence 2) [C561EC4F] (AR v2)
Copy OK

Track 3

Filename A:\PsPBuRnOuT's MUSIC\COUNTRY\100 Hits Country\CD2 - 100 Hits Country\03.Kris Kristofferson - Me And Bobby McGee.wav

Peak level 99.8 %
Extraction speed 10.9 X
Track quality 100.0 %
Copy CRC D40A1E9C
Accurately ripped (confidence 2) [9682271C] (AR v2)
Copy OK

Track 4

Filename A:\PsPBuRnOuT's MUSIC\COUNTRY\100 Hits Country\CD2 - 100 Hits Country\04.John Denver - Take Me Home Country Roads.wav

Peak level 99.8 %
Extraction speed 10.8 X
Track quality 99.8 %
Copy CRC EEAE1299
Accurately ripped (confidence 2) [62ECB4FB] (AR v2)
Copy OK

Track 5

Filename A:\PsPBuRnOuT's MUSIC\COUNTRY\100 Hits Country\CD2 - 100 Hits Country\05.The Everly Brothers - I'm On My Way Home Again.wav

Peak level 99.8 %
Extraction speed 11.5 X
Track quality 100.0 %
Copy CRC 233E0D11
Accurately ripped (confidence 2) [A6F53454] (AR v2)
Copy OK

Track 6

Filename A:\PsPBuRnOuT's MUSIC\COUNTRY\100 Hits Country\CD2 - 100 Hits Country\06.Rodney Crowell - Leaving Louisiana In The Broad Daylight.wav

Peak level 99.8 %
Extraction speed 12.1 X
Track quality 99.8 %
Copy CRC 5B89327A
Accurately ripped (confidence 2) [8E24D62D] (AR v2)
Copy OK

Track 7

Filename A:\PsPBuRnOuT's MUSIC\COUNTRY\100 Hits Country\CD2 - 100 Hits Country\07.Maria Muldaur - My Tennessee Mountain Home.wav

Peak level 99.8 %
Extraction speed 13.5 X
Track quality 100.0 %
Copy CRC CC72B0EE
Accurately ripped (confidence 2) [918F8E4D] (AR v2)
Copy OK

Track 8

Filename A:\PsPBuRnOuT's MUSIC\COUNTRY\100 Hits Country\CD2 - 100 Hits Country\08.Carlene Carter - Do It In A Heartbeat.wav

Peak level 83.7 %
Extraction speed 13.4 X
Track quality 99.8 %
Copy CRC BEAB8811
Accurately ripped (confidence 2) [7D518E52] (AR v2)
Copy OK

Track 9

Filename A:\PsPBuRnOuT's MUSIC\COUNTRY\100 Hits Country\CD2 - 100 Hits Country\09.George Jones - Real Deal.wav

Peak level 89.1 %
Extraction speed 14.1 X
Track quality 100.0 %
Copy CRC 9BB746C8
Accurately ripped (confidence 2) [1A2FD28A] (AR v2)
Copy OK

Track 10

Filename A:\PsPBuRnOuT's MUSIC\COUNTRY\100 Hits Country\CD2 - 100 Hits Country\10.The Forester Sisters - (That's What You Do) When You're In Love.wav

Peak level 99.8 %
Extraction speed 14.8 X
Track quality 100.0 %
Copy CRC 3748341F
Accurately ripped (confidence 4) [CFF0E0AD] (AR v1)
Copy OK

Track 11

Filename A:\PsPBuRnOuT's MUSIC\COUNTRY\100 Hits Country\CD2 - 100 Hits Country\11.Willie Nelson - Whiskey River.wav

Peak level 99.8 %
Extraction speed 15.1 X
Track quality 100.0 %
Copy CRC 7632B881
Accurately ripped (confidence 4) [274EF5D7] (AR v1)
Copy OK

Track 12

Filename A:\PsPBuRnOuT's MUSIC\COUNTRY\100 Hits Country\CD2 - 100 Hits Country\12.Crystal Gayle - Don't It Make My Brown Eyes Blue.wav

Peak level 91.1 %
Extraction speed 15.3 X
Track quality 100.0 %
Copy CRC B5A18F23
Accurately ripped (confidence 2) [0B47703B] (AR v2)
Copy OK

Track 13

Filename A:\PsPBuRnOuT's MUSIC\COUNTRY\100 Hits Country\CD2 - 100 Hits Country\13.Hoyt Axton - Della & The Dealer.wav

Peak level 97.3 %
Extraction speed 16.7 X
Track quality 100.0 %
Copy CRC 2FF513F9
Accurately ripped (confidence 2) [E9CC9485] (AR v2)
Copy OK

Track 14

Filename A:\PsPBuRnOuT's MUSIC\COUNTRY\100 Hits Country\CD2 - 100 Hits Country\14.John Michael Montgomery - Be My Baby Tonight.wav

Peak level 89.0 %
Extraction speed 17.3 X
Track quality 100.0 %
Copy CRC 73A1C407
Accurately ripped (confidence 2) [DFE06A06] (AR v2)
Copy OK

Track 15

Filename A:\PsPBuRnOuT's MUSIC\COUNTRY\100 Hits Country\CD2 - 100 Hits Country\15.Beth Nielsen Chapman - Beyond The Blue.wav

Peak level 99.8 %
Extraction speed 16.6 X
Track quality 100.0 %
Copy CRC E165D468
Accurately ripped (confidence 2) [1BC14BC3] (AR v2)
Copy OK

Track 16

Filename A:\PsPBuRnOuT's MUSIC\COUNTRY\100 Hits Country\CD2 - 100 Hits Country\16.Charley Pride - Crystal Chandeliers.wav

Peak level 94.4 %
Extraction speed 17.1 X
Track quality 100.0 %
Copy CRC 54814F10
Accurately ripped (confidence 2) [3AB1940A] (AR v2)
Copy OK

Track 17

Filename A:\PsPBuRnOuT's MUSIC\COUNTRY\100 Hits Country\CD2 - 100 Hits Country\17.Guy Clark - Desperadoes Waiting For A Train.wav

Peak level 99.8 %
Extraction speed 17.8 X
Track quality 99.9 %
Copy CRC 1BF034B5
Accurately ripped (confidence 2) [61D12BE6] (AR v2)
Copy OK

Track 18

Filename A:\PsPBuRnOuT's MUSIC\COUNTRY\100 Hits Country\CD2 - 100 Hits Country\18.Alabama - Tennessee River.wav

Peak level 99.8 %
Extraction speed 18.1 X
Track quality 100.0 %
Copy CRC C7D43613
Accurately ripped (confidence 2) [8134EE8D] (AR v2)
Copy OK

Track 19

Filename A:\PsPBuRnOuT's MUSIC\COUNTRY\100 Hits Country\CD2 - 100 Hits Country\19.Carlene Carter - My Dixie Darlin'.wav

Peak level 93.8 %
Extraction speed 18.0 X
Track quality 100.0 %
Copy CRC 139CEB34
Accurately ripped (confidence 2) [A209EF50] (AR v2)
Copy OK

Track 20

Filename A:\PsPBuRnOuT's MUSIC\COUNTRY\100 Hits Country\CD2 - 100 Hits Country\20.Stella Parton - The Danger Of A Stranger.wav

Peak level 99.8 %
Extraction speed 18.7 X
Track quality 100.0 %
Copy CRC 9FC83639
Accurately ripped (confidence 2) [B60A62B0] (AR v2)
Copy OK


All tracks accurately ripped

No errors occurred

End of status report

–– CUETools DB Plugin V2.1.6

[CTDB TOCID: Nf.CUPdsxtEVs6muWQir0fBMl5o-] found
Submit result: Nf.CUPdsxtEVs6muWQir0fBMl5o- has been confirmed
Track | CTDB Status
1 | (25/25) Accurately ripped
2 | (25/25) Accurately ripped
3 | (25/25) Accurately ripped
4 | (25/25) Accurately ripped
5 | (25/25) Accurately ripped
6 | (25/25) Accurately ripped
7 | (25/25) Accurately ripped
8 | (25/25) Accurately ripped
9 | (25/25) Accurately ripped
10 | (25/25) Accurately ripped
11 | (25/25) Accurately ripped
12 | (25/25) Accurately ripped
13 | (25/25) Accurately ripped
14 | (25/25) Accurately ripped
15 | (25/25) Accurately ripped
16 | (25/25) Accurately ripped
17 | (25/25) Accurately ripped
18 | (25/25) Accurately ripped
19 | (25/25) Accurately ripped
20 | (25/25) Accurately ripped

Exact Audio Copy V1.3 from 2. September 2016

EAC extraction logfile from 8. September 2017, 15:34

Various / 100 Hits - Country - CD3

Used drive : ATAPI iHAS124 Y Adapter: 1 ID: 0

Read mode : Secure
Utilize accurate stream : Yes
Defeat audio cache : No
Make use of C2 pointers : Yes

Read offset correction : 48
Overread into Lead-In and Lead-Out : No
Fill up missing offset samples with silence : Yes
Delete leading and trailing silent blocks : No
Null samples used in CRC calculations : Yes
Used interface : Native Win32 interface for Win NT & 2000
Gap handling : Not detected, thus appended to previous track

Used output format : User Defined Encoder
Selected bitrate : 896 kBit/s
Quality : High
Add ID3 tag : No
Command line compressor : C:\Program Files (x86)\Exact Audio Copy\FLAC\FLAC.EXE
Additional command line options : -6 -V -T "ARTIST=%artist%" -T "TITLE=%title%" -T "ALBUM=%albumtitle%" -T "DATE=%year%" -T "TRACKNUMBER=%tracknr%" -T "GENRE=%genre%" -T "COMMENT=%comment%" -T "BAND=%albuminterpret%" -T "ALBUMARTIST=%albuminterpret%" -T "COMPOSER=%composer%" %haslyrics%–tag-from-file=LYRICS="%lyricsfile%"%haslyrics% -T "DISCNUMBER=%cdnumber%" -T "TOTALDISCS=%totalcds%" -T "TOTALTRACKS=%numtracks%" %hascover%–picture="%coverfile%"%hascover% %source% -o %dest%


TOC of the extracted CD

Track | Start | Length | Start sector | End sector
––––––––––––––––––––––––––––-
1 | 0:00.00 | 2:42.20 | 0 | 12169
2 | 2:42.20 | 3:04.53 | 12170 | 26022
3 | 5:46.73 | 3:00.52 | 26023 | 39574
4 | 8:47.50 | 3:49.38 | 39575 | 56787
5 | 12:37.13 | 3:50.44 | 56788 | 74081
6 | 16:27.57 | 4:57.71 | 74082 | 96427
7 | 21:25.53 | 3:17.35 | 96428 | 111237
8 | 24:43.13 | 2:20.13 | 111238 | 121750
9 | 27:03.26 | 2:57.38 | 121751 | 135063
10 | 30:00.64 | 2:34.69 | 135064 | 146682
11 | 32:35.58 | 2:53.07 | 146683 | 159664
12 | 35:28.65 | 3:53.39 | 159665 | 177178
13 | 39:22.29 | 3:57.03 | 177179 | 194956
14 | 43:19.32 | 4:14.43 | 194957 | 214049
15 | 47:34.00 | 3:09.11 | 214050 | 228235
16 | 50:43.11 | 2:36.03 | 228236 | 239938
17 | 53:19.14 | 2:54.70 | 239939 | 253058
18 | 56:14.09 | 2:37.29 | 253059 | 264862
19 | 58:51.38 | 4:03.36 | 264863 | 283123
20 | 62:54.74 | 3:19.61 | 283124 | 298109


Track 1

Filename A:\PsPBuRnOuT's MUSIC\COUNTRY\100 Hits Country\CD3 - 100 Hits Country\01.Elvis Presley - I Love You Because.wav

Peak level 99.8 %
Extraction speed 8.7 X
Track quality 100.0 %
Copy CRC CAE3B615
Accurately ripped (confidence 2) [D2CFDFBA] (AR v2)
Copy OK

Track 2

Filename A:\PsPBuRnOuT's MUSIC\COUNTRY\100 Hits Country\CD3 - 100 Hits Country\02.John Hartford - Gentle On My Mind.wav

Peak level 99.8 %
Extraction speed 9.5 X
Track quality 100.0 %
Copy CRC FADA8667
Accurately ripped (confidence 2) [AA534B44] (AR v2)
Copy OK

Track 3

Filename A:\PsPBuRnOuT's MUSIC\COUNTRY\100 Hits Country\CD3 - 100 Hits Country\03.John Denver - Annie's Song.wav

Peak level 97.7 %
Extraction speed 10.2 X
Track quality 99.8 %
Copy CRC D76DC69F
Accurately ripped (confidence 2) [53FFD1EB] (AR v2)
Copy OK

Track 4

Filename A:\PsPBuRnOuT's MUSIC\COUNTRY\100 Hits Country\CD3 - 100 Hits Country\04.Gram Parsons - Hearts On Fire.wav

Peak level 99.8 %
Extraction speed 11.3 X
Track quality 100.0 %
Copy CRC A08BA4F9
Accurately ripped (confidence 2) [9A18B384] (AR v2)
Copy OK

Track 5

Filename A:\PsPBuRnOuT's MUSIC\COUNTRY\100 Hits Country\CD3 - 100 Hits Country\05.Dr. Hook & The Medicine Show - Sylvia's Mother.wav

Peak level 92.2 %
Extraction speed 11.7 X
Track quality 100.0 %
Copy CRC 9B97264A
Accurately ripped (confidence 2) [7B85469C] (AR v2)
Copy OK

Track 6

Filename A:\PsPBuRnOuT's MUSIC\COUNTRY\100 Hits Country\CD3 - 100 Hits Country\06.Guy Clark - L.A. Freeway.wav

Peak level 99.8 %
Extraction speed 12.4 X
Track quality 99.9 %
Copy CRC 251692AF
Accurately ripped (confidence 2) [EC5DB6F7] (AR v2)
Copy OK

Track 7

Filename A:\PsPBuRnOuT's MUSIC\COUNTRY\100 Hits Country\CD3 - 100 Hits Country\07.George Jones - He Stopped Loving Her Today.wav

Peak level 99.8 %
Extraction speed 13.2 X
Track quality 100.0 %
Copy CRC D1AE59C3
Accurately ripped (confidence 2) [AD0D1BE6] (AR v2)
Copy OK

Track 8

Filename A:\PsPBuRnOuT's MUSIC\COUNTRY\100 Hits Country\CD3 - 100 Hits Country\08.Jim Reeves - He'll Have To Go.wav

Peak level 99.8 %
Extraction speed 13.4 X
Track quality 100.0 %
Copy CRC 8F901C67
Accurately ripped (confidence 2) [3F093EF3] (AR v2)
Copy OK

Track 9

Filename A:\PsPBuRnOuT's MUSIC\COUNTRY\100 Hits Country\CD3 - 100 Hits Country\09.Charlie Rich - Behind Closed Doors.wav

Peak level 99.8 %
Extraction speed 14.0 X
Track quality 99.8 %
Copy CRC 8DE6D966
Accurately ripped (confidence 2) [116FBF3C] (AR v2)
Copy OK

Track 10

Filename A:\PsPBuRnOuT's MUSIC\COUNTRY\100 Hits Country\CD3 - 100 Hits Country\10.Porter Wagoner & Dolly Parton - The Last Thing On My Mind.wav

Peak level 99.8 %
Extraction speed 15.4 X
Track quality 100.0 %
Copy CRC 69F41BE3
Accurately ripped (confidence 2) [3955CA30] (AR v2)
Copy OK

Track 11

Filename A:\PsPBuRnOuT's MUSIC\COUNTRY\100 Hits Country\CD3 - 100 Hits Country\11.Don Williams - True Love.wav

Peak level 99.8 %
Extraction speed 15.7 X
Track quality 100.0 %
Copy CRC C3FD278E
Accurately ripped (confidence 4) [89C8C66F] (AR v1)
Copy OK

Track 12

Filename A:\PsPBuRnOuT's MUSIC\COUNTRY\100 Hits Country\CD3 - 100 Hits Country\12.Linda Ronstadt - Blue Bayou.wav

Peak level 99.8 %
Extraction speed 15.4 X
Track quality 100.0 %
Copy CRC 17059DD3
Accurately ripped (confidence 2) [4721452E] (AR v2)
Copy OK

Track 13

Filename A:\PsPBuRnOuT's MUSIC\COUNTRY\100 Hits Country\CD3 - 100 Hits Country\13.Randy Travis - It's Just A Matter Of Time.wav

Peak level 99.8 %
Extraction speed 15.9 X
Track quality 100.0 %
Copy CRC F9232EC7
Accurately ripped (confidence 2) [BC0A30B4] (AR v2)
Copy OK

Track 14

Filename A:\PsPBuRnOuT's MUSIC\COUNTRY\100 Hits Country\CD3 - 100 Hits Country\14.Lonestar - I'm Already There.wav

Peak level 89.1 %
Extraction speed 16.5 X
Track quality 100.0 %
Copy CRC 6E1C5927
Accurately ripped (confidence 2) [A3FE4BCF] (AR v2)
Copy OK

Track 15

Filename A:\PsPBuRnOuT's MUSIC\COUNTRY\100 Hits Country\CD3 - 100 Hits Country\15.Mandy Barnett - Three Days.wav

Peak level 98.8 %
Extraction speed 16.9 X
Track quality 100.0 %
Copy CRC BCCFE8EE
Accurately ripped (confidence 4) [DB7D566D] (AR v1)
Copy OK

Track 16

Filename A:\PsPBuRnOuT's MUSIC\COUNTRY\100 Hits Country\CD3 - 100 Hits Country\16.Glen Campbell - I Love How You Love Me.wav

Peak level 84.6 %
Extraction speed 17.1 X
Track quality 100.0 %
Copy CRC EFFB76BC
Accurately ripped (confidence 2) [9CA18049] (AR v2)
Copy OK

Track 17

Filename A:\PsPBuRnOuT's MUSIC\COUNTRY\100 Hits Country\CD3 - 100 Hits Country\17.Crystal Gayle - Talking In Your Sleep.wav

Peak level 94.8 %
Extraction speed 17.4 X
Track quality 99.8 %
Copy CRC AB504D28
Accurately ripped (confidence 2) [804E1521] (AR v2)
Copy OK

Track 18

Filename A:\PsPBuRnOuT's MUSIC\COUNTRY\100 Hits Country\CD3 - 100 Hits Country\18.Martina McBride - My Baby Loves Me.wav

Peak level 71.2 %
Extraction speed 17.8 X
Track quality 100.0 %
Copy CRC 8BBA41F0
Accurately ripped (confidence 2) [AD7CD350] (AR v2)
Copy OK

Track 19

Filename A:\PsPBuRnOuT's MUSIC\COUNTRY\100 Hits Country\CD3 - 100 Hits Country\19.John Michael Montgomery - I Love The Way You Love Me.wav

Peak level 99.8 %
Extraction speed 19.2 X
Track quality 100.0 %
Copy CRC 203DB831
Accurately ripped (confidence 2) [E23691C0] (AR v2)
Copy OK

Track 20

Filename A:\PsPBuRnOuT's MUSIC\COUNTRY\100 Hits Country\CD3 - 100 Hits Country\20.Mary Chapin Carpenter - Passionate Kisses.wav

Peak level 94.7 %
Extraction speed 18.7 X
Track quality 99.8 %
Copy CRC 917E8CA2
Accurately ripped (confidence 2) [9BF147D7] (AR v2)
Copy OK


All tracks accurately ripped

No errors occurred

End of status report

–– CUETools DB Plugin V2.1.6

[CTDB TOCID: ptjQappYQXmrkvxDJsQ.B1oQUrE-] found
Submit result: ptjQappYQXmrkvxDJsQ.B1oQUrE- has been confirmed
Track | CTDB Status
1 | (23/24) Accurately ripped
2 | (23/24) Accurately ripped
3 | (23/24) Accurately ripped
4 | (23/24) Accurately ripped
5 | (23/24) Accurately ripped
6 | (23/24) Accurately ripped
7 | (23/24) Accurately ripped
8 | (23/24) Accurately ripped
9 | (23/24) Accurately ripped
10 | (23/24) Accurately ripped
11 | (23/24) Accurately ripped
12 | (23/24) Accurately ripped
13 | (23/24) Accurately ripped
14 | (23/24) Accurately ripped
15 | (23/24) Accurately ripped
16 | (23/24) Accurately ripped
17 | (23/24) Accurately ripped
18 | (23/24) Accurately ripped
19 | (23/24) Accurately ripped
20 | (23/24) Accurately ripped

Exact Audio Copy V1.3 from 2. September 2016

EAC extraction logfile from 8. September 2017, 15:56

Various / 100 Hits - Country - CD4

Used drive : ATAPI iHAS124 Y Adapter: 1 ID: 0

Read mode : Secure
Utilize accurate stream : Yes
Defeat audio cache : No
Make use of C2 pointers : Yes

Read offset correction : 48
Overread into Lead-In and Lead-Out : No
Fill up missing offset samples with silence : Yes
Delete leading and trailing silent blocks : No
Null samples used in CRC calculations : Yes
Used interface : Native Win32 interface for Win NT & 2000
Gap handling : Not detected, thus appended to previous track

Used output format : User Defined Encoder
Selected bitrate : 896 kBit/s
Quality : High
Add ID3 tag : No
Command line compressor : C:\Program Files (x86)\Exact Audio Copy\FLAC\FLAC.EXE
Additional command line options : -6 -V -T "ARTIST=%artist%" -T "TITLE=%title%" -T "ALBUM=%albumtitle%" -T "DATE=%year%" -T "TRACKNUMBER=%tracknr%" -T "GENRE=%genre%" -T "COMMENT=%comment%" -T "BAND=%albuminterpret%" -T "ALBUMARTIST=%albuminterpret%" -T "COMPOSER=%composer%" %haslyrics%–tag-from-file=LYRICS="%lyricsfile%"%haslyrics% -T "DISCNUMBER=%cdnumber%" -T "TOTALDISCS=%totalcds%" -T "TOTALTRACKS=%numtracks%" %hascover%–picture="%coverfile%"%hascover% %source% -o %dest%


TOC of the extracted CD

Track | Start | Length | Start sector | End sector
––––––––––––––––––––––––––––-
1 | 0:00.00 | 3:35.17 | 0 | 16141
2 | 3:35.17 | 5:35.71 | 16142 | 41337
3 | 9:11.13 | 3:47.30 | 41338 | 58392
4 | 12:58.43 | 3:12.31 | 58393 | 72823
5 | 16:10.74 | 3:50.09 | 72824 | 90082
6 | 20:01.08 | 4:13.19 | 90083 | 109076
7 | 24:14.27 | 3:21.64 | 109077 | 124215
8 | 27:36.16 | 3:38.41 | 124216 | 140606
9 | 31:14.57 | 2:26.62 | 140607 | 151618
10 | 33:41.44 | 3:30.71 | 151619 | 167439
11 | 37:12.40 | 3:33.53 | 167440 | 183467
12 | 40:46.18 | 4:00.65 | 183468 | 201532
13 | 44:47.08 | 3:54.60 | 201533 | 219142
14 | 48:41.68 | 3:50.11 | 219143 | 236403
15 | 52:32.04 | 3:37.64 | 236404 | 252742
16 | 56:09.68 | 3:05.64 | 252743 | 266681
17 | 59:15.57 | 2:37.72 | 266682 | 278528
18 | 61:53.54 | 4:15.64 | 278529 | 297717
19 | 66:09.43 | 2:58.55 | 297718 | 311122
20 | 69:08.23 | 3:20.07 | 311123 | 326129


Track 1

Filename A:\PsPBuRnOuT's MUSIC\COUNTRY\100 Hits Country\CD4 - 100 Hits Country\01.Randy Travis - Forever And Ever, Amen.wav

Peak level 99.8 %
Extraction speed 9.1 X
Track quality 100.0 %
Copy CRC EB8E8DEB
Accurately ripped (confidence 2) [8079B75A] (AR v2)
Copy OK

Track 2

Filename A:\PsPBuRnOuT's MUSIC\COUNTRY\100 Hits Country\CD4 - 100 Hits Country\02.Sara Evans - Born To Fly.wav

Peak level 90.5 %
Extraction speed 10.5 X
Track quality 100.0 %
Copy CRC 9D063479
Accurately ripped (confidence 2) [AA179488] (AR v2)
Copy OK

Track 3

Filename A:\PsPBuRnOuT's MUSIC\COUNTRY\100 Hits Country\CD4 - 100 Hits Country\03.Brad Paisley - We Danced.wav

Peak level 83.5 %
Extraction speed 11.2 X
Track quality 100.0 %
Copy CRC 9E341382
Accurately ripped (confidence 2) [1BEA6CB5] (AR v2)
Copy OK

Track 4

Filename A:\PsPBuRnOuT's MUSIC\COUNTRY\100 Hits Country\CD4 - 100 Hits Country\04.Pam Tillis - Don't Tell Me What To Do.wav

Peak level 59.0 %
Extraction speed 11.8 X
Track quality 100.0 %
Copy CRC B60C791C
Accurately ripped (confidence 2) [D3467F9A] (AR v2)
Copy OK

Track 5

Filename A:\PsPBuRnOuT's MUSIC\COUNTRY\100 Hits Country\CD4 - 100 Hits Country\05.Mandy Barnett - Rainy Days.wav

Peak level 98.8 %
Extraction speed 13.0 X
Track quality 100.0 %
Copy CRC 6CA4D8AA
Accurately ripped (confidence 2) [28D02924] (AR v2)
Copy OK

Track 6

Filename A:\PsPBuRnOuT's MUSIC\COUNTRY\100 Hits Country\CD4 - 100 Hits Country\06.K.T. Oslin - 80's Ladies.wav

Peak level 99.8 %
Extraction speed 13.2 X
Track quality 100.0 %
Copy CRC CA828875
Accurately ripped (confidence 2) [1B9214D7] (AR v2)
Copy OK

Track 7

Filename A:\PsPBuRnOuT's MUSIC\COUNTRY\100 Hits Country\CD4 - 100 Hits Country\07.K.D. Lang - Trail Of Broken Hearts.wav

Peak level 67.6 %
Extraction speed 14.4 X
Track quality 100.0 %
Copy CRC 46810C5C
Accurately ripped (confidence 2) [60856F54] (AR v2)
Copy OK

Track 8

Filename A:\PsPBuRnOuT's MUSIC\COUNTRY\100 Hits Country\CD4 - 100 Hits Country\08.Rodney Crowell - I Ain't Living Long Like This.wav

Peak level 94.3 %
Extraction speed 14.3 X
Track quality 100.0 %
Copy CRC 59CD3570
Accurately ripped (confidence 2) [5141DB70] (AR v2)
Copy OK

Track 9

Filename A:\PsPBuRnOuT's MUSIC\COUNTRY\100 Hits Country\CD4 - 100 Hits Country\09.The Dillards - Somebody Touched Me.wav

Peak level 89.0 %
Extraction speed 14.6 X
Track quality 100.0 %
Copy CRC C7B1A827
Accurately ripped (confidence 2) [CF264D55] (AR v2)
Copy OK

Track 10

Filename A:\PsPBuRnOuT's MUSIC\COUNTRY\100 Hits Country\CD4 - 100 Hits Country\10.Tracy Lawrence - How A Cowgirl Says Goodbye.wav

Peak level 82.8 %
Extraction speed 15.1 X
Track quality 99.8 %
Copy CRC A003ECEB
Accurately ripped (confidence 2) [C87A175B] (AR v2)
Copy OK

Track 11

Filename A:\PsPBuRnOuT's MUSIC\COUNTRY\100 Hits Country\CD4 - 100 Hits Country\11.Beth Nielsen Chapman - Happy Girl.wav

Peak level 70.7 %
Extraction speed 15.7 X
Track quality 100.0 %
Copy CRC FBA9AC41
Accurately ripped (confidence 2) [04A969D5] (AR v2)
Copy OK

Track 12

Filename A:\PsPBuRnOuT's MUSIC\COUNTRY\100 Hits Country\CD4 - 100 Hits Country\12.Leslie Satcher - Love Letters From Old Mexico.wav

Peak level 81.3 %
Extraction speed 16.2 X
Track quality 100.0 %
Copy CRC 3C2B5F5F
Accurately ripped (confidence 2) [73199A07] (AR v2)
Copy OK

Track 13

Filename A:\PsPBuRnOuT's MUSIC\COUNTRY\100 Hits Country\CD4 - 100 Hits Country\13.Kenny Chesney - I Lost It.wav

Peak level 84.1 %
Extraction speed 16.7 X
Track quality 100.0 %
Copy CRC 9A286244
Accurately ripped (confidence 2) [680AD600] (AR v2)
Copy OK

Track 14

Filename A:\PsPBuRnOuT's MUSIC\COUNTRY\100 Hits Country\CD4 - 100 Hits Country\14.Blake Shelton - Austin.wav

Peak level 78.6 %
Extraction speed 18.0 X
Track quality 100.0 %
Copy CRC E787E17D
Accurately ripped (confidence 2) [5C6B3A52] (AR v2)
Copy OK

Track 15

Filename A:\PsPBuRnOuT's MUSIC\COUNTRY\100 Hits Country\CD4 - 100 Hits Country\15.Tracy Lawrence - Sticks And Stones.wav

Peak level 79.4 %
Extraction speed 17.6 X
Track quality 100.0 %
Copy CRC D2EB0EDC
Accurately ripped (confidence 2) [3023F47A] (AR v2)
Copy OK

Track 16

Filename A:\PsPBuRnOuT's MUSIC\COUNTRY\100 Hits Country\CD4 - 100 Hits Country\16.Clint Black - A Better Man.wav

Peak level 91.0 %
Extraction speed 19.0 X
Track quality 100.0 %
Copy CRC D01CBF71
Accurately ripped (confidence 2) [6BACB49E] (AR v2)
Copy OK

Track 17

Filename A:\PsPBuRnOuT's MUSIC\COUNTRY\100 Hits Country\CD4 - 100 Hits Country\17.Gene Parsons - Drunkard's Dream.wav

Peak level 99.8 %
Extraction speed 18.2 X
Track quality 100.0 %
Copy CRC 2973BFE9
Accurately ripped (confidence 2) [2CD9EBF9] (AR v2)
Copy OK

Track 18

Filename A:\PsPBuRnOuT's MUSIC\COUNTRY\100 Hits Country\CD4 - 100 Hits Country\18.John Prine - Sam Stone.wav

Peak level 99.8 %
Extraction speed 18.7 X
Track quality 99.9 %
Copy CRC C0AD662A
Accurately ripped (confidence 2) [D62A23BA] (AR v2)
Copy OK

Track 19

Filename A:\PsPBuRnOuT's MUSIC\COUNTRY\100 Hits Country\CD4 - 100 Hits Country\19.Gram Parsons - That's All It Took.wav

Peak level 99.8 %
Extraction speed 18.9 X
Track quality 100.0 %
Copy CRC 3A705EB6
Accurately ripped (confidence 2) [123193A7] (AR v2)
Copy OK

Track 20

Filename A:\PsPBuRnOuT's MUSIC\COUNTRY\100 Hits Country\CD4 - 100 Hits Country\20.Dwight Yoakam With Maria McKee - Bury Me.wav

Peak level 99.8 %
Extraction speed 19.4 X
Track quality 100.0 %
Copy CRC 241256EA
Accurately ripped (confidence 2) [076E01C9] (AR v2)
Copy OK


All tracks accurately ripped

No errors occurred

End of status report

–– CUETools DB Plugin V2.1.6

[CTDB TOCID: J8YddzgPVzqhpH5IEaWxHPpJzUc-] found
Submit result: J8YddzgPVzqhpH5IEaWxHPpJzUc- has been confirmed
Track | CTDB Status
1 | (29/29) Accurately ripped
2 | (29/29) Accurately ripped
3 | (29/29) Accurately ripped
4 | (29/29) Accurately ripped
5 | (29/29) Accurately ripped
6 | (29/29) Accurately ripped
7 | (29/29) Accurately ripped
8 | (29/29) Accurately ripped
9 | (29/29) Accurately ripped
10 | (29/29) Accurately ripped
11 | (29/29) Accurately ripped
12 | (29/29) Accurately ripped
13 | (29/29) Accurately ripped
14 | (29/29) Accurately ripped
15 | (29/29) Accurately ripped
16 | (29/29) Accurately ripped
17 | (29/29) Accurately ripped
18 | (29/29) Accurately ripped
19 | (29/29) Accurately ripped
20 | (29/29) Accurately ripped

Exact Audio Copy V1.3 from 2. September 2016

EAC extraction logfile from 8. September 2017, 16:25

Various / 100 Hits - Country - CD5

Used drive : ATAPI iHAS124 Y Adapter: 1 ID: 0

Read mode : Secure
Utilize accurate stream : Yes
Defeat audio cache : No
Make use of C2 pointers : Yes

Read offset correction : 48
Overread into Lead-In and Lead-Out : No
Fill up missing offset samples with silence : Yes
Delete leading and trailing silent blocks : No
Null samples used in CRC calculations : Yes
Used interface : Native Win32 interface for Win NT & 2000
Gap handling : Not detected, thus appended to previous track

Used output format : User Defined Encoder
Selected bitrate : 896 kBit/s
Quality : High
Add ID3 tag : No
Command line compressor : C:\Program Files (x86)\Exact Audio Copy\FLAC\FLAC.EXE
Additional command line options : -6 -V -T "ARTIST=%artist%" -T "TITLE=%title%" -T "ALBUM=%albumtitle%" -T "DATE=%year%" -T "TRACKNUMBER=%tracknr%" -T "GENRE=%genre%" -T "COMMENT=%comment%" -T "BAND=%albuminterpret%" -T "ALBUMARTIST=%albuminterpret%" -T "COMPOSER=%composer%" %haslyrics%–tag-from-file=LYRICS="%lyricsfile%"%haslyrics% -T "DISCNUMBER=%cdnumber%" -T "TOTALDISCS=%totalcds%" -T "TOTALTRACKS=%numtracks%" %hascover%–picture="%coverfile%"%hascover% %source% -o %dest%


TOC of the extracted CD

Track | Start | Length | Start sector | End sector
––––––––––––––––––––––––––––-
1 | 0:00.00 | 2:25.28 | 0 | 10902
2 | 2:25.28 | 2:47.73 | 10903 | 23500
3 | 5:13.26 | 4:48.09 | 23501 | 45109
4 | 10:01.35 | 2:37.64 | 45110 | 56948
5 | 12:39.24 | 4:40.51 | 56949 | 77999
6 | 17:20.00 | 3:24.73 | 78000 | 93372
7 | 20:44.73 | 2:55.65 | 93373 | 106562
8 | 23:40.63 | 2:42.63 | 106563 | 118775
9 | 26:23.51 | 2:49.16 | 118776 | 131466
10 | 29:12.67 | 2:03.07 | 131467 | 140698
11 | 31:15.74 | 2:33.56 | 140699 | 152229
12 | 33:49.55 | 2:11.23 | 152230 | 162077
13 | 36:01.03 | 2:49.52 | 162078 | 174804
14 | 38:50.55 | 2:28.43 | 174805 | 185947
15 | 41:19.23 | 2:22.69 | 185948 | 196666
16 | 43:42.17 | 2:39.00 | 196667 | 208591
17 | 46:21.17 | 3:06.50 | 208592 | 222591
18 | 49:27.67 | 3:36.63 | 222592 | 238854
19 | 53:04.55 | 4:57.64 | 238855 | 261193
20 | 58:02.44 | 2:38.53 | 261194 | 273096


Track 1

Filename A:\PsPBuRnOuT's MUSIC\COUNTRY\100 Hits Country\CD5 - 100 Hits Country\01.Jim Reeves - Welcome To My World.wav

Peak level 99.8 %
Extraction speed 13.0 X
Track quality 100.0 %
Copy CRC D20C8ABA
Accurately ripped (confidence 2) [31CC4553] (AR v2)
Copy OK

Track 2

Filename A:\PsPBuRnOuT's MUSIC\COUNTRY\100 Hits Country\CD5 - 100 Hits Country\02.Waylon Jennings - I'm A Ramblin' Man.wav

Peak level 97.7 %
Extraction speed 19.2 X
Track quality 100.0 %
Copy CRC 07F6F5C6
Accurately ripped (confidence 2) [36C0F592] (AR v2)
Copy OK

Track 3

Filename A:\PsPBuRnOuT's MUSIC\COUNTRY\100 Hits Country\CD5 - 100 Hits Country\03.Merle Haggard - Pancho And Lefty.wav

Peak level 99.8 %
Extraction speed 20.6 X
Track quality 100.0 %
Copy CRC E8CE8C74
Accurately ripped (confidence 2) [914DAE48] (AR v2)
Copy OK

Track 4

Filename A:\PsPBuRnOuT's MUSIC\COUNTRY\100 Hits Country\CD5 - 100 Hits Country\04.Skeeter Davis - The End Of The World.wav

Peak level 75.8 %
Extraction speed 22.5 X
Track quality 100.0 %
Copy CRC 25B9CD42
Accurately ripped (confidence 2) [870E4F6F] (AR v2)
Copy OK

Track 5

Filename A:\PsPBuRnOuT's MUSIC\COUNTRY\100 Hits Country\CD5 - 100 Hits Country\05.Marty Robbins - El Paso.wav

Peak level 99.8 %
Extraction speed 22.7 X
Track quality 100.0 %
Copy CRC BB16FCF5
Accurately ripped (confidence 2) [730BA44D] (AR v2)
Copy OK

Track 6

Filename A:\PsPBuRnOuT's MUSIC\COUNTRY\100 Hits Country\CD5 - 100 Hits Country\06.Melba Montgomery - No Charge.wav

Peak level 99.8 %
Extraction speed 25.2 X
Track quality 100.0 %
Copy CRC F986C45F
Accurately ripped (confidence 2) [47B62383] (AR v2)
Copy OK

Track 7

Filename A:\PsPBuRnOuT's MUSIC\COUNTRY\100 Hits Country\CD5 - 100 Hits Country\07.Charlie Rich - Your Cheatin' Heart.wav

Peak level 88.3 %
Extraction speed 24.8 X
Track quality 100.0 %
Copy CRC 8FB00C24
Accurately ripped (confidence 2) [CABE1C82] (AR v2)
Copy OK

Track 8

Filename A:\PsPBuRnOuT's MUSIC\COUNTRY\100 Hits Country\CD5 - 100 Hits Country\08.Eddy Arnold - I'll Hold You In My Heart (Till I Can Hold You In My Arms).wav

Peak level 99.8 %
Extraction speed 21.3 X
Track quality 99.8 %
Copy CRC 6FF58C45
Accurately ripped (confidence 4) [4B2141D8] (AR v1)
Copy OK

Track 9

Filename A:\PsPBuRnOuT's MUSIC\COUNTRY\100 Hits Country\CD5 - 100 Hits Country\09.Freddy Fender - Wasted Days And Wasted Nights.wav

Peak level 89.0 %
Extraction speed 16.8 X
Track quality 99.8 %
Copy CRC 24E89B94
Accurately ripped (confidence 2) [C42A7100] (AR v2)
Copy OK

Track 10

Filename A:\PsPBuRnOuT's MUSIC\COUNTRY\100 Hits Country\CD5 - 100 Hits Country\10.Chet Atkins - Yakety Axe.wav

Peak level 99.8 %
Extraction speed 20.7 X
Track quality 100.0 %
Copy CRC C38F6558
Accurately ripped (confidence 2) [BB0E77B7] (AR v2)
Copy OK

Track 11

Filename A:\PsPBuRnOuT's MUSIC\COUNTRY\100 Hits Country\CD5 - 100 Hits Country\11.George Hamilton IV - She's A Little Bit Country.wav

Peak level 99.8 %
Extraction speed 27.8 X
Track quality 100.0 %
Copy CRC 9DA156BF
Accurately ripped (confidence 2) [FAA69EB8] (AR v2)
Copy OK

Track 12

Filename A:\PsPBuRnOuT's MUSIC\COUNTRY\100 Hits Country\CD5 - 100 Hits Country\12.Jerry Reed - Are You From Dixie (Cause I'm From Dixie Too).wav

Peak level 69.9 %
Extraction speed 22.2 X
Track quality 99.8 %
Copy CRC 95C3D3BD
Accurately ripped (confidence 2) [F899690C] (AR v2)
Copy OK

Track 13

Filename A:\PsPBuRnOuT's MUSIC\COUNTRY\100 Hits Country\CD5 - 100 Hits Country\13.Hank Snow - I'm Movin' On.wav

Peak level 97.8 %
Extraction speed 22.4 X
Track quality 100.0 %
Copy CRC 53C6A99C
Accurately ripped (confidence 2) [AA1C6D3C] (AR v2)
Copy OK

Track 14

Filename A:\PsPBuRnOuT's MUSIC\COUNTRY\100 Hits Country\CD5 - 100 Hits Country\14.Hank Locklin - Send Me The Pillow You Dream On.wav

Peak level 89.0 %
Extraction speed 32.1 X
Track quality 100.0 %
Copy CRC 7CABE695
Accurately ripped (confidence 2) [6271E888] (AR v2)
Copy OK

Track 15

Filename A:\PsPBuRnOuT's MUSIC\COUNTRY\100 Hits Country\CD5 - 100 Hits Country\15.Porter Wagoner - Green, Green Grass Of Home.wav

Peak level 64.7 %
Extraction speed 28.5 X
Track quality 100.0 %
Copy CRC C3FC987D
Accurately ripped (confidence 2) [6812CBCB] (AR v2)
Copy OK

Track 16

Filename A:\PsPBuRnOuT's MUSIC\COUNTRY\100 Hits Country\CD5 - 100 Hits Country\16.Willie Nelson - Shotgun Willie.wav

Peak level 99.8 %
Extraction speed 24.5 X
Track quality 99.8 %
Copy CRC 5FDA1329
Accurately ripped (confidence 2) [E1D6A724] (AR v2)
Copy OK

Track 17

Filename A:\PsPBuRnOuT's MUSIC\COUNTRY\100 Hits Country\CD5 - 100 Hits Country\17.Tom Paxton - The Last Thing On My Mind.wav

Peak level 99.8 %
Extraction speed 24.1 X
Track quality 100.0 %
Copy CRC EF4BA540
Accurately ripped (confidence 2) [4AEB024B] (AR v2)
Copy OK

Track 18

Filename A:\PsPBuRnOuT's MUSIC\COUNTRY\100 Hits Country\CD5 - 100 Hits Country\18.Kris Kristofferson - The Silver Tongued Devil And I.wav

Peak level 79.3 %
Extraction speed 32.9 X
Track quality 100.0 %
Copy CRC 3DE7B78B
Accurately ripped (confidence 2) [1FE58C5F] (AR v2)
Copy OK

Track 19

Filename A:\PsPBuRnOuT's MUSIC\COUNTRY\100 Hits Country\CD5 - 100 Hits Country\19.Vern Gosdin - The First Time Ever I Saw Your Face.wav

Peak level 99.8 %
Extraction speed 33.6 X
Track quality 100.0 %
Copy CRC 60BB0E49
Accurately ripped (confidence 2) [5B8C48DF] (AR v2)
Copy OK

Track 20

Filename A:\PsPBuRnOuT's MUSIC\COUNTRY\100 Hits Country\CD5 - 100 Hits Country\20.The Everly Brothers - I Walk The Line.wav

Peak level 99.8 %
Extraction speed 26.6 X
Track quality 99.8 %
Copy CRC F7A07693
Accurately ripped (confidence 2) [EAAC3578] (AR v2)
Copy OK


All tracks accurately ripped

No errors occurred

End of status report

–– CUETools DB Plugin V2.1.6

[CTDB TOCID: PgKzZHyy2JX0jeaetu_VQ8alETE-] found
Submit result: PgKzZHyy2JX0jeaetu_VQ8alETE- has been confirmed
Track | CTDB Status
1 | (26/26) Accurately ripped
2 | (26/26) Accurately ripped
3 | (26/26) Accurately ripped
4 | (26/26) Accurately ripped
5 | (26/26) Accurately ripped
6 | (26/26) Accurately ripped
7 | (26/26) Accurately ripped
8 | (26/26) Accurately ripped
9 | (26/26) Accurately ripped
10 | (26/26) Accurately ripped
11 | (26/26) Accurately ripped
12 | (26/26) Accurately ripped
13 | (26/26) Accurately ripped
14 | (26/26) Accurately ripped
15 | (26/26) Accurately ripped
16 | (26/26) Accurately ripped
17 | (26/26) Accurately ripped
18 | (26/26) Accurately ripped
19 | (26/26) Accurately ripped
20 | (26/26) Accurately ripped

All thanks to original releaser - PsPBuRnOuT

password: BlondStyle