Subcategories

Various Artists - 100 Hits: The Best Eighties Album [5CD] (2017)

Posted By: BlondStyle
Various Artists - 100 Hits: The Best Eighties Album [5CD] (2017)

Various Artists - 100 Hits: The Best Eighties Album [5CD] (2017)
Pop/Rock, R&B, New Wave | EAC Rip | FLAC, Tracks+CUE+LOG+Scans (JPEG) | 06:21:27 h | 2,78 Gb
Label: Demon Music/Sony Music Entertainment UK Ltd. (EU) | Cat.# DMGN 100 204 | Released: 2017-11-03

The Best Eighties Album contains the defining tracks of the decade features some of the biggest hits from artists including Belinda Carlisle, Kim Wilde, Bonnie Tyler, Toto, Adam & The Ants, KC & The Sunshine Band, The Bangles, Billy Ocean, James Brown and many more.
~Amazon UK

Various Artists - 100 Hits: The Best Eighties Album [5CD] (2017)

Various Artists - 100 Hits: The Best Eighties Album [5CD] (2017)


Release of this 3CD Set: 2017, November, 3 [CD Demon Music/Sony Music Entertainment UK Ltd. (EU), Cat.# DMGN 100 204 / UPC: 654378720420]
This compilation ℗© 2017 Demon Music Group Limited/Sony Music Entertainment UK Limited.
Marketed by Demon Music Group Limited.
Manufactured in the EU


Tracklist:

Disc 1

01. Belinda Carlisle - Heaven Is A Place On Earth (03:53)
02. Bonnie Tyler - Total Eclipse Of The Heart (04:31)
03. Eric Carmen - Hungry Eyes (04:27)
04. The Bangles - Manic Monday (03:04)
05. Mel & Kim - Respectable (03:22)
06. Dead Or Alive - You Spin Me Round (Like A Record) (03:15)
07. Adam & The Ants - Prince Charming (03:17)
08. Cyndi Lauper - Girls Just Want To Have Fun (03:56)
09. Martika - Toy Soldiers (04:20)
10. Paul Young - Love Of The Common People (03:42)
11. Owen Paul - My Favourite Waste Of Time (03:28)
12. Five Star - System Addict (04:04)
13. Altered Images - Don't Talk To Me About Love (03:48)
14. Howard Jones - What Is Love? (03:39)
15. Dee C. Lee - See The Day (04:21)
16. Taylor Dayne - Tell It To My Heart (03:40)
17. Sinitta - So Macho (03:24)
18. Kiki Dee - Star (03:15)
19. Tight Fit - The Lion Sleeps Tonight (03:21)
20. Fairground Attraction - Perfect (03:35)

Disc 2

01. Toto - Africa (04:04)
02. Men At Work - Down Under (03:43)
03. Journey - Don't Stop Believin' (04:09)
04. Survivor - Eye Of The Tiger (03:47)
05. Meat Loaf With Cher - Dead Ringer For Love (04:22)
06. Europe - The Final Countdown (03:58)
07. REO Speedwagon - Keep On Loving You (03:22)
08. Kenny Loggins - Footloose (03:47)
09. Bruce Hornsby & The Range - The Way It Is (03:58)
10. Daryl Hall & John Oates - Maneater (03:20)
11. Deacon Blue - Dignity (03:59)
12. Wax - Bridge To Your Heart (04:12)
13. Five Star - Can't Wait Another Minute (04:31)
14. Mental As Anything - Live It Up (03:48)
15. Roachford - Cuddly Toy (03:49)
16. Kim Wilde - Chequered Love (03:21)
17. Belinda Carlisle - Circle In The Sand (04:26)
18. Nick Heyward - Blue Hat For A Blue Day (04:03)
19. Dolly Parton & Kenny Rogers - Islands In The Stream (04:08)
20. Cyndi Lauper - Time After Time (03:59)

Disc 3

01. Kim Wilde - Kids In America (03:25)
02. Adam & The Ants - Stand And Deliver (03:33)
03. Aneka - Japanese Boy (03:55)
04. King - Love & Pride (03:22)
05. Howard Jones - New Song (04:14)
06. Altered Images - Happy Birthday (02:58)
07. The Bangles - Walk Like An Eygptian (03:24)
08. Men Without Hats - Safety Dance (02:44)
09. Haircut 100 - Love Plus One (03:38)
10. Bow Wow Wow - I Want Candy (02:44)
11. Fiction Factory - (Feels Like) Heaven (03:31)
12. The Lotus Eaters - The First Picture Of You (03:39)
13. Spandau Ballet - Fight For Ourselves (04:22)
14. H2O - Dream To Sleep (03:54)
15. The Psychedelic Furs - Pretty In Pink (03:59)
16. Toyah - Don't Fall In Love (I Said) (03:43)
17. Big Audio Dynamite - E=MC2 (04:27)
18. Haysi Fantayzee - John Wayne Is Big Leggy (03:19)
19. Bill Wyman - (Si Si) Je Suis Un Rock Star (03:22)
20. Matthew Wilder - Break My Stride (03:01)

Disc 4

01. KC & The Sunshine Band - Give It Up (04:06)
02. The Weather Girls - It's Raining Men (03:31)
03. The Jacksons - Can You Feel It (03:33)
04. The Pointer Sisters - Jump (For My Love) (04:00)
05. Dolly Parton - 9 To 5 (02:45)
06. The Nolans - I'm In The Mood For Dancing (03:18)
07. Earth, Wind & Fire - Let's Groove (04:03)
08. Daryl Hall & John Oates - I Can't Go For That (No Can Do) (03:44)
09. Odyssey - Going Back To My Roots (03:25)
10. Miami Sound Machine - Dr. Beat (04:23)
11. Terence Trent D'Arby - If You Let Me Stay (03:15)
12. Cherelle & Alexander O'Neal - Saturday Love (04:50)
13. Modern Talking - Brother Louie (03:41)
14. Bros - When Will I Be Famous? (03:59)
15. New Kids On The Block - You Got It (The Right Stuff) (04:10)
16. Big Fun - Blame It On The Boogie (03:37)
17. The Kids From "Fame" - Hi-Fidelity (02:46)
18. Donna Summer - Dinner With Gershwin (04:10)
19. Eighth Wonder - I'm Not Scared (04:31)
20. Damian - The Time Warp 2 (06:20)

Disc 5

01. Billy Ocean - When The Going Gets Tough, The Tough Get Going (03:01)
02. Deniece Williams - Let's Hear It For The Boy (04:21)
03. James Brown - Living In America (04:43)
04. Luther Vandross - Never Too Much (03:50)
05. Aretha Franklin - Who's Zoomin' Who? (04:44)
06. Boy Meets Girl - Waiting For A Star To Fall (04:32)
07. Alexander O'Neal - Criticize (03:59)
08. S.O.S. Band - Just Be Good To Me (04:24)
09. Donna Summer - This Time I Know It's For Real (03:37)
10. Evelyn "Champagne" King - Love Come Down (03:17)
11. The Four Tops - Loco In Acapulco (03:30)
12. The Pasadenas - Tribute (Right On) (04:25)
13. Lisa Stansfield - All Around The World (04:23)
14. Joyce Sims - Come Into My Life (03:45)
15. Milli Vanilli - Girl You Know It's True (04:13)
16. S'Express - Theme From S-Express (03:34)
17. Herbie Hancock - Rockit (03:22)
18. Landscape - Einstein A Go-Go (02:59)
19. Bomb The Bass - Beat Dis (03:19)
20. Farley ''Jackmaster'' Funk - Love Can't Turn Around (04:11)

Exact Audio Copy V1.3 from 2. September 2016

EAC extraction logfile from 1. May 2018, 17:59

Various / 100 Hits - The Best - Eighties Album - CD01

Used drive : HL-DT-STDVDRAM GSA-E40N Adapter: 1 ID: 1

Read mode : Secure
Utilize accurate stream : Yes
Defeat audio cache : No
Make use of C2 pointers : Yes

Read offset correction : 667
Overread into Lead-In and Lead-Out : No
Fill up missing offset samples with silence : Yes
Delete leading and trailing silent blocks : No
Null samples used in CRC calculations : Yes
Used interface : Native Win32 interface for Win NT & 2000
Gap handling : Not detected, thus appended to previous track

Used output format : User Defined Encoder
Selected bitrate : 896 kBit/s
Quality : High
Add ID3 tag : No
Command line compressor : C:\Program Files (x86)\Exact Audio Copy\FLAC\FLAC.EXE
Additional command line options : -6 -V -T "ARTIST=%artist%" -T "TITLE=%title%" -T "ALBUM=%albumtitle%" -T "DATE=%year%" -T "TRACKNUMBER=%tracknr%" -T "GENRE=%genre%" -T "COMMENT=%comment%" -T "BAND=%albuminterpret%" -T "ALBUMARTIST=%albuminterpret%" -T "COMPOSER=%composer%" %haslyrics%–tag-from-file=LYRICS="%lyricsfile%"%haslyrics% -T "DISCNUMBER=%cdnumber%" -T "TOTALDISCS=%totalcds%" -T "TOTALTRACKS=%numtracks%" %hascover%–picture="%coverfile%"%hascover% %source% -o %dest%


TOC of the extracted CD

Track | Start | Length | Start sector | End sector
––––––––––––––––––––––––––––-
1 | 0:00.00 | 3:53.06 | 0 | 17480
2 | 3:53.06 | 4:31.09 | 17481 | 37814
3 | 8:24.15 | 4:27.19 | 37815 | 57858
4 | 12:51.34 | 3:04.00 | 57859 | 71658
5 | 15:55.34 | 3:22.18 | 71659 | 86826
6 | 19:17.52 | 3:15.44 | 86827 | 101495
7 | 22:33.21 | 3:17.23 | 101496 | 116293
8 | 25:50.44 | 3:56.21 | 116294 | 134014
9 | 29:46.65 | 4:20.58 | 134015 | 153572
10 | 34:07.48 | 3:42.20 | 153573 | 170242
11 | 37:49.68 | 3:28.13 | 170243 | 185855
12 | 41:18.06 | 4:04.02 | 185856 | 204157
13 | 45:22.08 | 3:48.38 | 204158 | 221295
14 | 49:10.46 | 3:39.41 | 221296 | 237761
15 | 52:50.12 | 4:21.26 | 237762 | 257362
16 | 57:11.38 | 3:40.63 | 257363 | 273925
17 | 60:52.26 | 3:24.40 | 273926 | 289265
18 | 64:16.66 | 3:15.35 | 289266 | 303925
19 | 67:32.26 | 3:21.08 | 303926 | 319008
20 | 70:53.34 | 3:35.68 | 319009 | 335201


Track 1

Filename A:\PsPBuRnOuT's MUSIC\100 HITS\- 100 HITS - THE BEST -\100 HITS - THE BEST - EIGHTIES ALBUM\100 HITS - THE BEST - EIGHTIES ALBUM - CD01\01.Belinda Carlisle - Heaven Is A Place On Earth.wav

Peak level 94.3 %
Extraction speed 14.4 X
Track quality 100.0 %
Copy CRC 738354FC
Accurately ripped (confidence 4) [3E2DC1A3] (AR v2)
Copy OK

Track 2

Filename A:\PsPBuRnOuT's MUSIC\100 HITS\- 100 HITS - THE BEST -\100 HITS - THE BEST - EIGHTIES ALBUM\100 HITS - THE BEST - EIGHTIES ALBUM - CD01\02.Bonnie Tyler - Total Eclipse Of The Heart.wav

Peak level 94.3 %
Extraction speed 15.1 X
Track quality 100.0 %
Copy CRC BD83A44B
Accurately ripped (confidence 4) [2904D314] (AR v2)
Copy OK

Track 3

Filename A:\PsPBuRnOuT's MUSIC\100 HITS\- 100 HITS - THE BEST -\100 HITS - THE BEST - EIGHTIES ALBUM\100 HITS - THE BEST - EIGHTIES ALBUM - CD01\03.Eric Carmen - Hungry Eyes.wav

Peak level 91.1 %
Extraction speed 16.2 X
Track quality 100.0 %
Copy CRC BD5B3E0C
Accurately ripped (confidence 4) [ABF09FDB] (AR v2)
Copy OK

Track 4

Filename A:\PsPBuRnOuT's MUSIC\100 HITS\- 100 HITS - THE BEST -\100 HITS - THE BEST - EIGHTIES ALBUM\100 HITS - THE BEST - EIGHTIES ALBUM - CD01\04.The Bangles - Manic Monday.wav

Peak level 94.3 %
Extraction speed 18.8 X
Track quality 100.0 %
Copy CRC 1AD33132
Accurately ripped (confidence 4) [2CA25BBA] (AR v2)
Copy OK

Track 5

Filename A:\PsPBuRnOuT's MUSIC\100 HITS\- 100 HITS - THE BEST -\100 HITS - THE BEST - EIGHTIES ALBUM\100 HITS - THE BEST - EIGHTIES ALBUM - CD01\05.Mel & Kim - Respectable.wav

Peak level 79.4 %
Extraction speed 17.7 X
Track quality 100.0 %
Copy CRC 7B489604
Accurately ripped (confidence 4) [BB14CFE5] (AR v2)
Copy OK

Track 6

Filename A:\PsPBuRnOuT's MUSIC\100 HITS\- 100 HITS - THE BEST -\100 HITS - THE BEST - EIGHTIES ALBUM\100 HITS - THE BEST - EIGHTIES ALBUM - CD01\06.Dead Or Alive - You Spin Me Round (Like A Record).wav

Peak level 74.1 %
Extraction speed 18.2 X
Track quality 100.0 %
Copy CRC F6043B3A
Accurately ripped (confidence 4) [FC63EB2A] (AR v2)
Copy OK

Track 7

Filename A:\PsPBuRnOuT's MUSIC\100 HITS\- 100 HITS - THE BEST -\100 HITS - THE BEST - EIGHTIES ALBUM\100 HITS - THE BEST - EIGHTIES ALBUM - CD01\07.Adam & The Ants - Prince Charming.wav

Peak level 94.3 %
Extraction speed 21.2 X
Track quality 100.0 %
Copy CRC 715D5E83
Accurately ripped (confidence 4) [A8E9C615] (AR v2)
Copy OK

Track 8

Filename A:\PsPBuRnOuT's MUSIC\100 HITS\- 100 HITS - THE BEST -\100 HITS - THE BEST - EIGHTIES ALBUM\100 HITS - THE BEST - EIGHTIES ALBUM - CD01\08.Cyndi Lauper - Girls Just Want To Have Fun.wav

Peak level 94.3 %
Extraction speed 20.4 X
Track quality 100.0 %
Copy CRC B2045EBD
Accurately ripped (confidence 4) [E93F5B1A] (AR v2)
Copy OK

Track 9

Filename A:\PsPBuRnOuT's MUSIC\100 HITS\- 100 HITS - THE BEST -\100 HITS - THE BEST - EIGHTIES ALBUM\100 HITS - THE BEST - EIGHTIES ALBUM - CD01\09.Martika - Toy Soldiers.wav

Peak level 85.0 %
Extraction speed 23.5 X
Track quality 100.0 %
Copy CRC 57A4FF7C
Accurately ripped (confidence 4) [9ED42952] (AR v2)
Copy OK

Track 10

Filename A:\PsPBuRnOuT's MUSIC\100 HITS\- 100 HITS - THE BEST -\100 HITS - THE BEST - EIGHTIES ALBUM\100 HITS - THE BEST - EIGHTIES ALBUM - CD01\10.Paul Young - Love Of The Common People.wav

Peak level 94.3 %
Extraction speed 22.0 X
Track quality 100.0 %
Copy CRC 8180F147
Accurately ripped (confidence 4) [FA0A7B1C] (AR v2)
Copy OK

Track 11

Filename A:\PsPBuRnOuT's MUSIC\100 HITS\- 100 HITS - THE BEST -\100 HITS - THE BEST - EIGHTIES ALBUM\100 HITS - THE BEST - EIGHTIES ALBUM - CD01\11.Owen Paul - My Favourite Waste Of Time.wav

Peak level 94.3 %
Extraction speed 24.6 X
Track quality 100.0 %
Copy CRC 9DB1A495
Accurately ripped (confidence 4) [266CC0E1] (AR v2)
Copy OK

Track 12

Filename A:\PsPBuRnOuT's MUSIC\100 HITS\- 100 HITS - THE BEST -\100 HITS - THE BEST - EIGHTIES ALBUM\100 HITS - THE BEST - EIGHTIES ALBUM - CD01\12.Five Star - System Addict.wav

Peak level 94.3 %
Extraction speed 23.7 X
Track quality 100.0 %
Copy CRC 44E76EEB
Accurately ripped (confidence 4) [6481A040] (AR v2)
Copy OK

Track 13

Filename A:\PsPBuRnOuT's MUSIC\100 HITS\- 100 HITS - THE BEST -\100 HITS - THE BEST - EIGHTIES ALBUM\100 HITS - THE BEST - EIGHTIES ALBUM - CD01\13.Altered Images - Don't Talk To Me About Love.wav

Peak level 94.3 %
Extraction speed 22.3 X
Track quality 99.9 %
Copy CRC 968B76F6
Accurately ripped (confidence 4) [EF535050] (AR v2)
Copy OK

Track 14

Filename A:\PsPBuRnOuT's MUSIC\100 HITS\- 100 HITS - THE BEST -\100 HITS - THE BEST - EIGHTIES ALBUM\100 HITS - THE BEST - EIGHTIES ALBUM - CD01\14.Howard Jones - What Is Love.wav

Peak level 94.3 %
Extraction speed 22.1 X
Track quality 99.9 %
Copy CRC 9B897444
Accurately ripped (confidence 4) [D02D8C99] (AR v2)
Copy OK

Track 15

Filename A:\PsPBuRnOuT's MUSIC\100 HITS\- 100 HITS - THE BEST -\100 HITS - THE BEST - EIGHTIES ALBUM\100 HITS - THE BEST - EIGHTIES ALBUM - CD01\15.Dee C. Lee - See The Day.wav

Peak level 94.3 %
Extraction speed 27.2 X
Track quality 100.0 %
Copy CRC D9857B74
Accurately ripped (confidence 4) [DBC4C452] (AR v2)
Copy OK

Track 16

Filename A:\PsPBuRnOuT's MUSIC\100 HITS\- 100 HITS - THE BEST -\100 HITS - THE BEST - EIGHTIES ALBUM\100 HITS - THE BEST - EIGHTIES ALBUM - CD01\16.Taylor Dayne - Tell It To My Heart.wav

Peak level 94.3 %
Extraction speed 24.0 X
Track quality 99.9 %
Copy CRC 4A2E7E5C
Accurately ripped (confidence 4) [24FD54C5] (AR v2)
Copy OK

Track 17

Filename A:\PsPBuRnOuT's MUSIC\100 HITS\- 100 HITS - THE BEST -\100 HITS - THE BEST - EIGHTIES ALBUM\100 HITS - THE BEST - EIGHTIES ALBUM - CD01\17.Sinitta - So Macho.wav

Peak level 94.3 %
Extraction speed 24.8 X
Track quality 100.0 %
Copy CRC 6858F655
Accurately ripped (confidence 4) [4E4EE495] (AR v2)
Copy OK

Track 18

Filename A:\PsPBuRnOuT's MUSIC\100 HITS\- 100 HITS - THE BEST -\100 HITS - THE BEST - EIGHTIES ALBUM\100 HITS - THE BEST - EIGHTIES ALBUM - CD01\18.Kiki Dee - Star.wav

Peak level 82.2 %
Extraction speed 29.7 X
Track quality 100.0 %
Copy CRC CC08456D
Accurately ripped (confidence 4) [11543772] (AR v2)
Copy OK

Track 19

Filename A:\PsPBuRnOuT's MUSIC\100 HITS\- 100 HITS - THE BEST -\100 HITS - THE BEST - EIGHTIES ALBUM\100 HITS - THE BEST - EIGHTIES ALBUM - CD01\19.Tight Fit - The Lion Sleeps Tonight.wav

Peak level 91.1 %
Extraction speed 31.0 X
Track quality 100.0 %
Copy CRC 1550AD53
Accurately ripped (confidence 4) [0F24BB28] (AR v2)
Copy OK

Track 20

Filename A:\PsPBuRnOuT's MUSIC\100 HITS\- 100 HITS - THE BEST -\100 HITS - THE BEST - EIGHTIES ALBUM\100 HITS - THE BEST - EIGHTIES ALBUM - CD01\20.Fairground Attraction - Perfect.wav

Peak level 94.3 %
Extraction speed 30.7 X
Track quality 100.0 %
Copy CRC 39D65C33
Accurately ripped (confidence 4) [8C2FAAD7] (AR v2)
Copy OK


All tracks accurately ripped

No errors occurred

End of status report

–– CUETools DB Plugin V2.1.6

[CTDB TOCID: mLFyPXmTnrI.Q5upG2hLAndVz7c-] found
Submit result: mLFyPXmTnrI.Q5upG2hLAndVz7c- has been confirmed
Track | CTDB Status
1 | (26/26) Accurately ripped
2 | (26/26) Accurately ripped
3 | (26/26) Accurately ripped
4 | (26/26) Accurately ripped
5 | (26/26) Accurately ripped
6 | (26/26) Accurately ripped
7 | (26/26) Accurately ripped
8 | (26/26) Accurately ripped
9 | (26/26) Accurately ripped
10 | (26/26) Accurately ripped
11 | (26/26) Accurately ripped
12 | (26/26) Accurately ripped
13 | (26/26) Accurately ripped
14 | (26/26) Accurately ripped
15 | (26/26) Accurately ripped
16 | (26/26) Accurately ripped
17 | (26/26) Accurately ripped
18 | (26/26) Accurately ripped
19 | (26/26) Accurately ripped
20 | (26/26) Accurately ripped

––––––––––––––––––––––––––––––––––––––––
Analyzed: Adam & The Ants / 100 Hits - The Best - Eighties Album - CD01 (1)
Altered Images / 100 Hits - The Best - Eighties Album - CD01 (2)
Belinda Carlisle / 100 Hits - The Best - Eighties Album - CD01 (3)
Bonnie Tyler / 100 Hits - The Best - Eighties Album - CD01 (4)
Cyndi Lauper / 100 Hits - The Best - Eighties Album - CD01 (5)
Dead Or Alive / 100 Hits - The Best - Eighties Album - CD01 (6)
Dee C. Lee / 100 Hits - The Best - Eighties Album - CD01 (7)
Eric Carmen / 100 Hits - The Best - Eighties Album - CD01 (8)
Fairground Attraction / 100 Hits - The Best - Eighties Album - CD01 (9)
Five Star / 100 Hits - The Best - Eighties Album - CD01 (10)
Howard Jones / 100 Hits - The Best - Eighties Album - CD01 (11)
Kiki Dee / 100 Hits - The Best - Eighties Album - CD01 (12)
Martika / 100 Hits - The Best - Eighties Album - CD01 (13)
Mel & Kim / 100 Hits - The Best - Eighties Album - CD01 (14)
Owen Paul / 100 Hits - The Best - Eighties Album - CD01 (15)
Paul Young / 100 Hits - The Best - Eighties Album - CD01 (16)
Sinitta / 100 Hits - The Best - Eighties Album - CD01 (17)
Taylor Dayne / 100 Hits - The Best - Eighties Album - CD01 (18)
The Bangles / 100 Hits - The Best - Eighties Album - CD01 (19)
Tight Fit / 100 Hits - The Best - Eighties Album - CD01 (20)
––––––––––––––––––––––––––––––––––––––––

DR Peak RMS Duration Track
––––––––––––––––––––––––––––––––––––––––
DR8 -0.50 dB -10.53 dB 3:17 07-Prince Charming
DR8 -0.50 dB -10.60 dB 3:49 13-Don't Talk To Me About Love
DR9 -0.50 dB -10.42 dB 3:53 01-Heaven Is A Place On Earth
DR10 -0.50 dB -13.48 dB 4:31 02-Total Eclipse Of The Heart
DR9 -0.50 dB -10.97 dB 3:56 08-Girls Just Want To Have Fun
DR6 -2.60 dB -9.61 dB 3:16 06-You Spin Me Round (Like A Record)
DR8 -0.50 dB -10.72 dB 4:21 15-See The Day
DR8 -0.80 dB -10.95 dB 4:27 03-Hungry Eyes
DR7 -0.50 dB -9.89 dB 3:36 20-Perfect
DR9 -0.50 dB -12.39 dB 4:04 12-System Addict
DR9 -0.50 dB -10.18 dB 3:40 14-What Is Love?
DR8 -1.70 dB -11.52 dB 3:15 18-Star
DR8 -1.41 dB -11.50 dB 4:21 09-Toy Soldiers
DR7 -2.00 dB -10.25 dB 3:22 05-Respectable
DR9 -0.50 dB -11.45 dB 3:28 11-My Favourite Waste Of Time
DR9 -0.50 dB -11.28 dB 3:42 10-Love Of The Common People
DR9 -0.50 dB -10.94 dB 3:25 17-So Macho
DR9 -0.50 dB -10.29 dB 3:41 16-Tell It To My Heart
DR9 -0.50 dB -11.28 dB 3:04 04-Manic Monday
DR8 -0.80 dB -10.90 dB 3:21 19-The Lion Sleeps Tonight
––––––––––––––––––––––––––––––––––––––––

Number of tracks: 20
Official DR value: DR8

Samplerate: 44100 Hz
Channels: 2
Bits per sample: 16
Bitrate: 938 kbps
Codec: FLAC
================================================================================

Exact Audio Copy V1.3 from 2. September 2016

EAC extraction logfile from 2. May 2018, 22:55

Various / 100 Hits - The Best - Eighties Album - CD02

Used drive : HL-DT-STDVDRAM GSA-E40N Adapter: 1 ID: 1

Read mode : Secure
Utilize accurate stream : Yes
Defeat audio cache : No
Make use of C2 pointers : Yes

Read offset correction : 667
Overread into Lead-In and Lead-Out : No
Fill up missing offset samples with silence : Yes
Delete leading and trailing silent blocks : No
Null samples used in CRC calculations : Yes
Used interface : Native Win32 interface for Win NT & 2000
Gap handling : Not detected, thus appended to previous track

Used output format : User Defined Encoder
Selected bitrate : 896 kBit/s
Quality : High
Add ID3 tag : No
Command line compressor : C:\Program Files (x86)\Exact Audio Copy\FLAC\FLAC.EXE
Additional command line options : -6 -V -T "ARTIST=%artist%" -T "TITLE=%title%" -T "ALBUM=%albumtitle%" -T "DATE=%year%" -T "TRACKNUMBER=%tracknr%" -T "GENRE=%genre%" -T "COMMENT=%comment%" -T "BAND=%albuminterpret%" -T "ALBUMARTIST=%albuminterpret%" -T "COMPOSER=%composer%" %haslyrics%–tag-from-file=LYRICS="%lyricsfile%"%haslyrics% -T "DISCNUMBER=%cdnumber%" -T "TOTALDISCS=%totalcds%" -T "TOTALTRACKS=%numtracks%" %hascover%–picture="%coverfile%"%hascover% %source% -o %dest%


TOC of the extracted CD

Track | Start | Length | Start sector | End sector
––––––––––––––––––––––––––––-
1 | 0:00.00 | 4:04.05 | 0 | 18304
2 | 4:04.05 | 3:43.31 | 18305 | 35060
3 | 7:47.36 | 4:09.59 | 35061 | 53794
4 | 11:57.20 | 3:47.46 | 53795 | 70865
5 | 15:44.66 | 4:22.36 | 70866 | 90551
6 | 20:07.27 | 3:58.05 | 90552 | 108406
7 | 24:05.32 | 3:22.04 | 108407 | 123560
8 | 27:27.36 | 3:47.25 | 123561 | 140610
9 | 31:14.61 | 3:58.31 | 140611 | 158491
10 | 35:13.17 | 3:20.09 | 158492 | 173500
11 | 38:33.26 | 3:59.57 | 173501 | 191482
12 | 42:33.08 | 4:12.68 | 191483 | 210450
13 | 46:46.01 | 4:31.71 | 210451 | 230846
14 | 51:17.72 | 3:48.25 | 230847 | 247971
15 | 55:06.22 | 3:49.33 | 247972 | 265179
16 | 58:55.55 | 3:21.40 | 265180 | 280294
17 | 62:17.20 | 4:26.38 | 280295 | 300282
18 | 66:43.58 | 4:03.34 | 300283 | 318541
19 | 70:47.17 | 4:08.29 | 318542 | 337170
20 | 74:55.46 | 3:59.14 | 337171 | 355109


Track 1

Filename A:\PsPBuRnOuT's MUSIC\100 HITS\- 100 HITS - THE BEST -\100 HITS - THE BEST - EIGHTIES ALBUM\100 HITS - THE BEST - EIGHTIES ALBUM - CD02\01.Toto - Africa.wav

Peak level 94.3 %
Extraction speed 12.8 X
Track quality 99.9 %
Copy CRC 9CA2E3F2
Accurately ripped (confidence 3) [F3F1E469] (AR v2)
Copy OK

Track 2

Filename A:\PsPBuRnOuT's MUSIC\100 HITS\- 100 HITS - THE BEST -\100 HITS - THE BEST - EIGHTIES ALBUM\100 HITS - THE BEST - EIGHTIES ALBUM - CD02\02.Men At Work - Down Under.wav

Peak level 94.3 %
Extraction speed 13.7 X
Track quality 99.9 %
Copy CRC 1DF74A8E
Accurately ripped (confidence 3) [B82E159B] (AR v2)
Copy OK

Track 3

Filename A:\PsPBuRnOuT's MUSIC\100 HITS\- 100 HITS - THE BEST -\100 HITS - THE BEST - EIGHTIES ALBUM\100 HITS - THE BEST - EIGHTIES ALBUM - CD02\03.Journey - Don't Stop Believin'.wav

Peak level 100.0 %
Extraction speed 15.7 X
Track quality 100.0 %
Copy CRC 86362B7E
Accurately ripped (confidence 3) [8F066942] (AR v2)
Copy OK

Track 4

Filename A:\PsPBuRnOuT's MUSIC\100 HITS\- 100 HITS - THE BEST -\100 HITS - THE BEST - EIGHTIES ALBUM\100 HITS - THE BEST - EIGHTIES ALBUM - CD02\04.Survivor - Eye Of The Tiger.wav

Peak level 94.3 %
Extraction speed 18.5 X
Track quality 100.0 %
Copy CRC 1846DBDF
Accurately ripped (confidence 3) [8C01A67B] (AR v2)
Copy OK

Track 5

Filename A:\PsPBuRnOuT's MUSIC\100 HITS\- 100 HITS - THE BEST -\100 HITS - THE BEST - EIGHTIES ALBUM\100 HITS - THE BEST - EIGHTIES ALBUM - CD02\05.Meat Loaf With Cher - Dead Ringer For Love.wav

Peak level 79.4 %
Extraction speed 17.7 X
Track quality 100.0 %
Copy CRC DC385366
Accurately ripped (confidence 3) [8B3D04B3] (AR v2)
Copy OK

Track 6

Filename A:\PsPBuRnOuT's MUSIC\100 HITS\- 100 HITS - THE BEST -\100 HITS - THE BEST - EIGHTIES ALBUM\100 HITS - THE BEST - EIGHTIES ALBUM - CD02\06.Europe - The Final Countdown.wav

Peak level 94.3 %
Extraction speed 20.7 X
Track quality 100.0 %
Copy CRC 27B8E6FC
Accurately ripped (confidence 3) [E25B36D1] (AR v2)
Copy OK

Track 7

Filename A:\PsPBuRnOuT's MUSIC\100 HITS\- 100 HITS - THE BEST -\100 HITS - THE BEST - EIGHTIES ALBUM\100 HITS - THE BEST - EIGHTIES ALBUM - CD02\07.REO Speedwagon - Keep On Loving You.wav

Peak level 94.3 %
Extraction speed 18.2 X
Track quality 99.8 %
Copy CRC F8BACCB7
Accurately ripped (confidence 3) [94AFFF4C] (AR v2)
Copy OK

Track 8

Filename A:\PsPBuRnOuT's MUSIC\100 HITS\- 100 HITS - THE BEST -\100 HITS - THE BEST - EIGHTIES ALBUM\100 HITS - THE BEST - EIGHTIES ALBUM - CD02\08.Kenny Loggins - Footloose.wav

Peak level 94.3 %
Extraction speed 22.2 X
Track quality 100.0 %
Copy CRC DD7C9EDC
Accurately ripped (confidence 3) [9BF212D4] (AR v2)
Copy OK

Track 9

Filename A:\PsPBuRnOuT's MUSIC\100 HITS\- 100 HITS - THE BEST -\100 HITS - THE BEST - EIGHTIES ALBUM\100 HITS - THE BEST - EIGHTIES ALBUM - CD02\09.Bruce Hornsby & The Range - The Way It Is.wav

Peak level 85.8 %
Extraction speed 23.5 X
Track quality 100.0 %
Copy CRC 3E2E2E60
Accurately ripped (confidence 3) [14CCF4CE] (AR v2)
Copy OK

Track 10

Filename A:\PsPBuRnOuT's MUSIC\100 HITS\- 100 HITS - THE BEST -\100 HITS - THE BEST - EIGHTIES ALBUM\100 HITS - THE BEST - EIGHTIES ALBUM - CD02\10.Daryl Hall & John Oates - Maneater.wav

Peak level 94.3 %
Extraction speed 19.8 X
Track quality 99.8 %
Copy CRC 4E8D76C2
Accurately ripped (confidence 3) [1B24CFD8] (AR v2)
Copy OK

Track 11

Filename A:\PsPBuRnOuT's MUSIC\100 HITS\- 100 HITS - THE BEST -\100 HITS - THE BEST - EIGHTIES ALBUM\100 HITS - THE BEST - EIGHTIES ALBUM - CD02\11.Deacon Blue - Dignity.wav

Peak level 94.3 %
Extraction speed 24.8 X
Track quality 100.0 %
Copy CRC 875889A2
Accurately ripped (confidence 3) [37B8F303] (AR v2)
Copy OK

Track 12

Filename A:\PsPBuRnOuT's MUSIC\100 HITS\- 100 HITS - THE BEST -\100 HITS - THE BEST - EIGHTIES ALBUM\100 HITS - THE BEST - EIGHTIES ALBUM - CD02\12.Wax - Bridge To Your Heart.wav

Peak level 91.1 %
Extraction speed 23.4 X
Track quality 100.0 %
Copy CRC F9034C8A
Accurately ripped (confidence 3) [44638EF3] (AR v2)
Copy OK

Track 13

Filename A:\PsPBuRnOuT's MUSIC\100 HITS\- 100 HITS - THE BEST -\100 HITS - THE BEST - EIGHTIES ALBUM\100 HITS - THE BEST - EIGHTIES ALBUM - CD02\13.Five Star - Can't Wait Another Minute.wav

Peak level 94.3 %
Extraction speed 26.7 X
Track quality 100.0 %
Copy CRC 04614262
Accurately ripped (confidence 3) [B6F68790] (AR v2)
Copy OK

Track 14

Filename A:\PsPBuRnOuT's MUSIC\100 HITS\- 100 HITS - THE BEST -\100 HITS - THE BEST - EIGHTIES ALBUM\100 HITS - THE BEST - EIGHTIES ALBUM - CD02\14.Mental As Anything - Live It Up.wav

Peak level 94.3 %
Extraction speed 24.6 X
Track quality 100.0 %
Copy CRC 6EE27DAE
Accurately ripped (confidence 3) [8CF47E0B] (AR v2)
Copy OK

Track 15

Filename A:\PsPBuRnOuT's MUSIC\100 HITS\- 100 HITS - THE BEST -\100 HITS - THE BEST - EIGHTIES ALBUM\100 HITS - THE BEST - EIGHTIES ALBUM - CD02\15.Roachford - Cuddly Toy.wav

Peak level 94.3 %
Extraction speed 23.1 X
Track quality 99.9 %
Copy CRC 91076E4F
Accurately ripped (confidence 3) [2EC26730] (AR v2)
Copy OK

Track 16

Filename A:\PsPBuRnOuT's MUSIC\100 HITS\- 100 HITS - THE BEST -\100 HITS - THE BEST - EIGHTIES ALBUM\100 HITS - THE BEST - EIGHTIES ALBUM - CD02\16.Kim Wilde - Chequered Love.wav

Peak level 76.7 %
Extraction speed 28.5 X
Track quality 100.0 %
Copy CRC 4E65B3D6
Accurately ripped (confidence 3) [742C589F] (AR v2)
Copy OK

Track 17

Filename A:\PsPBuRnOuT's MUSIC\100 HITS\- 100 HITS - THE BEST -\100 HITS - THE BEST - EIGHTIES ALBUM\100 HITS - THE BEST - EIGHTIES ALBUM - CD02\17.Belinda Carlisle - Circle In The Sand.wav

Peak level 94.3 %
Extraction speed 29.8 X
Track quality 100.0 %
Copy CRC D14836A0
Accurately ripped (confidence 3) [32619750] (AR v2)
Copy OK

Track 18

Filename A:\PsPBuRnOuT's MUSIC\100 HITS\- 100 HITS - THE BEST -\100 HITS - THE BEST - EIGHTIES ALBUM\100 HITS - THE BEST - EIGHTIES ALBUM - CD02\18.Nick Heyward - Blue Hat For A Blue Day.wav

Peak level 94.3 %
Extraction speed 25.3 X
Track quality 99.9 %
Copy CRC FD3F4A6D
Accurately ripped (confidence 3) [9BC9BA0F] (AR v2)
Copy OK

Track 19

Filename A:\PsPBuRnOuT's MUSIC\100 HITS\- 100 HITS - THE BEST -\100 HITS - THE BEST - EIGHTIES ALBUM\100 HITS - THE BEST - EIGHTIES ALBUM - CD02\19.Dolly Parton & Kenny Rogers - Islands In The Stream.wav

Peak level 94.3 %
Extraction speed 30.4 X
Track quality 100.0 %
Copy CRC 28E4C22A
Accurately ripped (confidence 3) [C37533E6] (AR v2)
Copy OK

Track 20

Filename A:\PsPBuRnOuT's MUSIC\100 HITS\- 100 HITS - THE BEST -\100 HITS - THE BEST - EIGHTIES ALBUM\100 HITS - THE BEST - EIGHTIES ALBUM - CD02\20.Cyndi Lauper - Time After Time.wav

Peak level 94.3 %
Extraction speed 29.1 X
Track quality 100.0 %
Copy CRC 04AA7184
Accurately ripped (confidence 3) [662BC683] (AR v2)
Copy OK


All tracks accurately ripped

No errors occurred

End of status report

–– CUETools DB Plugin V2.1.6

[CTDB TOCID: FQyUoUZQgH.Vc20AGByKUAgrkxU-] found
Submit result: FQyUoUZQgH.Vc20AGByKUAgrkxU- has been confirmed
Track | CTDB Status
1 | (24/24) Accurately ripped
2 | (24/24) Accurately ripped
3 | (24/24) Accurately ripped
4 | (24/24) Accurately ripped
5 | (24/24) Accurately ripped
6 | (24/24) Accurately ripped
7 | (24/24) Accurately ripped
8 | (24/24) Accurately ripped
9 | (24/24) Accurately ripped
10 | (24/24) Accurately ripped
11 | (24/24) Accurately ripped
12 | (24/24) Accurately ripped
13 | (24/24) Accurately ripped
14 | (24/24) Accurately ripped
15 | (24/24) Accurately ripped
16 | (24/24) Accurately ripped
17 | (24/24) Accurately ripped
18 | (24/24) Accurately ripped
19 | (24/24) Accurately ripped
20 | (24/24) Accurately ripped

––––––––––––––––––––––––––––––––––––––––
Analyzed: Belinda Carlisle / 100 Hits - The Best - Eighties Album - CD02 (1)
Bruce Hornsby & The Range / 100 Hits - The Best - Eighties Album - CD02 (2)
Cyndi Lauper / 100 Hits - The Best - Eighties Album - CD02 (3)
Daryl Hall & John Oates / 100 Hits - The Best - Eighties Album - CD02 (4)
Deacon Blue / 100 Hits - The Best - Eighties Album - CD02 (5)
Dolly Parton & Kenny Rogers / 100 Hits - The Best - Eighties Album - CD02 (6)
Europe / 100 Hits - The Best - Eighties Album - CD02 (7)
Five Star / 100 Hits - The Best - Eighties Album - CD02 (8)
Journey / 100 Hits - The Best - Eighties Album - CD02 (9)
Kenny Loggins / 100 Hits - The Best - Eighties Album - CD02 (10)
Kim Wilde / 100 Hits - The Best - Eighties Album - CD02 (11)
Meat Loaf With Cher / 100 Hits - The Best - Eighties Album - CD02 (12)
Men At Work / 100 Hits - The Best - Eighties Album - CD02 (13)
Mental As Anything / 100 Hits - The Best - Eighties Album - CD02 (14)
Nick Heyward / 100 Hits - The Best - Eighties Album - CD02 (15)
REO Speedwagon / 100 Hits - The Best - Eighties Album - CD02 (16)
Roachford / 100 Hits - The Best - Eighties Album - CD02 (17)
Survivor / 100 Hits - The Best - Eighties Album - CD02 (18)
Toto / 100 Hits - The Best - Eighties Album - CD02 (19)
Wax / 100 Hits - The Best - Eighties Album - CD02 (20)
––––––––––––––––––––––––––––––––––––––––

DR Peak RMS Duration Track
––––––––––––––––––––––––––––––––––––––––
DR8 -0.50 dB -10.82 dB 4:27 17-Circle In The Sand
DR8 -1.32 dB -10.38 dB 3:58 09-The Way It Is
DR8 -0.50 dB -11.12 dB 3:59 20-Time After Time
DR9 -0.50 dB -10.18 dB 3:20 10-Maneater
DR9 -0.50 dB -11.98 dB 4:00 11-Dignity
DR8 -0.50 dB -9.84 dB 4:08 19-Islands In The Stream
DR7 -0.50 dB -9.40 dB 3:58 06-The Final Countdown
DR9 -0.50 dB -10.93 dB 4:32 13-Can't Wait Another Minute
DR7 0.00 dB -9.61 dB 4:10 03-Don't Stop Believin'
DR8 -0.50 dB -10.73 dB 3:47 08-Footloose
DR6 -2.30 dB -10.31 dB 3:22 16-Chequered Love
DR7 -2.00 dB -9.62 dB 4:22 05-Dead Ringer For Love
DR8 -0.50 dB -10.31 dB 3:43 02-Down Under
DR8 -0.50 dB -9.79 dB 3:48 14-Live It Up
DR9 -0.50 dB -11.97 dB 4:03 18-Blue Hat For A Blue Day
DR9 -0.50 dB -11.90 dB 3:22 07-Keep On Loving You
DR9 -0.50 dB -10.55 dB 3:49 15-Cuddly Toy
DR8 -0.50 dB -10.34 dB 3:48 04-Eye Of The Tiger
DR8 -0.50 dB -10.64 dB 4:04 01-Africa
DR8 -0.80 dB -9.88 dB 4:13 12-Bridge To Your Heart
––––––––––––––––––––––––––––––––––––––––

Number of tracks: 20
Official DR value: DR8

Samplerate: 44100 Hz
Channels: 2
Bits per sample: 16
Bitrate: 1053 kbps
Codec: FLAC
================================================================================

Exact Audio Copy V1.3 from 2. September 2016

EAC extraction logfile from 3. May 2018, 21:01

Various / 100 Hits - The Best - Eighties Album - CD03

Used drive : HL-DT-STDVDRAM GSA-E40N Adapter: 1 ID: 1

Read mode : Secure
Utilize accurate stream : Yes
Defeat audio cache : No
Make use of C2 pointers : Yes

Read offset correction : 667
Overread into Lead-In and Lead-Out : No
Fill up missing offset samples with silence : Yes
Delete leading and trailing silent blocks : No
Null samples used in CRC calculations : Yes
Used interface : Native Win32 interface for Win NT & 2000
Gap handling : Not detected, thus appended to previous track

Used output format : User Defined Encoder
Selected bitrate : 896 kBit/s
Quality : High
Add ID3 tag : No
Command line compressor : C:\Program Files (x86)\Exact Audio Copy\FLAC\FLAC.EXE
Additional command line options : -6 -V -T "ARTIST=%artist%" -T "TITLE=%title%" -T "ALBUM=%albumtitle%" -T "DATE=%year%" -T "TRACKNUMBER=%tracknr%" -T "GENRE=%genre%" -T "COMMENT=%comment%" -T "BAND=%albuminterpret%" -T "ALBUMARTIST=%albuminterpret%" -T "COMPOSER=%composer%" %haslyrics%–tag-from-file=LYRICS="%lyricsfile%"%haslyrics% -T "DISCNUMBER=%cdnumber%" -T "TOTALDISCS=%totalcds%" -T "TOTALTRACKS=%numtracks%" %hascover%–picture="%coverfile%"%hascover% %source% -o %dest%


TOC of the extracted CD

Track | Start | Length | Start sector | End sector
––––––––––––––––––––––––––––-
1 | 0:00.00 | 3:25.27 | 0 | 15401
2 | 3:25.27 | 3:33.47 | 15402 | 31423
3 | 6:58.74 | 3:55.01 | 31424 | 49049
4 | 10:54.00 | 3:22.12 | 49050 | 64211
5 | 14:16.12 | 4:14.71 | 64212 | 83332
6 | 18:31.08 | 2:58.57 | 83333 | 96739
7 | 21:29.65 | 3:24.13 | 96740 | 112052
8 | 24:54.03 | 2:44.03 | 112053 | 124355
9 | 27:38.06 | 3:38.57 | 124356 | 140762
10 | 31:16.63 | 2:44.51 | 140763 | 153113
11 | 34:01.39 | 3:31.07 | 153114 | 168945
12 | 37:32.46 | 3:39.35 | 168946 | 185405
13 | 41:12.06 | 4:22.49 | 185406 | 205104
14 | 45:34.55 | 3:54.70 | 205105 | 222724
15 | 49:29.50 | 3:59.53 | 222725 | 240702
16 | 53:29.28 | 3:43.61 | 240703 | 257488
17 | 57:13.14 | 4:27.24 | 257489 | 277537
18 | 61:40.38 | 3:19.69 | 277538 | 292531
19 | 65:00.32 | 3:22.24 | 292532 | 307705
20 | 68:22.56 | 3:01.05 | 307706 | 321285


Track 1

Filename A:\PsPBuRnOuT's MUSIC\100 HITS\- 100 HITS - THE BEST -\100 HITS - THE BEST - EIGHTIES ALBUM\100 HITS - THE BEST - EIGHTIES ALBUM - CD03\01.Kim Wilde - Kids In America.wav

Peak level 77.6 %
Extraction speed 13.1 X
Track quality 100.0 %
Copy CRC 13D88810
Accurately ripped (confidence 3) [A21E30B7] (AR v2)
Copy OK

Track 2

Filename A:\PsPBuRnOuT's MUSIC\100 HITS\- 100 HITS - THE BEST -\100 HITS - THE BEST - EIGHTIES ALBUM\100 HITS - THE BEST - EIGHTIES ALBUM - CD03\02.Adam & The Ants - Stand And Deliver.wav

Peak level 85.1 %
Extraction speed 15.9 X
Track quality 100.0 %
Copy CRC 7BF86D01
Accurately ripped (confidence 3) [CF192DD7] (AR v2)
Copy OK

Track 3

Filename A:\PsPBuRnOuT's MUSIC\100 HITS\- 100 HITS - THE BEST -\100 HITS - THE BEST - EIGHTIES ALBUM\100 HITS - THE BEST - EIGHTIES ALBUM - CD03\03.Aneka - Japanese Boy.wav

Peak level 86.1 %
Extraction speed 15.6 X
Track quality 100.0 %
Copy CRC 66D5CB09
Accurately ripped (confidence 3) [2AA6D825] (AR v2)
Copy OK

Track 4

Filename A:\PsPBuRnOuT's MUSIC\100 HITS\- 100 HITS - THE BEST -\100 HITS - THE BEST - EIGHTIES ALBUM\100 HITS - THE BEST - EIGHTIES ALBUM - CD03\04.King - Love & Pride.wav

Peak level 94.3 %
Extraction speed 18.4 X
Track quality 100.0 %
Copy CRC 717BB730
Accurately ripped (confidence 3) [AF720C16] (AR v2)
Copy OK

Track 5

Filename A:\PsPBuRnOuT's MUSIC\100 HITS\- 100 HITS - THE BEST -\100 HITS - THE BEST - EIGHTIES ALBUM\100 HITS - THE BEST - EIGHTIES ALBUM - CD03\05.Howard Jones - New Song.wav

Peak level 89.1 %
Extraction speed 16.9 X
Track quality 99.9 %
Copy CRC DABD5809
Accurately ripped (confidence 3) [90302F62] (AR v2)
Copy OK

Track 6

Filename A:\PsPBuRnOuT's MUSIC\100 HITS\- 100 HITS - THE BEST -\100 HITS - THE BEST - EIGHTIES ALBUM\100 HITS - THE BEST - EIGHTIES ALBUM - CD03\06.Altered Images - Happy Birthday.wav

Peak level 94.3 %
Extraction speed 16.3 X
Track quality 99.8 %
Copy CRC 22CB93A8
Accurately ripped (confidence 3) [60EAA345] (AR v2)
Copy OK

Track 7

Filename A:\PsPBuRnOuT's MUSIC\100 HITS\- 100 HITS - THE BEST -\100 HITS - THE BEST - EIGHTIES ALBUM\100 HITS - THE BEST - EIGHTIES ALBUM - CD03\07.The Bangles - Walk Like An Eygptian.wav

Peak level 94.3 %
Extraction speed 18.5 X
Track quality 100.0 %
Copy CRC BD5C49E6
Accurately ripped (confidence 3) [98A68D66] (AR v2)
Copy OK

Track 8

Filename A:\PsPBuRnOuT's MUSIC\100 HITS\- 100 HITS - THE BEST -\100 HITS - THE BEST - EIGHTIES ALBUM\100 HITS - THE BEST - EIGHTIES ALBUM - CD03\08.Men Without Hats - Safety Dance.wav

Peak level 89.1 %
Extraction speed 18.7 X
Track quality 100.0 %
Copy CRC 68F0BB11
Accurately ripped (confidence 3) [3ED9A704] (AR v2)
Copy OK

Track 9

Filename A:\PsPBuRnOuT's MUSIC\100 HITS\- 100 HITS - THE BEST -\100 HITS - THE BEST - EIGHTIES ALBUM\100 HITS - THE BEST - EIGHTIES ALBUM - CD03\09.Haircut 100 - Love Plus One.wav

Peak level 94.3 %
Extraction speed 20.6 X
Track quality 100.0 %
Copy CRC DAB4F375
Accurately ripped (confidence 3) [C9E8D02A] (AR v2)
Copy OK

Track 10

Filename A:\PsPBuRnOuT's MUSIC\100 HITS\- 100 HITS - THE BEST -\100 HITS - THE BEST - EIGHTIES ALBUM\100 HITS - THE BEST - EIGHTIES ALBUM - CD03\10.Bow Wow Wow - I Want Candy.wav

Peak level 94.3 %
Extraction speed 20.3 X
Track quality 100.0 %
Copy CRC 50DDAF90
Accurately ripped (confidence 3) [6F2F206A] (AR v2)
Copy OK

Track 11

Filename A:\PsPBuRnOuT's MUSIC\100 HITS\- 100 HITS - THE BEST -\100 HITS - THE BEST - EIGHTIES ALBUM\100 HITS - THE BEST - EIGHTIES ALBUM - CD03\11.Fiction Factory - (Feels Like) Heaven.wav

Peak level 94.3 %
Extraction speed 21.5 X
Track quality 100.0 %
Copy CRC D717193B
Accurately ripped (confidence 3) [E3245BDC] (AR v2)
Copy OK

Track 12

Filename A:\PsPBuRnOuT's MUSIC\100 HITS\- 100 HITS - THE BEST -\100 HITS - THE BEST - EIGHTIES ALBUM\100 HITS - THE BEST - EIGHTIES ALBUM - CD03\12.The Lotus Eaters - The First Picture Of You.wav

Peak level 94.3 %
Extraction speed 22.5 X
Track quality 100.0 %
Copy CRC 6424D4D3
Accurately ripped (confidence 3) [1C89F14C] (AR v2)
Copy OK

Track 13

Filename A:\PsPBuRnOuT's MUSIC\100 HITS\- 100 HITS - THE BEST -\100 HITS - THE BEST - EIGHTIES ALBUM\100 HITS - THE BEST - EIGHTIES ALBUM - CD03\13.Spandau Ballet - Fight For Ourselves.wav

Peak level 94.3 %
Extraction speed 25.6 X
Track quality 100.0 %
Copy CRC 174C8E8C
Accurately ripped (confidence 3) [B3F62201] (AR v2)
Copy OK

Track 14

Filename A:\PsPBuRnOuT's MUSIC\100 HITS\- 100 HITS - THE BEST -\100 HITS - THE BEST - EIGHTIES ALBUM\100 HITS - THE BEST - EIGHTIES ALBUM - CD03\14.H2O - Dream To Sleep.wav

Peak level 94.3 %
Extraction speed 27.1 X
Track quality 100.0 %
Copy CRC 0ADF459E
Accurately ripped (confidence 3) [D4FCC784] (AR v2)
Copy OK

Track 15

Filename A:\PsPBuRnOuT's MUSIC\100 HITS\- 100 HITS - THE BEST -\100 HITS - THE BEST - EIGHTIES ALBUM\100 HITS - THE BEST - EIGHTIES ALBUM - CD03\15.The Psychedelic Furs - Pretty In Pink.wav

Peak level 94.3 %
Extraction speed 28.2 X
Track quality 100.0 %
Copy CRC 674122C7
Accurately ripped (confidence 3) [3DA52E96] (AR v2)
Copy OK

Track 16

Filename A:\PsPBuRnOuT's MUSIC\100 HITS\- 100 HITS - THE BEST -\100 HITS - THE BEST - EIGHTIES ALBUM\100 HITS - THE BEST - EIGHTIES ALBUM - CD03\16.Toyah - Don't Fall In Love (I Said).wav

Peak level 94.3 %
Extraction speed 28.8 X
Track quality 100.0 %
Copy CRC EC8CDD21
Accurately ripped (confidence 3) [544CBC48] (AR v2)
Copy OK

Track 17

Filename A:\PsPBuRnOuT's MUSIC\100 HITS\- 100 HITS - THE BEST -\100 HITS - THE BEST - EIGHTIES ALBUM\100 HITS - THE BEST - EIGHTIES ALBUM - CD03\17.Big Audio Dynamite - E=MC2.wav

Peak level 94.3 %
Extraction speed 26.5 X
Track quality 100.0 %
Copy CRC F0E85C66
Accurately ripped (confidence 3) [8FB071AD] (AR v2)
Copy OK

Track 18

Filename A:\PsPBuRnOuT's MUSIC\100 HITS\- 100 HITS - THE BEST -\100 HITS - THE BEST - EIGHTIES ALBUM\100 HITS - THE BEST - EIGHTIES ALBUM - CD03\18.Haysi Fantayzee - John Wayne Is Big Leggy.wav

Peak level 91.1 %
Extraction speed 29.3 X
Track quality 100.0 %
Copy CRC FFF014C2
Accurately ripped (confidence 3) [4D6ACF9A] (AR v2)
Copy OK

Track 19

Filename A:\PsPBuRnOuT's MUSIC\100 HITS\- 100 HITS - THE BEST -\100 HITS - THE BEST - EIGHTIES ALBUM\100 HITS - THE BEST - EIGHTIES ALBUM - CD03\19.Bill Wyman - (Si Si) Je Suis Un Rock Star.wav

Peak level 94.3 %
Extraction speed 26.7 X
Track quality 100.0 %
Copy CRC 0325156A
Accurately ripped (confidence 3) [801CF2BF] (AR v2)
Copy OK

Track 20

Filename A:\PsPBuRnOuT's MUSIC\100 HITS\- 100 HITS - THE BEST -\100 HITS - THE BEST - EIGHTIES ALBUM\100 HITS - THE BEST - EIGHTIES ALBUM - CD03\20.Matthew Wilder - Break My Stride.wav

Peak level 94.3 %
Extraction speed 30.9 X
Track quality 100.0 %
Copy CRC C939D91C
Accurately ripped (confidence 3) [9E31EB08] (AR v2)
Copy OK


All tracks accurately ripped

No errors occurred

End of status report

–– CUETools DB Plugin V2.1.6

[CTDB TOCID: m6aQdLzP5XwO1Z2TB7PwIKZjF3Q-] found
Submit result: m6aQdLzP5XwO1Z2TB7PwIKZjF3Q- has been confirmed
Track | CTDB Status
1 | (24/24) Accurately ripped
2 | (24/24) Accurately ripped
3 | (24/24) Accurately ripped
4 | (24/24) Accurately ripped
5 | (24/24) Accurately ripped
6 | (24/24) Accurately ripped
7 | (24/24) Accurately ripped
8 | (24/24) Accurately ripped
9 | (24/24) Accurately ripped
10 | (24/24) Accurately ripped
11 | (24/24) Accurately ripped
12 | (24/24) Accurately ripped
13 | (24/24) Accurately ripped
14 | (24/24) Accurately ripped
15 | (24/24) Accurately ripped
16 | (24/24) Accurately ripped
17 | (24/24) Accurately ripped
18 | (24/24) Accurately ripped
19 | (24/24) Accurately ripped
20 | (24/24) Accurately ripped

––––––––––––––––––––––––––––––––––––––––
Analyzed: Adam & The Ants / 100 Hits - The Best - Eighties Album - CD03 (1)
Altered Images / 100 Hits - The Best - Eighties Album - CD03 (2)
Aneka / 100 Hits - The Best - Eighties Album - CD03 (3)
Big Audio Dynamite / 100 Hits - The Best - Eighties Album - CD03 (4)
Bill Wyman / 100 Hits - The Best - Eighties Album - CD03 (5)
Bow Wow Wow / 100 Hits - The Best - Eighties Album - CD03 (6)
Fiction Factory / 100 Hits - The Best - Eighties Album - CD03 (7)
H2O / 100 Hits - The Best - Eighties Album - CD03 (8)
Haircut 100 / 100 Hits - The Best - Eighties Album - CD03 (9)
Haysi Fantayzee / 100 Hits - The Best - Eighties Album - CD03 (10)
Howard Jones / 100 Hits - The Best - Eighties Album - CD03 (11)
Kim Wilde / 100 Hits - The Best - Eighties Album - CD03 (12)
King / 100 Hits - The Best - Eighties Album - CD03 (13)
Matthew Wilder / 100 Hits - The Best - Eighties Album - CD03 (14)
Men Without Hats / 100 Hits - The Best - Eighties Album - CD03 (15)
Spandau Ballet / 100 Hits - The Best - Eighties Album - CD03 (16)
The Bangles / 100 Hits - The Best - Eighties Album - CD03 (17)
The Lotus Eaters / 100 Hits - The Best - Eighties Album - CD03 (18)
The Psychedelic Furs / 100 Hits - The Best - Eighties Album - CD03 (19)
Toyah / 100 Hits - The Best - Eighties Album - CD03 (20)
––––––––––––––––––––––––––––––––––––––––

DR Peak RMS Duration Track
––––––––––––––––––––––––––––––––––––––––
DR6 -1.40 dB -9.12 dB 3:34 02-Stand And Deliver
DR8 -0.50 dB -9.90 dB 2:59 06-Happy Birthday
DR8 -1.29 dB -10.14 dB 3:55 03-Japanese Boy
DR9 -0.50 dB -10.52 dB 4:27 17-E=MC2
DR9 -0.50 dB -10.78 dB 3:22 19-(Si Si) Je Suis Un Rock Star
DR8 -0.50 dB -10.23 dB 2:45 10-I Want Candy
DR8 -0.50 dB -10.76 dB 3:31 11-(Feels Like) Heaven
DR7 -0.50 dB -10.33 dB 3:55 14-Dream To Sleep
DR8 -0.50 dB -11.27 dB 3:39 09-Love Plus One
DR8 -0.80 dB -9.98 dB 3:20 18-John Wayne Is Big Leggy
DR9 -1.00 dB -12.03 dB 4:15 05-New Song
DR6 -2.20 dB -10.28 dB 3:25 01-Kids In America
DR8 -0.50 dB -9.74 dB 3:22 04-Love & Pride
DR8 -0.50 dB -11.30 dB 3:01 20-Break My Stride
DR8 -1.00 dB -9.88 dB 2:44 08-Safety Dance
DR8 -0.50 dB -9.79 dB 4:23 13-Fight For Ourselves
DR9 -0.50 dB -11.15 dB 3:24 07-Walk Like An Eygptian
DR9 -0.50 dB -11.72 dB 3:39 12-The First Picture Of You
DR8 -0.50 dB -9.81 dB 4:00 15-Pretty In Pink
DR8 -0.50 dB -10.67 dB 3:44 16-Don't Fall In Love (I Said)
––––––––––––––––––––––––––––––––––––––––

Number of tracks: 20
Official DR value: DR8

Samplerate: 44100 Hz
Channels: 2
Bits per sample: 16
Bitrate: 1007 kbps
Codec: FLAC
================================================================================

Exact Audio Copy V1.3 from 2. September 2016

EAC extraction logfile from 3. May 2018, 22:05

Various / 100 Hits - The Best - Eighties Album - CD04

Used drive : HL-DT-STDVDRAM GSA-E40N Adapter: 1 ID: 1

Read mode : Secure
Utilize accurate stream : Yes
Defeat audio cache : No
Make use of C2 pointers : Yes

Read offset correction : 667
Overread into Lead-In and Lead-Out : No
Fill up missing offset samples with silence : Yes
Delete leading and trailing silent blocks : No
Null samples used in CRC calculations : Yes
Used interface : Native Win32 interface for Win NT & 2000
Gap handling : Not detected, thus appended to previous track

Used output format : User Defined Encoder
Selected bitrate : 896 kBit/s
Quality : High
Add ID3 tag : No
Command line compressor : C:\Program Files (x86)\Exact Audio Copy\FLAC\FLAC.EXE
Additional command line options : -6 -V -T "ARTIST=%artist%" -T "TITLE=%title%" -T "ALBUM=%albumtitle%" -T "DATE=%year%" -T "TRACKNUMBER=%tracknr%" -T "GENRE=%genre%" -T "COMMENT=%comment%" -T "BAND=%albuminterpret%" -T "ALBUMARTIST=%albuminterpret%" -T "COMPOSER=%composer%" %haslyrics%–tag-from-file=LYRICS="%lyricsfile%"%haslyrics% -T "DISCNUMBER=%cdnumber%" -T "TOTALDISCS=%totalcds%" -T "TOTALTRACKS=%numtracks%" %hascover%–picture="%coverfile%"%hascover% %source% -o %dest%


TOC of the extracted CD

Track | Start | Length | Start sector | End sector
––––––––––––––––––––––––––––-
1 | 0:00.00 | 4:06.49 | 0 | 18498
2 | 4:06.49 | 3:31.43 | 18499 | 34366
3 | 7:38.17 | 3:33.47 | 34367 | 50388
4 | 11:11.64 | 4:00.00 | 50389 | 68388
5 | 15:11.64 | 2:45.68 | 68389 | 80831
6 | 17:57.57 | 3:18.54 | 80832 | 95735
7 | 21:16.36 | 4:03.15 | 95736 | 113975
8 | 25:19.51 | 3:44.71 | 113976 | 130846
9 | 29:04.47 | 3:25.45 | 130847 | 146266
10 | 32:30.17 | 4:23.68 | 146267 | 166059
11 | 36:54.10 | 3:15.05 | 166060 | 180689
12 | 40:09.15 | 4:50.36 | 180690 | 202475
13 | 44:59.51 | 3:41.68 | 202476 | 219118
14 | 48:41.44 | 3:59.65 | 219119 | 237108
15 | 52:41.34 | 4:10.45 | 237109 | 255903
16 | 56:52.04 | 3:37.12 | 255904 | 272190
17 | 60:29.16 | 2:46.46 | 272191 | 284686
18 | 63:15.62 | 4:10.34 | 284687 | 303470
19 | 67:26.21 | 4:31.09 | 303471 | 323804
20 | 71:57.30 | 6:20.25 | 323805 | 352329


Track 1

Filename A:\PsPBuRnOuT's MUSIC\100 HITS\- 100 HITS - THE BEST -\100 HITS - THE BEST - EIGHTIES ALBUM\100 HITS - THE BEST - EIGHTIES ALBUM - CD04\01.KC & The Sunshine Band - Give It Up.wav

Peak level 94.3 %
Extraction speed 12.9 X
Track quality 99.9 %
Copy CRC 54C1D36D
Accurately ripped (confidence 3) [74A7F133] (AR v2)
Copy OK

Track 2

Filename A:\PsPBuRnOuT's MUSIC\100 HITS\- 100 HITS - THE BEST -\100 HITS - THE BEST - EIGHTIES ALBUM\100 HITS - THE BEST - EIGHTIES ALBUM - CD04\02.The Weather Girls - It's Raining Men.wav

Peak level 81.7 %
Extraction speed 13.6 X
Track quality 99.8 %
Copy CRC 650463BD
Accurately ripped (confidence 3) [AE0A86CA] (AR v2)
Copy OK

Track 3

Filename A:\PsPBuRnOuT's MUSIC\100 HITS\- 100 HITS - THE BEST -\100 HITS - THE BEST - EIGHTIES ALBUM\100 HITS - THE BEST - EIGHTIES ALBUM - CD04\03.The Jacksons - Can You Feel It.wav

Peak level 92.8 %
Extraction speed 17.0 X
Track quality 100.0 %
Copy CRC EE0F3DA6
Accurately ripped (confidence 3) [E47C6B48] (AR v2)
Copy OK

Track 4

Filename A:\PsPBuRnOuT's MUSIC\100 HITS\- 100 HITS - THE BEST -\100 HITS - THE BEST - EIGHTIES ALBUM\100 HITS - THE BEST - EIGHTIES ALBUM - CD04\04.The Pointer Sisters - Jump (For My Love).wav

Peak level 94.3 %
Extraction speed 18.5 X
Track quality 100.0 %
Copy CRC 0F30C965
Accurately ripped (confidence 3) [922A574F] (AR v2)
Copy OK

Track 5

Filename A:\PsPBuRnOuT's MUSIC\100 HITS\- 100 HITS - THE BEST -\100 HITS - THE BEST - EIGHTIES ALBUM\100 HITS - THE BEST - EIGHTIES ALBUM - CD04\05.Dolly Parton - 9 To 5.wav

Peak level 78.5 %
Extraction speed 16.7 X
Track quality 100.0 %
Copy CRC 3E1C9443
Accurately ripped (confidence 3) [EA29D118] (AR v2)
Copy OK

Track 6

Filename A:\PsPBuRnOuT's MUSIC\100 HITS\- 100 HITS - THE BEST -\100 HITS - THE BEST - EIGHTIES ALBUM\100 HITS - THE BEST - EIGHTIES ALBUM - CD04\06.The Nolans - I'm In The Mood For Dancing.wav

Peak level 91.1 %
Extraction speed 17.8 X
Track quality 100.0 %
Copy CRC E5458F94
Accurately ripped (confidence 3) [2C44E761] (AR v2)
Copy OK

Track 7

Filename A:\PsPBuRnOuT's MUSIC\100 HITS\- 100 HITS - THE BEST -\100 HITS - THE BEST - EIGHTIES ALBUM\100 HITS - THE BEST - EIGHTIES ALBUM - CD04\07.Earth, Wind & Fire - Let's Groove.wav

Peak level 93.0 %
Extraction speed 21.0 X
Track quality 100.0 %
Copy CRC 2E01E5D5
Accurately ripped (confidence 3) [C0B29858] (AR v2)
Copy OK

Track 8

Filename A:\PsPBuRnOuT's MUSIC\100 HITS\- 100 HITS - THE BEST -\100 HITS - THE BEST - EIGHTIES ALBUM\100 HITS - THE BEST - EIGHTIES ALBUM - CD04\08.Daryl Hall & John Oates - I Can't Go For That (No Can Do).wav

Peak level 91.1 %
Extraction speed 18.6 X
Track quality 99.9 %
Copy CRC 5AE39064
Accurately ripped (confidence 3) [D11495EB] (AR v2)
Copy OK

Track 9

Filename A:\PsPBuRnOuT's MUSIC\100 HITS\- 100 HITS - THE BEST -\100 HITS - THE BEST - EIGHTIES ALBUM\100 HITS - THE BEST - EIGHTIES ALBUM - CD04\09.Odyssey - Going Back To My Roots.wav

Peak level 94.3 %
Extraction speed 22.4 X
Track quality 100.0 %
Copy CRC A261B4DE
Accurately ripped (confidence 3) [21373EB2] (AR v2)
Copy OK

Track 10

Filename A:\PsPBuRnOuT's MUSIC\100 HITS\- 100 HITS - THE BEST -\100 HITS - THE BEST - EIGHTIES ALBUM\100 HITS - THE BEST - EIGHTIES ALBUM - CD04\10.Miami Sound Machine - Dr. Beat.wav

Peak level 94.3 %
Extraction speed 23.9 X
Track quality 100.0 %
Copy CRC 2F9361A6
Accurately ripped (confidence 3) [0480F00B] (AR v2)
Copy OK

Track 11

Filename A:\PsPBuRnOuT's MUSIC\100 HITS\- 100 HITS - THE BEST -\100 HITS - THE BEST - EIGHTIES ALBUM\100 HITS - THE BEST - EIGHTIES ALBUM - CD04\11.Terence Trent D'Arby - If You Let Me Stay.wav

Peak level 82.2 %
Extraction speed 24.8 X
Track quality 100.0 %
Copy CRC 089140D0
Accurately ripped (confidence 3) [F57B4229] (AR v2)
Copy OK

Track 12

Filename A:\PsPBuRnOuT's MUSIC\100 HITS\- 100 HITS - THE BEST -\100 HITS - THE BEST - EIGHTIES ALBUM\100 HITS - THE BEST - EIGHTIES ALBUM - CD04\12.Cherelle & Alexander O'Neal - Saturday Love.wav

Peak level 94.3 %
Extraction speed 23.2 X
Track quality 100.0 %
Copy CRC B529BA06
Accurately ripped (confidence 3) [63077EF4] (AR v2)
Copy OK

Track 13

Filename A:\PsPBuRnOuT's MUSIC\100 HITS\- 100 HITS - THE BEST -\100 HITS - THE BEST - EIGHTIES ALBUM\100 HITS - THE BEST - EIGHTIES ALBUM - CD04\13.Modern Talking - Brother Louie.wav

Peak level 94.3 %
Extraction speed 26.3 X
Track quality 100.0 %
Copy CRC 63834C62
Accurately ripped (confidence 3) [4928F526] (AR v2)
Copy OK

Track 14

Filename A:\PsPBuRnOuT's MUSIC\100 HITS\- 100 HITS - THE BEST -\100 HITS - THE BEST - EIGHTIES ALBUM\100 HITS - THE BEST - EIGHTIES ALBUM - CD04\14.Bros - When Will I Be Famous.wav

Peak level 94.3 %
Extraction speed 24.1 X
Track quality 100.0 %
Copy CRC EFEDC02B
Accurately ripped (confidence 3) [5D83C95E] (AR v2)
Copy OK

Track 15

Filename A:\PsPBuRnOuT's MUSIC\100 HITS\- 100 HITS - THE BEST -\100 HITS - THE BEST - EIGHTIES ALBUM\100 HITS - THE BEST - EIGHTIES ALBUM - CD04\15.New Kids On The Block - You Got It (The Right Stuff).wav

Peak level 94.3 %
Extraction speed 28.3 X
Track quality 100.0 %
Copy CRC F4667A3D
Accurately ripped (confidence 3) [A04FA00C] (AR v2)
Copy OK

Track 16

Filename A:\PsPBuRnOuT's MUSIC\100 HITS\- 100 HITS - THE BEST -\100 HITS - THE BEST - EIGHTIES ALBUM\100 HITS - THE BEST - EIGHTIES ALBUM - CD04\16.Big Fun - Blame It On The Boogie.wav

Peak level 91.1 %
Extraction speed 24.8 X
Track quality 100.0 %
Copy CRC AF90DD63
Accurately ripped (confidence 3) [55BB964D] (AR v2)
Copy OK

Track 17

Filename A:\PsPBuRnOuT's MUSIC\100 HITS\- 100 HITS - THE BEST -\100 HITS - THE BEST - EIGHTIES ALBUM\100 HITS - THE BEST - EIGHTIES ALBUM - CD04\17.The Kids From ''Fame'' - Hi-Fidelity.wav

Peak level 79.4 %
Extraction speed 24.0 X
Track quality 100.0 %
Copy CRC 0D954230
Accurately ripped (confidence 3) [78EFAC83] (AR v2)
Copy OK

Track 18

Filename A:\PsPBuRnOuT's MUSIC\100 HITS\- 100 HITS - THE BEST -\100 HITS - THE BEST - EIGHTIES ALBUM\100 HITS - THE BEST - EIGHTIES ALBUM - CD04\18.Donna Summer - Dinner With Gershwin.wav

Peak level 94.3 %
Extraction speed 24.1 X
Track quality 99.9 %
Copy CRC 9568E5EB
Accurately ripped (confidence 3) [9878CF70] (AR v2)
Copy OK

Track 19

Filename A:\PsPBuRnOuT's MUSIC\100 HITS\- 100 HITS - THE BEST -\100 HITS - THE BEST - EIGHTIES ALBUM\100 HITS - THE BEST - EIGHTIES ALBUM - CD04\19.Eighth Wonder - I'm Not Scared.wav

Peak level 94.3 %
Extraction speed 26.6 X
Track quality 100.0 %
Copy CRC 61D790B9
Accurately ripped (confidence 3) [05E1C201] (AR v2)
Copy OK

Track 20

Filename A:\PsPBuRnOuT's MUSIC\100 HITS\- 100 HITS - THE BEST -\100 HITS - THE BEST - EIGHTIES ALBUM\100 HITS - THE BEST - EIGHTIES ALBUM - CD04\20.Damian - The Time Warp 2.wav

Peak level 94.3 %
Extraction speed 30.9 X
Track quality 100.0 %
Copy CRC AE8B5BD9
Accurately ripped (confidence 3) [E4D5C311] (AR v2)
Copy OK


All tracks accurately ripped

No errors occurred

End of status report

–– CUETools DB Plugin V2.1.6

[CTDB TOCID: wtdKwB7aQAOIA.Au2AqoSc2R2dU-] found
Submit result: wtdKwB7aQAOIA.Au2AqoSc2R2dU- has been confirmed
Track | CTDB Status
1 | (26/26) Accurately ripped
2 | (26/26) Accurately ripped
3 | (26/26) Accurately ripped
4 | (26/26) Accurately ripped
5 | (26/26) Accurately ripped
6 | (26/26) Accurately ripped
7 | (26/26) Accurately ripped
8 | (26/26) Accurately ripped
9 | (26/26) Accurately ripped
10 | (26/26) Accurately ripped
11 | (26/26) Accurately ripped
12 | (26/26) Accurately ripped
13 | (26/26) Accurately ripped
14 | (26/26) Accurately ripped
15 | (26/26) Accurately ripped
16 | (26/26) Accurately ripped
17 | (26/26) Accurately ripped
18 | (26/26) Accurately ripped
19 | (26/26) Accurately ripped
20 | (26/26) Accurately ripped

––––––––––––––––––––––––––––––––––––––––
Analyzed: Big Fun / 100 Hits - The Best - Eighties Album - CD04 (1)
Bros / 100 Hits - The Best - Eighties Album - CD04 (2)
Cherelle & Alexander O'Neal / 100 Hits - The Best - Eighties Album - CD04 (3)
Damian / 100 Hits - The Best - Eighties Album - CD04 (4)
Daryl Hall & John Oates / 100 Hits - The Best - Eighties Album - CD04 (5)
Dolly Parton / 100 Hits - The Best - Eighties Album - CD04 (6)
Donna Summer / 100 Hits - The Best - Eighties Album - CD04 (7)
Earth, Wind & Fire / 100 Hits - The Best - Eighties Album - CD04 (8)
Eighth Wonder / 100 Hits - The Best - Eighties Album - CD04 (9)
KC & The Sunshine Band / 100 Hits - The Best - Eighties Album - CD04 (10)
Miami Sound Machine / 100 Hits - The Best - Eighties Album - CD04 (11)
Modern Talking / 100 Hits - The Best - Eighties Album - CD04 (12)
New Kids On The Block / 100 Hits - The Best - Eighties Album - CD04 (13)
Odyssey / 100 Hits - The Best - Eighties Album - CD04 (14)
Terence Trent D'Arby / 100 Hits - The Best - Eighties Album - CD04 (15)
The Jacksons / 100 Hits - The Best - Eighties Album - CD04 (16)
The Kids From ''Fame'' / 100 Hits - The Best - Eighties Album - CD04 (17)
The Nolans / 100 Hits - The Best - Eighties Album - CD04 (18)
The Pointer Sisters / 100 Hits - The Best - Eighties Album - CD04 (19)
The Weather Girls / 100 Hits - The Best - Eighties Album - CD04 (20)
––––––––––––––––––––––––––––––––––––––––

DR Peak RMS Duration Track
––––––––––––––––––––––––––––––––––––––––
DR9 -0.80 dB -10.87 dB 3:37 16-Blame It On The Boogie
DR9 -0.50 dB -11.15 dB 4:00 14-When Will I Be Famous?
DR9 -0.50 dB -11.13 dB 4:50 12-Saturday Love
DR8 -0.50 dB -10.42 dB 6:20 20-The Time Warp 2
DR10 -0.80 dB -12.20 dB 3:45 08-I Can't Go For That (No Can Do)
DR7 -2.10 dB -11.28 dB 2:46 05-9 To 5
DR9 -0.50 dB -11.60 dB 4:10 18-Dinner With Gershwin
DR8 -0.62 dB -9.93 dB 4:03 07-Let's Groove
DR10 -0.50 dB -12.01 dB 4:31 19-I'm Not Scared
DR10 -0.50 dB -11.44 dB 4:07 01-Give It Up
DR10 -0.50 dB -11.81 dB 4:24 10-Dr. Beat
DR10 -0.50 dB -11.35 dB 3:42 13-Brother Louie
DR9 -0.50 dB -11.54 dB 4:11 15-You Got It (The Right Stuff)
DR9 -0.50 dB -10.92 dB 3:26 09-Going Back To My Roots
DR9 -1.70 dB -11.44 dB 3:15 11-If You Let Me Stay
DR9 -0.64 dB -11.20 dB 3:34 03-Can You Feel It
DR7 -2.00 dB -10.43 dB 2:47 17-Hi-Fidelity
DR8 -0.80 dB -10.79 dB 3:19 06-I'm In The Mood For Dancing
DR8 -0.50 dB -10.80 dB 4:00 04-Jump (For My Love)
DR6 -1.75 dB -10.09 dB 3:32 02-It's Raining Men
––––––––––––––––––––––––––––––––––––––––

Number of tracks: 20
Official DR value: DR9

Samplerate: 44100 Hz
Channels: 2
Bits per sample: 16
Bitrate: 998 kbps
Codec: FLAC
================================================================================

Exact Audio Copy V1.3 from 2. September 2016

EAC extraction logfile from 3. May 2018, 22:45

Various / 100 Hits - The Best - Eighties Album - CD05

Used drive : HL-DT-STDVDRAM GSA-E40N Adapter: 1 ID: 1

Read mode : Secure
Utilize accurate stream : Yes
Defeat audio cache : No
Make use of C2 pointers : Yes

Read offset correction : 667
Overread into Lead-In and Lead-Out : No
Fill up missing offset samples with silence : Yes
Delete leading and trailing silent blocks : No
Null samples used in CRC calculations : Yes
Used interface : Native Win32 interface for Win NT & 2000
Gap handling : Not detected, thus appended to previous track

Used output format : User Defined Encoder
Selected bitrate : 896 kBit/s
Quality : High
Add ID3 tag : No
Command line compressor : C:\Program Files (x86)\Exact Audio Copy\FLAC\FLAC.EXE
Additional command line options : -6 -V -T "ARTIST=%artist%" -T "TITLE=%title%" -T "ALBUM=%albumtitle%" -T "DATE=%year%" -T "TRACKNUMBER=%tracknr%" -T "GENRE=%genre%" -T "COMMENT=%comment%" -T "BAND=%albuminterpret%" -T "ALBUMARTIST=%albuminterpret%" -T "COMPOSER=%composer%" %haslyrics%–tag-from-file=LYRICS="%lyricsfile%"%haslyrics% -T "DISCNUMBER=%cdnumber%" -T "TOTALDISCS=%totalcds%" -T "TOTALTRACKS=%numtracks%" %hascover%–picture="%coverfile%"%hascover% %source% -o %dest%


TOC of the extracted CD

Track | Start | Length | Start sector | End sector
––––––––––––––––––––––––––––-
1 | 0:00.00 | 3:01.36 | 0 | 13610
2 | 3:01.36 | 4:21.66 | 13611 | 33251
3 | 7:23.27 | 4:43.22 | 33252 | 54498
4 | 12:06.49 | 3:50.61 | 54499 | 71809
5 | 15:57.35 | 4:44.14 | 71810 | 93123
6 | 20:41.49 | 4:32.59 | 93124 | 113582
7 | 25:14.33 | 3:59.74 | 113583 | 131581
8 | 29:14.32 | 4:24.55 | 131582 | 151436
9 | 33:39.12 | 3:37.40 | 151437 | 167751
10 | 37:16.52 | 3:17.61 | 167752 | 182587
11 | 40:34.38 | 3:30.19 | 182588 | 198356
12 | 44:04.57 | 4:25.38 | 198357 | 218269
13 | 48:30.20 | 4:23.15 | 218270 | 238009
14 | 52:53.35 | 3:45.15 | 238010 | 254899
15 | 56:38.50 | 4:13.72 | 254900 | 273946
16 | 60:52.47 | 3:34.69 | 273947 | 290065
17 | 64:27.41 | 3:22.39 | 290066 | 305254
18 | 67:50.05 | 2:59.71 | 305255 | 318750
19 | 70:50.01 | 3:19.62 | 318751 | 333737
20 | 74:09.63 | 4:11.55 | 333738 | 352617


Track 1

Filename A:\PsPBuRnOuT's MUSIC\100 HITS\- 100 HITS - THE BEST -\100 HITS - THE BEST - EIGHTIES ALBUM\100 HITS - THE BEST - EIGHTIES ALBUM - CD05\01.Billy Ocean - When The Going Gets Tough, The Tough Get Going.wav

Peak level 94.3 %
Extraction speed 9.8 X
Track quality 100.0 %
Copy CRC 72A9B462
Accurately ripped (confidence 2) [AFB50601] (AR v2)
Copy OK

Track 2

Filename A:\PsPBuRnOuT's MUSIC\100 HITS\- 100 HITS - THE BEST -\100 HITS - THE BEST - EIGHTIES ALBUM\100 HITS - THE BEST - EIGHTIES ALBUM - CD05\02.Deniece Williams - Let's Hear It For The Boy.wav

Peak level 94.3 %
Extraction speed 11.0 X
Track quality 100.0 %
Copy CRC 2F3ABB1B
Accurately ripped (confidence 2) [9B243977] (AR v2)
Copy OK

Track 3

Filename A:\PsPBuRnOuT's MUSIC\100 HITS\- 100 HITS - THE BEST -\100 HITS - THE BEST - EIGHTIES ALBUM\100 HITS - THE BEST - EIGHTIES ALBUM - CD05\03.James Brown - Living In America.wav

Peak level 94.3 %
Extraction speed 11.5 X
Track quality 99.9 %
Copy CRC 77810633
Accurately ripped (confidence 2) [9305D319] (AR v2)
Copy OK

Track 4

Filename A:\PsPBuRnOuT's MUSIC\100 HITS\- 100 HITS - THE BEST -\100 HITS - THE BEST - EIGHTIES ALBUM\100 HITS - THE BEST - EIGHTIES ALBUM - CD05\04.Luther Vandross - Never Too Much.wav

Peak level 94.3 %
Extraction speed 13.8 X
Track quality 100.0 %
Copy CRC 58B06F32
Accurately ripped (confidence 2) [CAF57959] (AR v2)
Copy OK

Track 5

Filename A:\PsPBuRnOuT's MUSIC\100 HITS\- 100 HITS - THE BEST -\100 HITS - THE BEST - EIGHTIES ALBUM\100 HITS - THE BEST - EIGHTIES ALBUM - CD05\05.Aretha Franklin - Who's Zoomin' Who.wav

Peak level 94.3 %
Extraction speed 13.9 X
Track quality 100.0 %
Copy CRC BD5D0D51
Accurately ripped (confidence 2) [9486CF5B] (AR v2)
Copy OK

Track 6

Filename A:\PsPBuRnOuT's MUSIC\100 HITS\- 100 HITS - THE BEST -\100 HITS - THE BEST - EIGHTIES ALBUM\100 HITS - THE BEST - EIGHTIES ALBUM - CD05\06.Boy Meets Girl - Waiting For A Star To Fall.wav

Peak level 89.1 %
Extraction speed 13.8 X
Track quality 99.9 %
Copy CRC 3619FC73
Accurately ripped (confidence 2) [3055CE1A] (AR v2)
Copy OK

Track 7

Filename A:\PsPBuRnOuT's MUSIC\100 HITS\- 100 HITS - THE BEST -\100 HITS - THE BEST - EIGHTIES ALBUM\100 HITS - THE BEST - EIGHTIES ALBUM - CD05\07.Alexander O'Neal - Criticize.wav

Peak level 94.3 %
Extraction speed 16.3 X
Track quality 100.0 %
Copy CRC 01969FD5
Accurately ripped (confidence 2) [4283FDEE] (AR v2)
Copy OK

Track 8

Filename A:\PsPBuRnOuT's MUSIC\100 HITS\- 100 HITS - THE BEST -\100 HITS - THE BEST - EIGHTIES ALBUM\100 HITS - THE BEST - EIGHTIES ALBUM - CD05\08.S.O.S. Band - Just Be Good To Me.wav

Peak level 94.3 %
Extraction speed 15.8 X
Track quality 100.0 %
Copy CRC 5A308017
Accurately ripped (confidence 2) [E3B217CE] (AR v2)
Copy OK

Track 9

Filename A:\PsPBuRnOuT's MUSIC\100 HITS\- 100 HITS - THE BEST -\100 HITS - THE BEST - EIGHTIES ALBUM\100 HITS - THE BEST - EIGHTIES ALBUM - CD05\09.Donna Summer - This Time I Know It's For Real.wav

Peak level 100.0 %
Extraction speed 16.2 X
Track quality 100.0 %
Copy CRC 680A599E
Accurately ripped (confidence 2) [58C30D72] (AR v2)
Copy OK

Track 10

Filename A:\PsPBuRnOuT's MUSIC\100 HITS\- 100 HITS - THE BEST -\100 HITS - THE BEST - EIGHTIES ALBUM\100 HITS - THE BEST - EIGHTIES ALBUM - CD05\10.Evelyn ''Champagne'' King - Love Come Down.wav

Peak level 94.3 %
Extraction speed 16.4 X
Track quality 100.0 %
Copy CRC EA012DD2
Accurately ripped (confidence 2) [6D0B5D73] (AR v2)
Copy OK

Track 11

Filename A:\PsPBuRnOuT's MUSIC\100 HITS\- 100 HITS - THE BEST -\100 HITS - THE BEST - EIGHTIES ALBUM\100 HITS - THE BEST - EIGHTIES ALBUM - CD05\11.The Four Tops - Loco In Acapulco.wav

Peak level 91.1 %
Extraction speed 17.1 X
Track quality 100.0 %
Copy CRC 6A134C3B
Accurately ripped (confidence 2) [03808C27] (AR v2)
Copy OK

Track 12

Filename A:\PsPBuRnOuT's MUSIC\100 HITS\- 100 HITS - THE BEST -\100 HITS - THE BEST - EIGHTIES ALBUM\100 HITS - THE BEST - EIGHTIES ALBUM - CD05\12.The Pasadenas - Tribute (Right On).wav

Peak level 94.3 %
Extraction speed 19.8 X
Track quality 100.0 %
Copy CRC 1930D0D3
Accurately ripped (confidence 2) [BB21AE4E] (AR v2)
Copy OK

Track 13

Filename A:\PsPBuRnOuT's MUSIC\100 HITS\- 100 HITS - THE BEST -\100 HITS - THE BEST - EIGHTIES ALBUM\100 HITS - THE BEST - EIGHTIES ALBUM - CD05\13.Lisa Stansfield - All Around The World.wav

Peak level 94.3 %
Extraction speed 17.5 X
Track quality 99.9 %
Copy CRC 32AF3F4C
Accurately ripped (confidence 2) [0BEAF784] (AR v2)
Copy OK

Track 14

Filename A:\PsPBuRnOuT's MUSIC\100 HITS\- 100 HITS - THE BEST -\100 HITS - THE BEST - EIGHTIES ALBUM\100 HITS - THE BEST - EIGHTIES ALBUM - CD05\14.Joyce Sims - Come Into My Life.wav

Peak level 94.3 %
Extraction speed 18.4 X
Track quality 100.0 %
Copy CRC 9A9D878B
Accurately ripped (confidence 2) [94F7AE5D] (AR v2)
Copy OK

Track 15

Filename A:\PsPBuRnOuT's MUSIC\100 HITS\- 100 HITS - THE BEST -\100 HITS - THE BEST - EIGHTIES ALBUM\100 HITS - THE BEST - EIGHTIES ALBUM - CD05\15.Milli Vanilli - Girl You Know It's True.wav

Peak level 94.3 %
Extraction speed 18.2 X
Track quality 99.9 %
Copy CRC C420B38B
Accurately ripped (confidence 2) [C01F0FC9] (AR v2)
Copy OK

Track 16

Filename A:\PsPBuRnOuT's MUSIC\100 HITS\- 100 HITS - THE BEST -\100 HITS - THE BEST - EIGHTIES ALBUM\100 HITS - THE BEST - EIGHTIES ALBUM - CD05\16.S'Express - Theme From S-Express.wav

Peak level 85.1 %
Extraction speed 21.4 X
Track quality 100.0 %
Copy CRC 6045AB18
Accurately ripped (confidence 2) [87B3FC17] (AR v2)
Copy OK

Track 17

Filename A:\PsPBuRnOuT's MUSIC\100 HITS\- 100 HITS - THE BEST -\100 HITS - THE BEST - EIGHTIES ALBUM\100 HITS - THE BEST - EIGHTIES ALBUM - CD05\17.Herbie Hancock - Rockit.wav

Peak level 94.3 %
Extraction speed 20.0 X
Track quality 100.0 %
Copy CRC 6F73F61C
Accurately ripped (confidence 2) [EC8F3AE3] (AR v2)
Copy OK

Track 18

Filename A:\PsPBuRnOuT's MUSIC\100 HITS\- 100 HITS - THE BEST -\100 HITS - THE BEST - EIGHTIES ALBUM\100 HITS - THE BEST - EIGHTIES ALBUM - CD05\18.Landscape - Einstein A Go-Go.wav

Peak level 94.3 %
Extraction speed 19.9 X
Track quality 100.0 %
Copy CRC 4307FA9F
Accurately ripped (confidence 2) [6EF8CA95] (AR v2)
Copy OK

Track 19

Filename A:\PsPBuRnOuT's MUSIC\100 HITS\- 100 HITS - THE BEST -\100 HITS - THE BEST - EIGHTIES ALBUM\100 HITS - THE BEST - EIGHTIES ALBUM - CD05\19.Bomb The Bass - Beat Dis.wav

Peak level 94.3 %
Extraction speed 23.3 X
Track quality 100.0 %
Copy CRC DFF6C360
Accurately ripped (confidence 2) [738EFCC2] (AR v2)
Copy OK

Track 20

Filename A:\PsPBuRnOuT's MUSIC\100 HITS\- 100 HITS - THE BEST -\100 HITS - THE BEST - EIGHTIES ALBUM\100 HITS - THE BEST - EIGHTIES ALBUM - CD05\20.Farley ''Jackmaster'' Funk - Love Can't Turn Around.wav

Peak level 64.5 %
Extraction speed 22.1 X
Track quality 100.0 %
Copy CRC 0FC5B583
Accurately ripped (confidence 2) [7DB63254] (AR v2)
Copy OK


All tracks accurately ripped

No errors occurred

End of status report

–– CUETools DB Plugin V2.1.6

[CTDB TOCID: h1WlY2dkKW8KN9p9vUW6aZ9zY7s-] found
Submit result: h1WlY2dkKW8KN9p9vUW6aZ9zY7s- has been confirmed
Track | CTDB Status
1 | (23/23) Accurately ripped
2 | (23/23) Accurately ripped
3 | (23/23) Accurately ripped
4 | (23/23) Accurately ripped
5 | (23/23) Accurately ripped
6 | (23/23) Accurately ripped
7 | (23/23) Accurately ripped
8 | (23/23) Accurately ripped
9 | (23/23) Accurately ripped
10 | (23/23) Accurately ripped
11 | (23/23) Accurately ripped
12 | (23/23) Accurately ripped
13 | (23/23) Accurately ripped
14 | (23/23) Accurately ripped
15 | (23/23) Accurately ripped
16 | (23/23) Accurately ripped
17 | (23/23) Accurately ripped
18 | (23/23) Accurately ripped
19 | (23/23) Accurately ripped
20 | (23/23) Accurately ripped

––––––––––––––––––––––––––––––––––––––––
Analyzed: Alexander O'Neal / 100 Hits - The Best - Eighties Album - CD05 (1)
Aretha Franklin / 100 Hits - The Best - Eighties Album - CD05 (2)
Billy Ocean / 100 Hits - The Best - Eighties Album - CD05 (3)
Bomb The Bass / 100 Hits - The Best - Eighties Album - CD05 (4)
Boy Meets Girl / 100 Hits - The Best - Eighties Album - CD05 (5)
Deniece Williams / 100 Hits - The Best - Eighties Album - CD05 (6)
Donna Summer / 100 Hits - The Best - Eighties Album - CD05 (7)
Evelyn ''Champagne'' King / 100 Hits - The Best - Eighties Album - CD05 (8)
Farley ''Jackmaster'' Funk / 100 Hits - The Best - Eighties Album - CD05 (9)
Herbie Hancock / 100 Hits - The Best - Eighties Album - CD05 (10)
James Brown / 100 Hits - The Best - Eighties Album - CD05 (11)
Joyce Sims / 100 Hits - The Best - Eighties Album - CD05 (12)
Landscape / 100 Hits - The Best - Eighties Album - CD05 (13)
Lisa Stansfield / 100 Hits - The Best - Eighties Album - CD05 (14)
Luther Vandross / 100 Hits - The Best - Eighties Album - CD05 (15)
Milli Vanilli / 100 Hits - The Best - Eighties Album - CD05 (16)
S.O.S. Band / 100 Hits - The Best - Eighties Album - CD05 (17)
S'Express / 100 Hits - The Best - Eighties Album - CD05 (18)
The Four Tops / 100 Hits - The Best - Eighties Album - CD05 (19)
The Pasadenas / 100 Hits - The Best - Eighties Album - CD05 (20)
––––––––––––––––––––––––––––––––––––––––

DR Peak RMS Duration Track
––––––––––––––––––––––––––––––––––––––––
DR8 -0.50 dB -10.36 dB 4:00 07-Criticize
DR9 -0.50 dB -11.42 dB 4:44 05-Who's Zoomin' Who?
DR8 -0.50 dB -11.00 dB 3:01 01-When The Going Gets Tough, The Tough Get Going
DR8 -0.50 dB -9.29 dB 3:20 19-Beat Dis
DR8 -1.00 dB -10.23 dB 4:33 06-Waiting For A Star To Fall
DR9 -0.50 dB -11.41 dB 4:22 02-Let's Hear It For The Boy
DR9 0.00 dB -10.34 dB 3:38 09-This Time I Know It's For Real
DR9 -0.50 dB -10.54 dB 3:18 10-Love Come Down
DR6 -3.80 dB -10.29 dB 4:12 20-Love Can't Turn Around
DR8 -0.50 dB -9.84 dB 3:23 17-Rockit
DR9 -0.50 dB -10.42 dB 4:43 03-Living In America
DR9 -0.50 dB -10.74 dB 3:45 14-Come Into My Life
DR8 -0.50 dB -11.30 dB 3:00 18-Einstein A Go-Go
DR9 -0.50 dB -11.27 dB 4:23 13-All Around The World
DR9 -0.50 dB -11.30 dB 3:51 04-Never Too Much
DR8 -0.50 dB -10.84 dB 4:14 15-Girl You Know It's True
DR8 -0.50 dB -10.44 dB 4:25 08-Just Be Good To Me
DR7 -1.40 dB -9.58 dB 3:35 16-Theme From S-Express
DR8 -0.80 dB -10.17 dB 3:30 11-Loco In Acapulco
DR9 -0.50 dB -10.97 dB 4:26 12-Tribute (Right On)
––––––––––––––––––––––––––––––––––––––––

Number of tracks: 20
Official DR value: DR8

Samplerate: 44100 Hz
Channels: 2
Bits per sample: 16
Bitrate: 1011 kbps
Codec: FLAC
================================================================================

All thanks to PsPBuRnOuT

password: BlondStyle