Subcategories

Various Artists - 100 Hits: The Best Sixties Album [5CD] (2017)

Posted By: BlondStyle
Various Artists - 100 Hits: The Best Sixties Album [5CD] (2017)

Various Artists - 100 Hits: The Best Sixties Album [5CD] (2017)
Pop/Rock, Blues, Country | EAC Rip | FLAC, Tracks+CUE+LOG+Scans (JPEG) | 04:42:22 h | 1,75 Gb
Label: Demon Music/Sony Music Entertainment UK Ltd. (EU) | Cat.# DMGN 100 185 | Released: 2017-11-03

The Best Sixties Album contains the defining tracks of the decade and features some of the biggest hits from artists including Scott McKenzie, The Byrds, The Moody Blues, Del Shannon, Andy Williams, Sly & The Family Stone, Aretha Franklin, Johnny Cash, Tammy Wynette and many more.
~Amazon UK

Various Artists - 100 Hits: The Best Sixties Album [5CD] (2017)

Various Artists - 100 Hits: The Best Sixties Album [5CD] (2017)


Release of this 3CD Set: 2017, November, 3 [CD Demon Music/Sony Music Entertainment UK Ltd. (EU), Cat.# DMGN 100 185 / UPC: 654378718526]
This compilation ℗© 2017 Demon Music Group Limited/Sony Music Entertainment UK Limited.
Marketed by Demon Music Group Limited.
Manufactured in the EU


Tracklist:

Disc 1

01. Scott McKenzie - San Francisco (Be Sure To Wear Flowers In Your Hair) (02:58)
02. The Byrds - Mr. Tambourine Man (02:20)
03. The Moody Blues - Go Now (03:11)
04. The Lovin' Spoonful - Summer In The City (02:40)
05. The Box Tops - The Letter (01:53)
06. The Guess Who - Shakin' All Over (02:41)
07. Fleetwood Mac - Albatross (03:10)
08. Zager & Evans - In The Year 2525 (Exordium & Terminus) (03:14)
09. The Yardbirds - Over Under Sideways Down (02:24)
10. Chicken Shack - I'd Rather Go Blind (03:14)
11. Big Brother & The Holding Company - Summertime (03:58)
12. Santana - Evil Ways (03:01)
13. The Lemon Pipers - Green Tambourine (02:27)
14. The Creation - Painter Man (02:54)
15. Paul Revere & The Raiders - I'm Not Your Stepping Stone (02:47)
16. The Count Five - Psychotic Reaction (03:10)
17. The End - Shades Of Orange (02:41)
18. The Herd - From The Underworld (03:15)
19. The Gun - Race With The Devil (03:34)
20. The Trashmen - Surfing Bird (02:15)

Disc 2

01. Del Shannon - Runaway (02:15)
02. The Archies - Sugar Sugar (02:50)
03. Chris Montez - Let's Dance (02:29)
04. 1910 Fruitgum Company - Simon Says (02:15)
05. Ohio Express - Yummy Yummy Yummy (02:20)
06. Gary Puckett & The Union Gap - Young Girl (03:12)
07. Bruce Channel - Hey Baby (02:20)
08. Neil Sedaka - Breaking Up Is Hard To Do (02:16)
09. The McCoys - Hang On Sloopy (03:52)
10. Lee Dorsey - Working In The Coal Mine (02:50)
11. Clodagh Rodgers - Goodnight Midnight (02:58)
12. The Tokens - The Lion Sleeps Tonight (Wimoweh) (02:42)
13. Reparata & The Delrons - Captain Of Your Ship (02:28)
14. Little Peggy March - I Will Follow Him (02:27)
15. Vanity Fare - Hitchin' A Ride (03:07)
16. Lou Christie - I'm Gonna Make You Mine (02:40)
17. Sly & The Family Stone - Everyday People (02:21)
18. The Delfonics - Ready Or Not Here I Come (Can't Hide From Love) (01:59)
19. The 5th Dimension - Up-Up And Away (02:37)
20. Johnny Nash - Hold Me Tight (02:43)

Disc 3

01. Andy Williams - Music To Watch Girls By (02:31)
02. Harry Nilsson - Everybody's Talkin' (From "Midnight Cowboy") (02:41)
03. Tony Bennett - The Good Life (02:15)
04. Aretha Franklin - My Guy (02:57)
05. Nina Simone - To Love Somebody (02:42)
06. Doris Day - Move Over Darling (02:35)
07. Anita Harris - Dream A Little Dream Of Me (03:01)
08. Bobby Vinton - Blue Velvet (02:50)
09. Skeeter Davis - The End Of The World (02:37)
10. Percy Faith & His Orchestra - Theme From "A Summer Place" (02:25)
11. Henry Mancini - Moon River (From "Breakfast At Tiffany's") (02:43)
12. Gary Puckett & The Union Gap - Lady Willpower (02:46)
13. The Dave Brubeck Quartet - Take Five (02:53)
14. Buddy Greco - The Lady Is A Tramp (03:37)
15. Ramsey Lewis - The "In" Crowd (02:37)
16. Johnny Cash - A Boy Named Sue (03:46)
17. Jim Reeves - He'll Have To Go (02:20)
18. Perry Como - Caterina (02:08)
19. Duane Eddy - (Dance With The) Guitar Man (02:40)
20. Mike Berry - Tribute To Buddy Holly (02:57)

Disc 4

01. Sly & The Family Stone - Dance To The Music (02:58)
02. Erma Franklin - Piece Of My Heart (02:35)
03. Aretha Franklin - The Shoop Shoop Song (02:23)
04. Nina Simone - Ain't Got No - I Got Life (From "Hair") (02:10)
05. The Delfonics - Didn't I (Blow Your Mind This Time) (03:23)
06. The Isley Brothers - It's Your Thing (02:48)
07. Laura Greene - Moonlight Music And You (02:31)
08. Dobie Gray - Out On The Floor (02:53)
09. The Fifth Dimension - Aquarius - Let The Sunshine In (The Flesh Failures) (03:53)
10. The Capitols - Cool Jerk (02:31)
11. Neil Christian - That's Nice (02:39)
12. Clodagh Rodgers - Come Back And Shake Me (02:36)
13. Johnny Nash - Cupid (03:26)
14. Andy Williams - Can't Take My Eyes Off You (03:14)
15. Jose Feliciano - Light My Fire (03:35)
16. Tony Bennett - (I Left My Heart) In San Francisco (02:52)
17. Blood, Sweat & Tears - You've Made Me So Very Happy (03:30)
18. Bobby Vinton - Roses Are Red (My Love) (02:38)
19. Neil Sedaka - Calendar Girl (02:39)
20. Family Dogg - A Way Of Life (04:06)

Disc 5

01. Johnny Cash - Ring Of Fire (02:36)
02. Tammy Wynette - Stand By Your Man (02:39)
03. The Byrds - Turn! Turn! Turn! (To Everything There Is A Season) (03:50)
04. The Box Tops - Neon Rainbow (03:02)
05. The Creation - Making Time (02:57)
06. The Lovin' Spoonful - Do You Believe In Magic (02:06)
07. Big Brother & The Holding Company Ft. Janis Joplin - Call On Me (02:34)
08. Kris Kristofferson - Sunday Morning Comin' Down (04:32)
09. Bobby Darin - If I Were A Carpenter (02:21)
10. Perry Como - Delaware (02:21)
11. Jimmy Dean - Big Bad John (03:01)
12. Johnny Mathis - Misty (03:34)
13. Jim Reeves - Distant Drums (02:52)
14. Unit Four Plus Two - Concrete And Clay (02:15)
15. Hugo Montenegro & His Orchestra & Chorus - The Good, The Bad And The Ugly (02:45)
16. Georgie Fame - The Ballad Of Bonnie & Clyde (03:09)
17. The Statler Brothers - Flowers On The Wall (02:20)
18. Marty Robbins - Devil Woman (02:52)
19. Crispian St. Peters - You Were On My Mind (02:41)
20. Harry Nilsson - Without Her (02:17)

Exact Audio Copy V1.3 from 2. September 2016

EAC extraction logfile from 7. May 2018, 21:32

Various / 100 Hits - The Best - Sixties Album - CD01

Used drive : HL-DT-STDVDRAM GSA-E40N Adapter: 1 ID: 1

Read mode : Secure
Utilize accurate stream : Yes
Defeat audio cache : No
Make use of C2 pointers : Yes

Read offset correction : 667
Overread into Lead-In and Lead-Out : No
Fill up missing offset samples with silence : Yes
Delete leading and trailing silent blocks : No
Null samples used in CRC calculations : Yes
Used interface : Native Win32 interface for Win NT & 2000
Gap handling : Not detected, thus appended to previous track

Used output format : User Defined Encoder
Selected bitrate : 896 kBit/s
Quality : High
Add ID3 tag : No
Command line compressor : C:\Program Files (x86)\Exact Audio Copy\FLAC\FLAC.EXE
Additional command line options : -6 -V -T "ARTIST=%artist%" -T "TITLE=%title%" -T "ALBUM=%albumtitle%" -T "DATE=%year%" -T "TRACKNUMBER=%tracknr%" -T "GENRE=%genre%" -T "COMMENT=%comment%" -T "BAND=%albuminterpret%" -T "ALBUMARTIST=%albuminterpret%" -T "COMPOSER=%composer%" %haslyrics%–tag-from-file=LYRICS="%lyricsfile%"%haslyrics% -T "DISCNUMBER=%cdnumber%" -T "TOTALDISCS=%totalcds%" -T "TOTALTRACKS=%numtracks%" %hascover%–picture="%coverfile%"%hascover% %source% -o %dest%


TOC of the extracted CD

Track | Start | Length | Start sector | End sector
––––––––––––––––––––––––––––-
1 | 0:00.00 | 2:58.44 | 0 | 13393
2 | 2:58.44 | 2:20.45 | 13394 | 23938
3 | 5:19.14 | 3:11.60 | 23939 | 38323
4 | 8:30.74 | 2:40.32 | 38324 | 50355
5 | 11:11.31 | 1:53.24 | 50356 | 58854
6 | 13:04.55 | 2:41.05 | 58855 | 70934
7 | 15:45.60 | 3:10.04 | 70935 | 85188
8 | 18:55.64 | 3:14.64 | 85189 | 99802
9 | 22:10.53 | 2:24.27 | 99803 | 110629
10 | 24:35.05 | 3:14.24 | 110630 | 125203
11 | 27:49.29 | 3:58.46 | 125204 | 143099
12 | 31:48.00 | 3:01.35 | 143100 | 156709
13 | 34:49.35 | 2:27.33 | 156710 | 167767
14 | 37:16.68 | 2:54.36 | 167768 | 180853
15 | 40:11.29 | 2:47.30 | 180854 | 193408
16 | 42:58.59 | 3:10.18 | 193409 | 207676
17 | 46:09.02 | 2:41.01 | 207677 | 219752
18 | 48:50.03 | 3:15.65 | 219753 | 234442
19 | 52:05.68 | 3:34.15 | 234443 | 250507
20 | 55:40.08 | 2:15.21 | 250508 | 260653


Track 1

Filename A:\PsPBuRnOuT's MUSIC\100 HITS\- 100 HITS - THE BEST -\100 HITS - THE BEST - SIXTIES ALBUM\100 HITS - THE BEST - SIXTIES ALBUM - CD01\01.Scott McKenzie - San Francisco (Be Sure To Wear Flowers In Your Hair).wav

Peak level 94.3 %
Extraction speed 14.4 X
Track quality 100.0 %
Copy CRC 10D9230F
Accurately ripped (confidence 1) [3C63C9D3] (AR v2)
Copy OK

Track 2

Filename A:\PsPBuRnOuT's MUSIC\100 HITS\- 100 HITS - THE BEST -\100 HITS - THE BEST - SIXTIES ALBUM\100 HITS - THE BEST - SIXTIES ALBUM - CD01\02.The Byrds - Mr. Tambourine Man.wav

Peak level 94.3 %
Extraction speed 15.7 X
Track quality 100.0 %
Copy CRC C01B7885
Track not present in AccurateRip database
Copy OK

Track 3

Filename A:\PsPBuRnOuT's MUSIC\100 HITS\- 100 HITS - THE BEST -\100 HITS - THE BEST - SIXTIES ALBUM\100 HITS - THE BEST - SIXTIES ALBUM - CD01\03.The Moody Blues - Go Now.wav

Peak level 94.3 %
Extraction speed 14.1 X
Track quality 99.8 %
Copy CRC 3949E6DE
Accurately ripped (confidence 1) [00976B03] (AR v2)
Copy OK

Track 4

Filename A:\PsPBuRnOuT's MUSIC\100 HITS\- 100 HITS - THE BEST -\100 HITS - THE BEST - SIXTIES ALBUM\100 HITS - THE BEST - SIXTIES ALBUM - CD01\04.The Lovin' Spoonful - Summer In The City.wav

Peak level 79.4 %
Extraction speed 14.9 X
Track quality 100.0 %
Copy CRC F5D52080
Accurately ripped (confidence 1) [8CB6DB76] (AR v2)
Copy OK

Track 5

Filename A:\PsPBuRnOuT's MUSIC\100 HITS\- 100 HITS - THE BEST -\100 HITS - THE BEST - SIXTIES ALBUM\100 HITS - THE BEST - SIXTIES ALBUM - CD01\05.The Box Tops - The Letter.wav

Peak level 94.3 %
Extraction speed 15.0 X
Track quality 100.0 %
Copy CRC 12503544
Accurately ripped (confidence 1) [8BC7DBDF] (AR v2)
Copy OK

Track 6

Filename A:\PsPBuRnOuT's MUSIC\100 HITS\- 100 HITS - THE BEST -\100 HITS - THE BEST - SIXTIES ALBUM\100 HITS - THE BEST - SIXTIES ALBUM - CD01\06.The Guess Who - Shakin' All Over.wav

Peak level 94.3 %
Extraction speed 16.4 X
Track quality 100.0 %
Copy CRC 5BF50AB5
Accurately ripped (confidence 1) [220178FF] (AR v2)
Copy OK

Track 7

Filename A:\PsPBuRnOuT's MUSIC\100 HITS\- 100 HITS - THE BEST -\100 HITS - THE BEST - SIXTIES ALBUM\100 HITS - THE BEST - SIXTIES ALBUM - CD01\07.Fleetwood Mac - Albatross.wav

Peak level 99.9 %
Extraction speed 20.1 X
Track quality 100.0 %
Copy CRC DAAC4D80
Accurately ripped (confidence 1) [EC26DAA8] (AR v2)
Copy OK

Track 8

Filename A:\PsPBuRnOuT's MUSIC\100 HITS\- 100 HITS - THE BEST -\100 HITS - THE BEST - SIXTIES ALBUM\100 HITS - THE BEST - SIXTIES ALBUM - CD01\08.Zager & Evans - In The Year 2525 (Exordium & Terminus).wav

Peak level 87.7 %
Extraction speed 18.6 X
Track quality 100.0 %
Copy CRC A508337A
Accurately ripped (confidence 1) [140C69CA] (AR v2)
Copy OK

Track 9

Filename A:\PsPBuRnOuT's MUSIC\100 HITS\- 100 HITS - THE BEST -\100 HITS - THE BEST - SIXTIES ALBUM\100 HITS - THE BEST - SIXTIES ALBUM - CD01\09.The Yardbirds - Over Under Sideways Down.wav

Peak level 94.3 %
Extraction speed 16.8 X
Track quality 99.8 %
Copy CRC 75A65F96
Accurately ripped (confidence 1) [A6C8EAC7] (AR v2)
Copy OK

Track 10

Filename A:\PsPBuRnOuT's MUSIC\100 HITS\- 100 HITS - THE BEST -\100 HITS - THE BEST - SIXTIES ALBUM\100 HITS - THE BEST - SIXTIES ALBUM - CD01\10.Chicken Shack - I'd Rather Go Blind.wav

Peak level 94.3 %
Extraction speed 19.0 X
Track quality 100.0 %
Copy CRC 3BDF02A6
Accurately ripped (confidence 1) [EE20884A] (AR v2)
Copy OK

Track 11

Filename A:\PsPBuRnOuT's MUSIC\100 HITS\- 100 HITS - THE BEST -\100 HITS - THE BEST - SIXTIES ALBUM\100 HITS - THE BEST - SIXTIES ALBUM - CD01\11.Big Brother & The Holding Company - Summertime.wav

Peak level 94.3 %
Extraction speed 21.1 X
Track quality 100.0 %
Copy CRC EB5BADC0
Accurately ripped (confidence 1) [C27ED32B] (AR v2)
Copy OK

Track 12

Filename A:\PsPBuRnOuT's MUSIC\100 HITS\- 100 HITS - THE BEST -\100 HITS - THE BEST - SIXTIES ALBUM\100 HITS - THE BEST - SIXTIES ALBUM - CD01\12.Santana - Evil Ways.wav

Peak level 94.3 %
Extraction speed 20.9 X
Track quality 100.0 %
Copy CRC DC69503D
Accurately ripped (confidence 1) [029F6AC5] (AR v2)
Copy OK

Track 13

Filename A:\PsPBuRnOuT's MUSIC\100 HITS\- 100 HITS - THE BEST -\100 HITS - THE BEST - SIXTIES ALBUM\100 HITS - THE BEST - SIXTIES ALBUM - CD01\13.The Lemon Pipers - Green Tambourine.wav

Peak level 94.3 %
Extraction speed 17.9 X
Track quality 100.0 %
Copy CRC 5EB14468
Accurately ripped (confidence 1) [802FF1FA] (AR v2)
Copy OK

Track 14

Filename A:\PsPBuRnOuT's MUSIC\100 HITS\- 100 HITS - THE BEST -\100 HITS - THE BEST - SIXTIES ALBUM\100 HITS - THE BEST - SIXTIES ALBUM - CD01\14.The Creation - Painter Man.wav

Peak level 85.1 %
Extraction speed 21.6 X
Track quality 100.0 %
Copy CRC 85077B71
Accurately ripped (confidence 1) [472A2FA4] (AR v2)
Copy OK

Track 15

Filename A:\PsPBuRnOuT's MUSIC\100 HITS\- 100 HITS - THE BEST -\100 HITS - THE BEST - SIXTIES ALBUM\100 HITS - THE BEST - SIXTIES ALBUM - CD01\15.Paul Revere & The Raiders - I'm Not Your Stepping Stone.wav

Peak level 94.3 %
Extraction speed 25.4 X
Track quality 100.0 %
Copy CRC F8A9C547
Accurately ripped (confidence 1) [B16E2D3C] (AR v2)
Copy OK

Track 16

Filename A:\PsPBuRnOuT's MUSIC\100 HITS\- 100 HITS - THE BEST -\100 HITS - THE BEST - SIXTIES ALBUM\100 HITS - THE BEST - SIXTIES ALBUM - CD01\16.The Count Five - Psychotic Reaction.wav

Peak level 94.3 %
Extraction speed 21.7 X
Track quality 99.8 %
Copy CRC 462531D9
Accurately ripped (confidence 1) [C5955995] (AR v2)
Copy OK

Track 17

Filename A:\PsPBuRnOuT's MUSIC\100 HITS\- 100 HITS - THE BEST -\100 HITS - THE BEST - SIXTIES ALBUM\100 HITS - THE BEST - SIXTIES ALBUM - CD01\17.The End - Shades Of Orange.wav

Peak level 94.3 %
Extraction speed 25.8 X
Track quality 100.0 %
Copy CRC 5D26D431
Accurately ripped (confidence 1) [E0142F77] (AR v2)
Copy OK

Track 18

Filename A:\PsPBuRnOuT's MUSIC\100 HITS\- 100 HITS - THE BEST -\100 HITS - THE BEST - SIXTIES ALBUM\100 HITS - THE BEST - SIXTIES ALBUM - CD01\18.The Herd - From The Underworld.wav

Peak level 80.3 %
Extraction speed 24.4 X
Track quality 100.0 %
Copy CRC BA502ABF
Accurately ripped (confidence 1) [5B51D1DA] (AR v2)
Copy OK

Track 19

Filename A:\PsPBuRnOuT's MUSIC\100 HITS\- 100 HITS - THE BEST -\100 HITS - THE BEST - SIXTIES ALBUM\100 HITS - THE BEST - SIXTIES ALBUM - CD01\19.The Gun - Race With The Devil.wav

Peak level 94.3 %
Extraction speed 28.8 X
Track quality 100.0 %
Copy CRC D2878C93
Accurately ripped (confidence 1) [B22BA6C1] (AR v2)
Copy OK

Track 20

Filename A:\PsPBuRnOuT's MUSIC\100 HITS\- 100 HITS - THE BEST -\100 HITS - THE BEST - SIXTIES ALBUM\100 HITS - THE BEST - SIXTIES ALBUM - CD01\20.The Trashmen - Surfing Bird.wav

Peak level 91.1 %
Extraction speed 25.6 X
Track quality 100.0 %
Copy CRC 40C57C06
Accurately ripped (confidence 1) [6BC35732] (AR v2)
Copy OK


19 track(s) accurately ripped
1 track(s) not present in the AccurateRip database

Some tracks could not be verified as accurate

No errors occurred

End of status report

–– CUETools DB Plugin V2.1.6

[CTDB TOCID: 1o_4x2U9gktJLZur33tXFI8yaEs-] found
Submit result: 1o_4x2U9gktJLZur33tXFI8yaEs- has been confirmed
Track | CTDB Status
1 | (13/13) Accurately ripped
2 | (13/13) Accurately ripped
3 | (13/13) Accurately ripped
4 | (13/13) Accurately ripped
5 | (13/13) Accurately ripped
6 | (13/13) Accurately ripped
7 | (13/13) Accurately ripped
8 | (13/13) Accurately ripped
9 | (13/13) Accurately ripped
10 | (13/13) Accurately ripped
11 | (13/13) Accurately ripped
12 | (13/13) Accurately ripped
13 | (13/13) Accurately ripped
14 | (13/13) Accurately ripped
15 | (13/13) Accurately ripped
16 | (13/13) Accurately ripped
17 | (13/13) Accurately ripped
18 | (13/13) Accurately ripped
19 | (13/13) Accurately ripped
20 | (13/13) Accurately ripped

––––––––––––––––––––––––––––––––––––––––
Analyzed: Big Brother & The Holding Company / 100 Hits - The Best - Sixties Album - CD01 (1)
Chicken Shack / 100 Hits - The Best - Sixties Album - CD01 (2)
Fleetwood Mac / 100 Hits - The Best - Sixties Album - CD01 (3)
Paul Revere & The Raiders / 100 Hits - The Best - Sixties Album - CD01 (4)
Santana / 100 Hits - The Best - Sixties Album - CD01 (5)
Scott McKenzie / 100 Hits - The Best - Sixties Album - CD01 (6)
The Box Tops / 100 Hits - The Best - Sixties Album - CD01 (7)
The Byrds / 100 Hits - The Best - Sixties Album - CD01 (8)
The Count Five / 100 Hits - The Best - Sixties Album - CD01 (9)
The Creation / 100 Hits - The Best - Sixties Album - CD01 (10)
The End / 100 Hits - The Best - Sixties Album - CD01 (11)
The Guess Who / 100 Hits - The Best - Sixties Album - CD01 (12)
The Gun / 100 Hits - The Best - Sixties Album - CD01 (13)
The Herd / 100 Hits - The Best - Sixties Album - CD01 (14)
The Lemon Pipers / 100 Hits - The Best - Sixties Album - CD01 (15)
The Lovin' Spoonful / 100 Hits - The Best - Sixties Album - CD01 (16)
The Moody Blues / 100 Hits - The Best - Sixties Album - CD01 (17)
The Trashmen / 100 Hits - The Best - Sixties Album - CD01 (18)
The Yardbirds / 100 Hits - The Best - Sixties Album - CD01 (19)
Zager & Evans / 100 Hits - The Best - Sixties Album - CD01 (20)
––––––––––––––––––––––––––––––––––––––––

DR Peak RMS Duration Track
––––––––––––––––––––––––––––––––––––––––
DR9 -0.50 dB -13.75 dB 3:59 11-Summertime
DR11 -0.50 dB -14.14 dB 3:14 10-I'd Rather Go Blind
DR12 0.00 dB -13.31 dB 3:10 07-Albatross
DR8 -0.50 dB -10.85 dB 2:47 15-I'm Not Your Stepping Stone
DR9 -0.50 dB -12.08 dB 3:01 12-Evil Ways
DR9 -0.51 dB -11.66 dB 2:59 01-San Francisco (Be Sure To Wear Flowers In Your Hair)
DR7 -0.50 dB -9.18 dB 1:53 05-The Letter
DR9 -0.50 dB -10.36 dB 2:21 02-Mr. Tambourine Man
DR8 -0.50 dB -10.36 dB 3:10 16-Psychotic Reaction
DR8 -1.40 dB -10.07 dB 2:54 14-Painter Man
DR7 -0.50 dB -10.41 dB 2:41 17-Shades Of Orange
DR9 -0.50 dB -10.89 dB 2:41 06-Shakin' All Over
DR9 -0.50 dB -11.27 dB 3:34 19-Race With The Devil
DR6 -1.90 dB -9.22 dB 3:16 18-From The Underworld
DR8 -0.50 dB -10.99 dB 2:27 13-Green Tambourine
DR8 -2.00 dB -12.35 dB 2:40 04-Summer In The City
DR8 -0.50 dB -9.65 dB 3:12 03-Go Now
DR9 -0.80 dB -11.46 dB 2:15 20-Surfing Bird
DR8 -0.50 dB -10.24 dB 2:24 09-Over Under Sideways Down
DR8 -1.14 dB -10.65 dB 3:15 08-In The Year 2525 (Exordium & Terminus)
––––––––––––––––––––––––––––––––––––––––

Number of tracks: 20
Official DR value: DR8

Samplerate: 44100 Hz
Channels: 2
Bits per sample: 16
Bitrate: 876 kbps
Codec: FLAC
================================================================================

Exact Audio Copy V1.3 from 2. September 2016

EAC extraction logfile from 7. May 2018, 21:51

Various / 100 Hits - The Best - Sixties Album - CD02

Used drive : HL-DT-STDVDRAM GSA-E40N Adapter: 1 ID: 1

Read mode : Secure
Utilize accurate stream : Yes
Defeat audio cache : No
Make use of C2 pointers : Yes

Read offset correction : 667
Overread into Lead-In and Lead-Out : No
Fill up missing offset samples with silence : Yes
Delete leading and trailing silent blocks : No
Null samples used in CRC calculations : Yes
Used interface : Native Win32 interface for Win NT & 2000
Gap handling : Not detected, thus appended to previous track

Used output format : User Defined Encoder
Selected bitrate : 896 kBit/s
Quality : High
Add ID3 tag : No
Command line compressor : C:\Program Files (x86)\Exact Audio Copy\FLAC\FLAC.EXE
Additional command line options : -6 -V -T "ARTIST=%artist%" -T "TITLE=%title%" -T "ALBUM=%albumtitle%" -T "DATE=%year%" -T "TRACKNUMBER=%tracknr%" -T "GENRE=%genre%" -T "COMMENT=%comment%" -T "BAND=%albuminterpret%" -T "ALBUMARTIST=%albuminterpret%" -T "COMPOSER=%composer%" %haslyrics%–tag-from-file=LYRICS="%lyricsfile%"%haslyrics% -T "DISCNUMBER=%cdnumber%" -T "TOTALDISCS=%totalcds%" -T "TOTALTRACKS=%numtracks%" %hascover%–picture="%coverfile%"%hascover% %source% -o %dest%


TOC of the extracted CD

Track | Start | Length | Start sector | End sector
––––––––––––––––––––––––––––-
1 | 0:00.00 | 2:15.59 | 0 | 10183
2 | 2:15.59 | 2:50.46 | 10184 | 22979
3 | 5:06.30 | 2:29.59 | 22980 | 34213
4 | 7:36.14 | 2:15.29 | 34214 | 44367
5 | 9:51.43 | 2:20.65 | 44368 | 54932
6 | 12:12.33 | 3:12.56 | 54933 | 69388
7 | 15:25.14 | 2:20.60 | 69389 | 79948
8 | 17:45.74 | 2:16.57 | 79949 | 90205
9 | 20:02.56 | 3:52.54 | 90206 | 107659
10 | 23:55.35 | 2:50.55 | 107660 | 120464
11 | 26:46.15 | 2:58.43 | 120465 | 133857
12 | 29:44.58 | 2:41.30 | 133858 | 145962
13 | 32:26.13 | 2:28.03 | 145963 | 157065
14 | 34:54.16 | 2:27.73 | 157066 | 168163
15 | 37:22.14 | 3:07.00 | 168164 | 182188
16 | 40:29.14 | 2:40.72 | 182189 | 194260
17 | 43:10.11 | 2:21.40 | 194261 | 204875
18 | 45:31.51 | 1:59.65 | 204876 | 213865
19 | 47:31.41 | 2:37.27 | 213866 | 225667
20 | 50:08.68 | 2:43.05 | 225668 | 237897


Track 1

Filename A:\PsPBuRnOuT's MUSIC\100 HITS\- 100 HITS - THE BEST -\100 HITS - THE BEST - SIXTIES ALBUM\100 HITS - THE BEST - SIXTIES ALBUM - CD02\01.Del Shannon - Runaway.wav

Peak level 70.2 %
Extraction speed 17.7 X
Track quality 100.0 %
Copy CRC 259C909B
Track not present in AccurateRip database
Copy OK

Track 2

Filename A:\PsPBuRnOuT's MUSIC\100 HITS\- 100 HITS - THE BEST -\100 HITS - THE BEST - SIXTIES ALBUM\100 HITS - THE BEST - SIXTIES ALBUM - CD02\02.The Archies - Sugar Sugar.wav

Peak level 94.3 %
Extraction speed 19.2 X
Track quality 100.0 %
Copy CRC 96F1BFDC
Track not present in AccurateRip database
Copy OK

Track 3

Filename A:\PsPBuRnOuT's MUSIC\100 HITS\- 100 HITS - THE BEST -\100 HITS - THE BEST - SIXTIES ALBUM\100 HITS - THE BEST - SIXTIES ALBUM - CD02\03.Chris Montez - Let's Dance.wav

Peak level 85.1 %
Extraction speed 15.1 X
Track quality 99.8 %
Copy CRC 417B78FC
Track not present in AccurateRip database
Copy OK

Track 4

Filename A:\PsPBuRnOuT's MUSIC\100 HITS\- 100 HITS - THE BEST -\100 HITS - THE BEST - SIXTIES ALBUM\100 HITS - THE BEST - SIXTIES ALBUM - CD02\04.1910 Fruitgum Company - Simon Says.wav

Peak level 71.7 %
Extraction speed 15.2 X
Track quality 100.0 %
Copy CRC 297DBDB5
Track not present in AccurateRip database
Copy OK

Track 5

Filename A:\PsPBuRnOuT's MUSIC\100 HITS\- 100 HITS - THE BEST -\100 HITS - THE BEST - SIXTIES ALBUM\100 HITS - THE BEST - SIXTIES ALBUM - CD02\05.Ohio Express - Yummy Yummy Yummy.wav

Peak level 85.1 %
Extraction speed 22.2 X
Track quality 100.0 %
Copy CRC 1C97811D
Track not present in AccurateRip database
Copy OK

Track 6

Filename A:\PsPBuRnOuT's MUSIC\100 HITS\- 100 HITS - THE BEST -\100 HITS - THE BEST - SIXTIES ALBUM\100 HITS - THE BEST - SIXTIES ALBUM - CD02\06.Gary Puckett & The Union Gap - Young Girl.wav

Peak level 85.1 %
Extraction speed 21.0 X
Track quality 100.0 %
Copy CRC A32AC9A1
Track not present in AccurateRip database
Copy OK

Track 7

Filename A:\PsPBuRnOuT's MUSIC\100 HITS\- 100 HITS - THE BEST -\100 HITS - THE BEST - SIXTIES ALBUM\100 HITS - THE BEST - SIXTIES ALBUM - CD02\07.Bruce Channel - Hey Baby.wav

Peak level 94.3 %
Extraction speed 20.6 X
Track quality 100.0 %
Copy CRC FDB22541
Track not present in AccurateRip database
Copy OK

Track 8

Filename A:\PsPBuRnOuT's MUSIC\100 HITS\- 100 HITS - THE BEST -\100 HITS - THE BEST - SIXTIES ALBUM\100 HITS - THE BEST - SIXTIES ALBUM - CD02\08.Neil Sedaka - Breaking Up Is Hard To Do.wav

Peak level 85.1 %
Extraction speed 25.3 X
Track quality 100.0 %
Copy CRC 207FCF68
Track not present in AccurateRip database
Copy OK

Track 9

Filename A:\PsPBuRnOuT's MUSIC\100 HITS\- 100 HITS - THE BEST -\100 HITS - THE BEST - SIXTIES ALBUM\100 HITS - THE BEST - SIXTIES ALBUM - CD02\09.The McCoys - Hang On Sloopy.wav

Peak level 94.3 %
Extraction speed 26.4 X
Track quality 100.0 %
Copy CRC 523B4F59
Track not present in AccurateRip database
Copy OK

Track 10

Filename A:\PsPBuRnOuT's MUSIC\100 HITS\- 100 HITS - THE BEST -\100 HITS - THE BEST - SIXTIES ALBUM\100 HITS - THE BEST - SIXTIES ALBUM - CD02\10.Lee Dorsey - Working In The Coal Mine.wav

Peak level 94.3 %
Extraction speed 23.6 X
Track quality 100.0 %
Copy CRC 1F51BDD8
Track not present in AccurateRip database
Copy OK

Track 11

Filename A:\PsPBuRnOuT's MUSIC\100 HITS\- 100 HITS - THE BEST -\100 HITS - THE BEST - SIXTIES ALBUM\100 HITS - THE BEST - SIXTIES ALBUM - CD02\11.Clodagh Rodgers - Goodnight Midnight.wav

Peak level 94.3 %
Extraction speed 28.1 X
Track quality 100.0 %
Copy CRC 43EA03E2
Track not present in AccurateRip database
Copy OK

Track 12

Filename A:\PsPBuRnOuT's MUSIC\100 HITS\- 100 HITS - THE BEST -\100 HITS - THE BEST - SIXTIES ALBUM\100 HITS - THE BEST - SIXTIES ALBUM - CD02\12.The Tokens - The Lion Sleeps Tonight (Wimoweh).wav

Peak level 94.3 %
Extraction speed 24.5 X
Track quality 100.0 %
Copy CRC DB5BCC37
Track not present in AccurateRip database
Copy OK

Track 13

Filename A:\PsPBuRnOuT's MUSIC\100 HITS\- 100 HITS - THE BEST -\100 HITS - THE BEST - SIXTIES ALBUM\100 HITS - THE BEST - SIXTIES ALBUM - CD02\13.Reparata & The Delrons - Captain Of Your Ship.wav

Peak level 91.0 %
Extraction speed 24.2 X
Track quality 100.0 %
Copy CRC 48820247
Track not present in AccurateRip database
Copy OK

Track 14

Filename A:\PsPBuRnOuT's MUSIC\100 HITS\- 100 HITS - THE BEST -\100 HITS - THE BEST - SIXTIES ALBUM\100 HITS - THE BEST - SIXTIES ALBUM - CD02\14.Little Peggy March - I Will Follow Him.wav

Peak level 94.3 %
Extraction speed 29.9 X
Track quality 100.0 %
Copy CRC 51FD4D28
Track not present in AccurateRip database
Copy OK

Track 15

Filename A:\PsPBuRnOuT's MUSIC\100 HITS\- 100 HITS - THE BEST -\100 HITS - THE BEST - SIXTIES ALBUM\100 HITS - THE BEST - SIXTIES ALBUM - CD02\15.Vanity Fare - Hitchin' A Ride.wav

Peak level 87.9 %
Extraction speed 27.1 X
Track quality 100.0 %
Copy CRC 44C0F8F7
Track not present in AccurateRip database
Copy OK

Track 16

Filename A:\PsPBuRnOuT's MUSIC\100 HITS\- 100 HITS - THE BEST -\100 HITS - THE BEST - SIXTIES ALBUM\100 HITS - THE BEST - SIXTIES ALBUM - CD02\16.Lou Christie - I'm Gonna Make You Mine.wav

Peak level 85.1 %
Extraction speed 31.4 X
Track quality 100.0 %
Copy CRC 2B912EB4
Track not present in AccurateRip database
Copy OK

Track 17

Filename A:\PsPBuRnOuT's MUSIC\100 HITS\- 100 HITS - THE BEST -\100 HITS - THE BEST - SIXTIES ALBUM\100 HITS - THE BEST - SIXTIES ALBUM - CD02\17.Sly & The Family Stone - Everyday People.wav

Peak level 94.3 %
Extraction speed 33.7 X
Track quality 100.0 %
Copy CRC 3C669F90
Track not present in AccurateRip database
Copy OK

Track 18

Filename A:\PsPBuRnOuT's MUSIC\100 HITS\- 100 HITS - THE BEST -\100 HITS - THE BEST - SIXTIES ALBUM\100 HITS - THE BEST - SIXTIES ALBUM - CD02\18.The Delfonics - Ready Or Not Here I Come (Can't Hide From Love).wav

Peak level 71.6 %
Extraction speed 33.7 X
Track quality 100.0 %
Copy CRC B37049A6
Track not present in AccurateRip database
Copy OK

Track 19

Filename A:\PsPBuRnOuT's MUSIC\100 HITS\- 100 HITS - THE BEST -\100 HITS - THE BEST - SIXTIES ALBUM\100 HITS - THE BEST - SIXTIES ALBUM - CD02\19.The 5th Dimension - Up-Up And Away.wav

Peak level 94.3 %
Extraction speed 28.1 X
Track quality 100.0 %
Copy CRC EA2282FB
Track not present in AccurateRip database
Copy OK

Track 20

Filename A:\PsPBuRnOuT's MUSIC\100 HITS\- 100 HITS - THE BEST -\100 HITS - THE BEST - SIXTIES ALBUM\100 HITS - THE BEST - SIXTIES ALBUM - CD02\20.Johnny Nash - Hold Me Tight.wav

Peak level 94.3 %
Extraction speed 28.1 X
Track quality 100.0 %
Copy CRC 4949F67E
Track not present in AccurateRip database
Copy OK


None of the tracks are present in the AccurateRip database

No errors occurred

End of status report

–– CUETools DB Plugin V2.1.6

[CTDB TOCID: Ycdv.26LB2tqBZ164FmvOpPHeIg-] found
Submit result: Ycdv.26LB2tqBZ164FmvOpPHeIg- has been confirmed
Track | CTDB Status
1 | (11/11) Accurately ripped
2 | (11/11) Accurately ripped
3 | (11/11) Accurately ripped
4 | (11/11) Accurately ripped
5 | (11/11) Accurately ripped
6 | (11/11) Accurately ripped
7 | (11/11) Accurately ripped
8 | (11/11) Accurately ripped
9 | (11/11) Accurately ripped
10 | (11/11) Accurately ripped
11 | (11/11) Accurately ripped
12 | (11/11) Accurately ripped
13 | (11/11) Accurately ripped
14 | (11/11) Accurately ripped
15 | (11/11) Accurately ripped
16 | (11/11) Accurately ripped
17 | (11/11) Accurately ripped
18 | (11/11) Accurately ripped
19 | (11/11) Accurately ripped
20 | (11/11) Accurately ripped

––––––––––––––––––––––––––––––––––––––––
Analyzed: 1910 Fruitgum Company / 100 Hits - The Best - Sixties Album - CD02 (1)
Bruce Channel / 100 Hits - The Best - Sixties Album - CD02 (2)
Chris Montez / 100 Hits - The Best - Sixties Album - CD02 (3)
Clodagh Rodgers / 100 Hits - The Best - Sixties Album - CD02 (4)
Del Shannon / 100 Hits - The Best - Sixties Album - CD02 (5)
Gary Puckett & The Union Gap / 100 Hits - The Best - Sixties Album - CD02 (6)
Johnny Nash / 100 Hits - The Best - Sixties Album - CD02 (7)
Lee Dorsey / 100 Hits - The Best - Sixties Album - CD02 (8)
Little Peggy March / 100 Hits - The Best - Sixties Album - CD02 (9)
Lou Christie / 100 Hits - The Best - Sixties Album - CD02 (10)
Neil Sedaka / 100 Hits - The Best - Sixties Album - CD02 (11)
Ohio Express / 100 Hits - The Best - Sixties Album - CD02 (12)
Reparata & The Delrons / 100 Hits - The Best - Sixties Album - CD02 (13)
Sly & The Family Stone / 100 Hits - The Best - Sixties Album - CD02 (14)
The 5th Dimension / 100 Hits - The Best - Sixties Album - CD02 (15)
The Archies / 100 Hits - The Best - Sixties Album - CD02 (16)
The Delfonics / 100 Hits - The Best - Sixties Album - CD02 (17)
The McCoys / 100 Hits - The Best - Sixties Album - CD02 (18)
The Tokens / 100 Hits - The Best - Sixties Album - CD02 (19)
Vanity Fare / 100 Hits - The Best - Sixties Album - CD02 (20)
––––––––––––––––––––––––––––––––––––––––

DR Peak RMS Duration Track
––––––––––––––––––––––––––––––––––––––––
DR7 -2.88 dB -11.25 dB 2:15 04-Simon Says
DR7 -0.50 dB -10.03 dB 2:21 07-Hey Baby
DR10 -1.40 dB -12.93 dB 2:30 03-Let's Dance
DR8 -0.50 dB -11.20 dB 2:59 11-Goodnight Midnight
DR6 -3.07 dB -10.92 dB 2:16 01-Runaway
DR9 -1.40 dB -11.92 dB 3:13 06-Young Girl
DR9 -0.50 dB -11.68 dB 2:43 20-Hold Me Tight
DR10 -0.50 dB -11.92 dB 2:51 10-Working In The Coal Mine
DR10 -0.50 dB -12.82 dB 2:28 14-I Will Follow Him
DR8 -1.40 dB -10.42 dB 2:41 16-I'm Gonna Make You Mine
DR8 -1.40 dB -11.87 dB 2:17 08-Breaking Up Is Hard To Do
DR9 -1.40 dB -11.51 dB 2:21 05-Yummy Yummy Yummy
DR9 -0.82 dB -11.98 dB 2:28 13-Captain Of Your Ship
DR8 -0.50 dB -10.98 dB 2:22 17-Everyday People
DR10 -0.50 dB -13.62 dB 2:37 19-Up-Up And Away
DR10 -0.50 dB -12.10 dB 2:51 02-Sugar Sugar
DR7 -2.90 dB -11.57 dB 2:00 18-Ready Or Not Here I Come (Can't Hide From Love)
DR10 -0.50 dB -12.61 dB 3:53 09-Hang On Sloopy
DR7 -0.50 dB -10.04 dB 2:41 12-The Lion Sleeps Tonight (Wimoweh)
DR8 -1.12 dB -10.79 dB 3:07 15-Hitchin' A Ride
––––––––––––––––––––––––––––––––––––––––

Number of tracks: 20
Official DR value: DR9

Samplerate: 44100 Hz
Channels: 2
Bits per sample: 16
Bitrate: 772 kbps
Codec: FLAC
================================================================================

Exact Audio Copy V1.3 from 2. September 2016

EAC extraction logfile from 7. May 2018, 22:22

Various / 100 Hits - The Best - Sixties Album - CD03

Used drive : HL-DT-STDVDRAM GSA-E40N Adapter: 1 ID: 1

Read mode : Secure
Utilize accurate stream : Yes
Defeat audio cache : No
Make use of C2 pointers : Yes

Read offset correction : 667
Overread into Lead-In and Lead-Out : No
Fill up missing offset samples with silence : Yes
Delete leading and trailing silent blocks : No
Null samples used in CRC calculations : Yes
Used interface : Native Win32 interface for Win NT & 2000
Gap handling : Not detected, thus appended to previous track

Used output format : User Defined Encoder
Selected bitrate : 896 kBit/s
Quality : High
Add ID3 tag : No
Command line compressor : C:\Program Files (x86)\Exact Audio Copy\FLAC\FLAC.EXE
Additional command line options : -6 -V -T "ARTIST=%artist%" -T "TITLE=%title%" -T "ALBUM=%albumtitle%" -T "DATE=%year%" -T "TRACKNUMBER=%tracknr%" -T "GENRE=%genre%" -T "COMMENT=%comment%" -T "BAND=%albuminterpret%" -T "ALBUMARTIST=%albuminterpret%" -T "COMPOSER=%composer%" %haslyrics%–tag-from-file=LYRICS="%lyricsfile%"%haslyrics% -T "DISCNUMBER=%cdnumber%" -T "TOTALDISCS=%totalcds%" -T "TOTALTRACKS=%numtracks%" %hascover%–picture="%coverfile%"%hascover% %source% -o %dest%


TOC of the extracted CD

Track | Start | Length | Start sector | End sector
––––––––––––––––––––––––––––-
1 | 0:00.00 | 2:31.52 | 0 | 11376
2 | 2:31.52 | 2:41.56 | 11377 | 23507
3 | 5:13.33 | 2:15.72 | 23508 | 33704
4 | 7:29.30 | 2:57.49 | 33705 | 47028
5 | 10:27.04 | 2:42.28 | 47029 | 59206
6 | 13:09.32 | 2:35.21 | 59207 | 70852
7 | 15:44.53 | 3:01.21 | 70853 | 84448
8 | 18:45.74 | 2:50.02 | 84449 | 97200
9 | 21:36.01 | 2:37.68 | 97201 | 109043
10 | 24:13.69 | 2:25.50 | 109044 | 119968
11 | 26:39.44 | 2:43.41 | 119969 | 132234
12 | 29:23.10 | 2:46.25 | 132235 | 144709
13 | 32:09.35 | 2:53.70 | 144710 | 157754
14 | 35:03.30 | 3:37.20 | 157755 | 174049
15 | 38:40.50 | 2:37.06 | 174050 | 185830
16 | 41:17.56 | 3:46.72 | 185831 | 202852
17 | 45:04.53 | 2:20.60 | 202853 | 213412
18 | 47:25.38 | 2:08.33 | 213413 | 223045
19 | 49:33.71 | 2:40.34 | 223046 | 235079
20 | 52:14.30 | 2:57.27 | 235080 | 248381


Track 1

Filename A:\PsPBuRnOuT's MUSIC\100 HITS\- 100 HITS - THE BEST -\100 HITS - THE BEST - SIXTIES ALBUM\100 HITS - THE BEST - SIXTIES ALBUM - CD03\01.Andy Williams - Music To Watch Girls By.wav

Peak level 94.3 %
Extraction speed 8.6 X
Track quality 99.8 %
Copy CRC 08112490
Track not present in AccurateRip database
Copy OK

Track 2

Filename A:\PsPBuRnOuT's MUSIC\100 HITS\- 100 HITS - THE BEST -\100 HITS - THE BEST - SIXTIES ALBUM\100 HITS - THE BEST - SIXTIES ALBUM - CD03\02.Harry Nilsson - Everybody's Talkin' (From ''Midnight Cowboy'').wav

Peak level 94.3 %
Extraction speed 9.9 X
Track quality 100.0 %
Copy CRC C3E552B7
Track not present in AccurateRip database
Copy OK

Track 3

Filename A:\PsPBuRnOuT's MUSIC\100 HITS\- 100 HITS - THE BEST -\100 HITS - THE BEST - SIXTIES ALBUM\100 HITS - THE BEST - SIXTIES ALBUM - CD03\03.Tony Bennett - The Good Life.wav

Peak level 94.3 %
Extraction speed 10.6 X
Track quality 100.0 %
Copy CRC 6CE81990
Track not present in AccurateRip database
Copy OK

Track 4

Filename A:\PsPBuRnOuT's MUSIC\100 HITS\- 100 HITS - THE BEST -\100 HITS - THE BEST - SIXTIES ALBUM\100 HITS - THE BEST - SIXTIES ALBUM - CD03\04.Aretha Franklin - My Guy.wav

Peak level 94.3 %
Extraction speed 11.5 X
Track quality 100.0 %
Copy CRC 8F948908
Track not present in AccurateRip database
Copy OK

Track 5

Filename A:\PsPBuRnOuT's MUSIC\100 HITS\- 100 HITS - THE BEST -\100 HITS - THE BEST - SIXTIES ALBUM\100 HITS - THE BEST - SIXTIES ALBUM - CD03\05.Nina Simone - To Love Somebody.wav

Peak level 94.3 %
Extraction speed 12.0 X
Track quality 100.0 %
Copy CRC 5DCDB3C8
Track not present in AccurateRip database
Copy OK

Track 6

Filename A:\PsPBuRnOuT's MUSIC\100 HITS\- 100 HITS - THE BEST -\100 HITS - THE BEST - SIXTIES ALBUM\100 HITS - THE BEST - SIXTIES ALBUM - CD03\06.Doris Day - Move Over Darling.wav

Peak level 88.0 %
Extraction speed 14.4 X
Track quality 100.0 %
Copy CRC B0EBC70D
Track not present in AccurateRip database
Copy OK

Track 7

Filename A:\PsPBuRnOuT's MUSIC\100 HITS\- 100 HITS - THE BEST -\100 HITS - THE BEST - SIXTIES ALBUM\100 HITS - THE BEST - SIXTIES ALBUM - CD03\07.Anita Harris - Dream A Little Dream Of Me.wav

Peak level 94.3 %
Extraction speed 13.4 X
Track quality 100.0 %
Copy CRC 5D572E52
Track not present in AccurateRip database
Copy OK

Track 8

Filename A:\PsPBuRnOuT's MUSIC\100 HITS\- 100 HITS - THE BEST -\100 HITS - THE BEST - SIXTIES ALBUM\100 HITS - THE BEST - SIXTIES ALBUM - CD03\08.Bobby Vinton - Blue Velvet.wav

Peak level 94.3 %
Extraction speed 13.7 X
Track quality 100.0 %
Copy CRC 18DA77CF
Track not present in AccurateRip database
Copy OK

Track 9

Filename A:\PsPBuRnOuT's MUSIC\100 HITS\- 100 HITS - THE BEST -\100 HITS - THE BEST - SIXTIES ALBUM\100 HITS - THE BEST - SIXTIES ALBUM - CD03\09.Skeeter Davis - The End Of The World.wav

Peak level 94.3 %
Extraction speed 14.0 X
Track quality 100.0 %
Copy CRC 32B4CD62
Track not present in AccurateRip database
Copy OK

Track 10

Filename A:\PsPBuRnOuT's MUSIC\100 HITS\- 100 HITS - THE BEST -\100 HITS - THE BEST - SIXTIES ALBUM\100 HITS - THE BEST - SIXTIES ALBUM - CD03\10.Percy Faith & His Orchestra - Theme From ''A Summer Place''.wav

Peak level 94.3 %
Extraction speed 16.7 X
Track quality 100.0 %
Copy CRC 1B127066
Track not present in AccurateRip database
Copy OK

Track 11

Filename A:\PsPBuRnOuT's MUSIC\100 HITS\- 100 HITS - THE BEST -\100 HITS - THE BEST - SIXTIES ALBUM\100 HITS - THE BEST - SIXTIES ALBUM - CD03\11.Henry Mancini - Moon River (From ''Breakfast At Tiffany's'').wav

Peak level 94.3 %
Extraction speed 17.4 X
Track quality 100.0 %
Copy CRC F420544E
Track not present in AccurateRip database
Copy OK

Track 12

Filename A:\PsPBuRnOuT's MUSIC\100 HITS\- 100 HITS - THE BEST -\100 HITS - THE BEST - SIXTIES ALBUM\100 HITS - THE BEST - SIXTIES ALBUM - CD03\12.Gary Puckett & The Union Gap - Lady Willpower.wav

Peak level 94.3 %
Extraction speed 14.2 X
Track quality 99.8 %
Copy CRC BE51018A
Track not present in AccurateRip database
Copy OK

Track 13

Filename A:\PsPBuRnOuT's MUSIC\100 HITS\- 100 HITS - THE BEST -\100 HITS - THE BEST - SIXTIES ALBUM\100 HITS - THE BEST - SIXTIES ALBUM - CD03\13.The Dave Brubeck Quartet - Take Five.wav

Peak level 94.3 %
Extraction speed 15.4 X
Track quality 100.0 %
Copy CRC F62BC11C
Track not present in AccurateRip database
Copy OK

Track 14

Filename A:\PsPBuRnOuT's MUSIC\100 HITS\- 100 HITS - THE BEST -\100 HITS - THE BEST - SIXTIES ALBUM\100 HITS - THE BEST - SIXTIES ALBUM - CD03\14.Buddy Greco - The Lady Is A Tramp.wav

Peak level 94.3 %
Extraction speed 17.1 X
Track quality 100.0 %
Copy CRC 2E866475
Track not present in AccurateRip database
Copy OK

Track 15

Filename A:\PsPBuRnOuT's MUSIC\100 HITS\- 100 HITS - THE BEST -\100 HITS - THE BEST - SIXTIES ALBUM\100 HITS - THE BEST - SIXTIES ALBUM - CD03\15.Ramsey Lewis - The ''In'' Crowd.wav

Peak level 94.3 %
Extraction speed 15.2 X
Track quality 99.8 %
Copy CRC 4A416B5A
Track not present in AccurateRip database
Copy OK

Track 16

Filename A:\PsPBuRnOuT's MUSIC\100 HITS\- 100 HITS - THE BEST -\100 HITS - THE BEST - SIXTIES ALBUM\100 HITS - THE BEST - SIXTIES ALBUM - CD03\16.Johnny Cash - A Boy Named Sue.wav

Peak level 94.3 %
Extraction speed 19.5 X
Track quality 100.0 %
Copy CRC 192AE62A
Track not present in AccurateRip database
Copy OK

Track 17

Filename A:\PsPBuRnOuT's MUSIC\100 HITS\- 100 HITS - THE BEST -\100 HITS - THE BEST - SIXTIES ALBUM\100 HITS - THE BEST - SIXTIES ALBUM - CD03\17.Jim Reeves - He'll Have To Go.wav

Peak level 94.3 %
Extraction speed 17.5 X
Track quality 100.0 %
Copy CRC B9FE5B4A
Track not present in AccurateRip database
Copy OK

Track 18

Filename A:\PsPBuRnOuT's MUSIC\100 HITS\- 100 HITS - THE BEST -\100 HITS - THE BEST - SIXTIES ALBUM\100 HITS - THE BEST - SIXTIES ALBUM - CD03\18.Perry Como - Caterina.wav

Peak level 94.3 %
Extraction speed 20.7 X
Track quality 100.0 %
Copy CRC E6C56000
Track not present in AccurateRip database
Copy OK

Track 19

Filename A:\PsPBuRnOuT's MUSIC\100 HITS\- 100 HITS - THE BEST -\100 HITS - THE BEST - SIXTIES ALBUM\100 HITS - THE BEST - SIXTIES ALBUM - CD03\19.Duane Eddy - (Dance With The) Guitar Man.wav

Peak level 76.2 %
Extraction speed 18.4 X
Track quality 100.0 %
Copy CRC B14820B7
Track not present in AccurateRip database
Copy OK

Track 20

Filename A:\PsPBuRnOuT's MUSIC\100 HITS\- 100 HITS - THE BEST -\100 HITS - THE BEST - SIXTIES ALBUM\100 HITS - THE BEST - SIXTIES ALBUM - CD03\20.Mike Berry - Tribute To Buddy Holly.wav

Peak level 100.0 %
Extraction speed 19.6 X
Track quality 100.0 %
Copy CRC 7D37A20E
Track not present in AccurateRip database
Copy OK


None of the tracks are present in the AccurateRip database

No errors occurred

End of status report

–– CUETools DB Plugin V2.1.6

[CTDB TOCID: jWUI2WPTQZ0glFlhxzdeOJlkOSY-] found
Submit result: jWUI2WPTQZ0glFlhxzdeOJlkOSY- has been confirmed
Track | CTDB Status
1 | (12/12) Accurately ripped
2 | (12/12) Accurately ripped
3 | (12/12) Accurately ripped
4 | (12/12) Accurately ripped
5 | (12/12) Accurately ripped
6 | (12/12) Accurately ripped
7 | (12/12) Accurately ripped
8 | (12/12) Accurately ripped
9 | (12/12) Accurately ripped
10 | (12/12) Accurately ripped
11 | (12/12) Accurately ripped
12 | (12/12) Accurately ripped
13 | (12/12) Accurately ripped
14 | (12/12) Accurately ripped
15 | (12/12) Accurately ripped
16 | (12/12) Accurately ripped
17 | (12/12) Accurately ripped
18 | (12/12) Accurately ripped
19 | (12/12) Accurately ripped
20 | (12/12) Accurately ripped

––––––––––––––––––––––––––––––––––––––––
Analyzed: Andy Williams / 100 Hits - The Best - Sixties Album - CD03 (1)
Anita Harris / 100 Hits - The Best - Sixties Album - CD03 (2)
Aretha Franklin / 100 Hits - The Best - Sixties Album - CD03 (3)
Bobby Vinton / 100 Hits - The Best - Sixties Album - CD03 (4)
Buddy Greco / 100 Hits - The Best - Sixties Album - CD03 (5)
Doris Day / 100 Hits - The Best - Sixties Album - CD03 (6)
Duane Eddy / 100 Hits - The Best - Sixties Album - CD03 (7)
Gary Puckett & The Union Gap / 100 Hits - The Best - Sixties Album - CD03 (8)
Harry Nilsson / 100 Hits - The Best - Sixties Album - CD03 (9)
Henry Mancini / 100 Hits - The Best - Sixties Album - CD03 (10)
Jim Reeves / 100 Hits - The Best - Sixties Album - CD03 (11)
Johnny Cash / 100 Hits - The Best - Sixties Album - CD03 (12)
Mike Berry / 100 Hits - The Best - Sixties Album - CD03 (13)
Nina Simone / 100 Hits - The Best - Sixties Album - CD03 (14)
Percy Faith & His Orchestra / 100 Hits - The Best - Sixties Album - CD03 (15)
Perry Como / 100 Hits - The Best - Sixties Album - CD03 (16)
Ramsey Lewis / 100 Hits - The Best - Sixties Album - CD03 (17)
Skeeter Davis / 100 Hits - The Best - Sixties Album - CD03 (18)
The Dave Brubeck Quartet / 100 Hits - The Best - Sixties Album - CD03 (19)
Tony Bennett / 100 Hits - The Best - Sixties Album - CD03 (20)
––––––––––––––––––––––––––––––––––––––––

DR Peak RMS Duration Track
––––––––––––––––––––––––––––––––––––––––
DR9 -0.50 dB -10.83 dB 2:32 01-Music To Watch Girls By
DR8 -0.50 dB -11.17 dB 3:01 07-Dream A Little Dream Of Me
DR8 -0.50 dB -10.38 dB 2:58 04-My Guy
DR8 -0.50 dB -11.00 dB 2:50 08-Blue Velvet
DR9 -0.50 dB -11.60 dB 3:37 14-The Lady Is A Tramp
DR8 -1.10 dB -10.31 dB 2:35 06-Move Over Darling
DR8 -2.35 dB -11.65 dB 2:40 19-(Dance With The) Guitar Man
DR8 -0.50 dB -10.83 dB 2:46 12-Lady Willpower
DR7 -0.50 dB -10.60 dB 2:42 02-Everybody's Talkin' (From ''Midnight Cowboy'')
DR8 -0.50 dB -11.09 dB 2:44 11-Moon River (From ''Breakfast At Tiffany's'')
DR10 -0.50 dB -11.83 dB 2:21 17-He'll Have To Go
DR10 -0.50 dB -12.51 dB 3:47 16-A Boy Named Sue
DR10 0.00 dB -11.53 dB 2:57 20-Tribute To Buddy Holly
DR8 -0.50 dB -11.06 dB 2:42 05-To Love Somebody
DR10 -0.50 dB -12.16 dB 2:26 10-Theme From ''A Summer Place''
DR7 -0.50 dB -9.02 dB 2:08 18-Caterina
DR12 -0.50 dB -13.25 dB 2:37 15-The ''In'' Crowd
DR9 -0.50 dB -11.15 dB 2:38 09-The End Of The World
DR9 -0.50 dB -11.98 dB 2:54 13-Take Five
DR8 -0.50 dB -11.21 dB 2:16 03-The Good Life
––––––––––––––––––––––––––––––––––––––––

Number of tracks: 20
Official DR value: DR9

Samplerate: 44100 Hz
Channels: 2
Bits per sample: 16
Bitrate: 865 kbps
Codec: FLAC
================================================================================

Exact Audio Copy V1.3 from 2. September 2016

EAC extraction logfile from 7. May 2018, 22:50

Various / 100 Hits - The Best - Sixties Album - CD04

Used drive : HL-DT-STDVDRAM GSA-E40N Adapter: 1 ID: 1

Read mode : Secure
Utilize accurate stream : Yes
Defeat audio cache : No
Make use of C2 pointers : Yes

Read offset correction : 667
Overread into Lead-In and Lead-Out : No
Fill up missing offset samples with silence : Yes
Delete leading and trailing silent blocks : No
Null samples used in CRC calculations : Yes
Used interface : Native Win32 interface for Win NT & 2000
Gap handling : Not detected, thus appended to previous track

Used output format : User Defined Encoder
Selected bitrate : 896 kBit/s
Quality : High
Add ID3 tag : No
Command line compressor : C:\Program Files (x86)\Exact Audio Copy\FLAC\FLAC.EXE
Additional command line options : -6 -V -T "ARTIST=%artist%" -T "TITLE=%title%" -T "ALBUM=%albumtitle%" -T "DATE=%year%" -T "TRACKNUMBER=%tracknr%" -T "GENRE=%genre%" -T "COMMENT=%comment%" -T "BAND=%albuminterpret%" -T "ALBUMARTIST=%albuminterpret%" -T "COMPOSER=%composer%" %haslyrics%–tag-from-file=LYRICS="%lyricsfile%"%haslyrics% -T "DISCNUMBER=%cdnumber%" -T "TOTALDISCS=%totalcds%" -T "TOTALTRACKS=%numtracks%" %hascover%–picture="%coverfile%"%hascover% %source% -o %dest%


TOC of the extracted CD

Track | Start | Length | Start sector | End sector
––––––––––––––––––––––––––––-
1 | 0:00.00 | 2:58.34 | 0 | 13383
2 | 2:58.34 | 2:35.59 | 13384 | 25067
3 | 5:34.18 | 2:23.48 | 25068 | 35840
4 | 7:57.66 | 2:10.20 | 35841 | 45610
5 | 10:08.11 | 3:23.14 | 45611 | 60849
6 | 13:31.25 | 2:48.17 | 60850 | 73466
7 | 16:19.42 | 2:31.01 | 73467 | 84792
8 | 18:50.43 | 2:53.61 | 84793 | 97828
9 | 21:44.29 | 3:53.46 | 97829 | 115349
10 | 25:38.00 | 2:31.00 | 115350 | 126674
11 | 28:09.00 | 2:39.68 | 126675 | 138667
12 | 30:48.68 | 2:36.35 | 138668 | 150402
13 | 33:25.28 | 3:26.42 | 150403 | 165894
14 | 36:51.70 | 3:14.04 | 165895 | 180448
15 | 40:05.74 | 3:35.60 | 180449 | 196633
16 | 43:41.59 | 2:52.37 | 196634 | 209570
17 | 46:34.21 | 3:30.23 | 209571 | 225343
18 | 50:04.44 | 2:38.73 | 225344 | 237266
19 | 52:43.42 | 2:39.00 | 237267 | 249191
20 | 55:22.42 | 4:06.08 | 249192 | 267649


Track 1

Filename A:\PsPBuRnOuT's MUSIC\100 HITS\- 100 HITS - THE BEST -\100 HITS - THE BEST - SIXTIES ALBUM\100 HITS - THE BEST - SIXTIES ALBUM - CD04\01.Sly & The Family Stone - Dance To The Music.wav

Peak level 94.3 %
Extraction speed 14.0 X
Track quality 99.8 %
Copy CRC BF623619
Track not present in AccurateRip database
Copy OK

Track 2

Filename A:\PsPBuRnOuT's MUSIC\100 HITS\- 100 HITS - THE BEST -\100 HITS - THE BEST - SIXTIES ALBUM\100 HITS - THE BEST - SIXTIES ALBUM - CD04\02.Erma Franklin - Piece Of My Heart.wav

Peak level 100.0 %
Extraction speed 14.7 X
Track quality 100.0 %
Copy CRC F48EBE48
Track not present in AccurateRip database
Copy OK

Track 3

Filename A:\PsPBuRnOuT's MUSIC\100 HITS\- 100 HITS - THE BEST -\100 HITS - THE BEST - SIXTIES ALBUM\100 HITS - THE BEST - SIXTIES ALBUM - CD04\03.Aretha Franklin - The Shoop Shoop Song.wav

Peak level 94.3 %
Extraction speed 17.7 X
Track quality 100.0 %
Copy CRC 55AB78F3
Track not present in AccurateRip database
Copy OK

Track 4

Filename A:\PsPBuRnOuT's MUSIC\100 HITS\- 100 HITS - THE BEST -\100 HITS - THE BEST - SIXTIES ALBUM\100 HITS - THE BEST - SIXTIES ALBUM - CD04\04.Nina Simone - Ain't Got No - I Got Life (From ''Hair'').wav

Peak level 85.1 %
Extraction speed 18.0 X
Track quality 100.0 %
Copy CRC 7D27DB60
Track not present in AccurateRip database
Copy OK

Track 5

Filename A:\PsPBuRnOuT's MUSIC\100 HITS\- 100 HITS - THE BEST -\100 HITS - THE BEST - SIXTIES ALBUM\100 HITS - THE BEST - SIXTIES ALBUM - CD04\05.The Delfonics - Didn't I (Blow Your Mind This Time).wav

Peak level 94.3 %
Extraction speed 20.4 X
Track quality 100.0 %
Copy CRC B8CFB7FE
Track not present in AccurateRip database
Copy OK

Track 6

Filename A:\PsPBuRnOuT's MUSIC\100 HITS\- 100 HITS - THE BEST -\100 HITS - THE BEST - SIXTIES ALBUM\100 HITS - THE BEST - SIXTIES ALBUM - CD04\06.The Isley Brothers - It's Your Thing.wav

Peak level 85.1 %
Extraction speed 17.9 X
Track quality 99.8 %
Copy CRC C601ADD9
Track not present in AccurateRip database
Copy OK

Track 7

Filename A:\PsPBuRnOuT's MUSIC\100 HITS\- 100 HITS - THE BEST -\100 HITS - THE BEST - SIXTIES ALBUM\100 HITS - THE BEST - SIXTIES ALBUM - CD04\07.Laura Greene - Moonlight Music And You.wav

Peak level 94.3 %
Extraction speed 18.0 X
Track quality 100.0 %
Copy CRC DF1F4A09
Track not present in AccurateRip database
Copy OK

Track 8

Filename A:\PsPBuRnOuT's MUSIC\100 HITS\- 100 HITS - THE BEST -\100 HITS - THE BEST - SIXTIES ALBUM\100 HITS - THE BEST - SIXTIES ALBUM - CD04\08.Dobie Gray - Out On The Floor.wav

Peak level 94.3 %
Extraction speed 22.7 X
Track quality 100.0 %
Copy CRC 7B813798
Track not present in AccurateRip database
Copy OK

Track 9

Filename A:\PsPBuRnOuT's MUSIC\100 HITS\- 100 HITS - THE BEST -\100 HITS - THE BEST - SIXTIES ALBUM\100 HITS - THE BEST - SIXTIES ALBUM - CD04\09.The Fifth Dimension - Aquarius - Let The Sunshine In (The Flesh Failures).wav

Peak level 70.1 %
Extraction speed 28.3 X
Track quality 100.0 %
Copy CRC F0B6EC56
Track not present in AccurateRip database
Copy OK

Track 10

Filename A:\PsPBuRnOuT's MUSIC\100 HITS\- 100 HITS - THE BEST -\100 HITS - THE BEST - SIXTIES ALBUM\100 HITS - THE BEST - SIXTIES ALBUM - CD04\10.The Capitols - Cool Jerk.wav

Peak level 94.3 %
Extraction speed 24.3 X
Track quality 100.0 %
Copy CRC 6733F2ED
Track not present in AccurateRip database
Copy OK

Track 11

Filename A:\PsPBuRnOuT's MUSIC\100 HITS\- 100 HITS - THE BEST -\100 HITS - THE BEST - SIXTIES ALBUM\100 HITS - THE BEST - SIXTIES ALBUM - CD04\11.Neil Christian - That's Nice.wav

Peak level 94.3 %
Extraction speed 24.1 X
Track quality 100.0 %
Copy CRC 98B0D8D5
Track not present in AccurateRip database
Copy OK

Track 12

Filename A:\PsPBuRnOuT's MUSIC\100 HITS\- 100 HITS - THE BEST -\100 HITS - THE BEST - SIXTIES ALBUM\100 HITS - THE BEST - SIXTIES ALBUM - CD04\12.Clodagh Rodgers - Come Back And Shake Me.wav

Peak level 85.1 %
Extraction speed 21.4 X
Track quality 99.8 %
Copy CRC 58626533
Track not present in AccurateRip database
Copy OK

Track 13

Filename A:\PsPBuRnOuT's MUSIC\100 HITS\- 100 HITS - THE BEST -\100 HITS - THE BEST - SIXTIES ALBUM\100 HITS - THE BEST - SIXTIES ALBUM - CD04\13.Johnny Nash - Cupid.wav

Peak level 94.3 %
Extraction speed 25.9 X
Track quality 100.0 %
Copy CRC F4EBE739
Track not present in AccurateRip database
Copy OK

Track 14

Filename A:\PsPBuRnOuT's MUSIC\100 HITS\- 100 HITS - THE BEST -\100 HITS - THE BEST - SIXTIES ALBUM\100 HITS - THE BEST - SIXTIES ALBUM - CD04\14.Andy Williams - Can't Take My Eyes Off You.wav

Peak level 94.3 %
Extraction speed 24.3 X
Track quality 99.8 %
Copy CRC 0996A564
Track not present in AccurateRip database
Copy OK

Track 15

Filename A:\PsPBuRnOuT's MUSIC\100 HITS\- 100 HITS - THE BEST -\100 HITS - THE BEST - SIXTIES ALBUM\100 HITS - THE BEST - SIXTIES ALBUM - CD04\15.Jose Feliciano - Light My Fire.wav

Peak level 94.3 %
Extraction speed 27.9 X
Track quality 100.0 %
Copy CRC F08DAEDE
Track not present in AccurateRip database
Copy OK

Track 16

Filename A:\PsPBuRnOuT's MUSIC\100 HITS\- 100 HITS - THE BEST -\100 HITS - THE BEST - SIXTIES ALBUM\100 HITS - THE BEST - SIXTIES ALBUM - CD04\16.Tony Bennett - (I Left My Heart) In San Francisco.wav

Peak level 99.9 %
Extraction speed 33.6 X
Track quality 100.0 %
Copy CRC 33117DF0
Track not present in AccurateRip database
Copy OK

Track 17

Filename A:\PsPBuRnOuT's MUSIC\100 HITS\- 100 HITS - THE BEST -\100 HITS - THE BEST - SIXTIES ALBUM\100 HITS - THE BEST - SIXTIES ALBUM - CD04\17.Blood, Sweat & Tears - You've Made Me So Very Happy.wav

Peak level 94.3 %
Extraction speed 26.5 X
Track quality 99.8 %
Copy CRC E5EF0E83
Track not present in AccurateRip database
Copy OK

Track 18

Filename A:\PsPBuRnOuT's MUSIC\100 HITS\- 100 HITS - THE BEST -\100 HITS - THE BEST - SIXTIES ALBUM\100 HITS - THE BEST - SIXTIES ALBUM - CD04\18.Bobby Vinton - Roses Are Red (My Love).wav

Peak level 89.1 %
Extraction speed 23.9 X
Track quality 100.0 %
Copy CRC DA4C0BC2
Track not present in AccurateRip database
Copy OK

Track 19

Filename A:\PsPBuRnOuT's MUSIC\100 HITS\- 100 HITS - THE BEST -\100 HITS - THE BEST - SIXTIES ALBUM\100 HITS - THE BEST - SIXTIES ALBUM - CD04\19.Neil Sedaka - Calendar Girl.wav

Peak level 79.4 %
Extraction speed 24.1 X
Track quality 99.8 %
Copy CRC 9A5A043A
Track not present in AccurateRip database
Copy OK

Track 20

Filename A:\PsPBuRnOuT's MUSIC\100 HITS\- 100 HITS - THE BEST -\100 HITS - THE BEST - SIXTIES ALBUM\100 HITS - THE BEST - SIXTIES ALBUM - CD04\20.Family Dogg - A Way Of Life.wav

Peak level 74.1 %
Extraction speed 30.2 X
Track quality 100.0 %
Copy CRC 3FE33B9D
Track not present in AccurateRip database
Copy OK


None of the tracks are present in the AccurateRip database

No errors occurred

End of status report

–– CUETools DB Plugin V2.1.6

[CTDB TOCID: 0ZkWKv.fVxlosiPedP1iJc3jbSQ-] found
Submit result: 0ZkWKv.fVxlosiPedP1iJc3jbSQ- has been confirmed
Track | CTDB Status
1 | (11/11) Accurately ripped
2 | (11/11) Accurately ripped
3 | (11/11) Accurately ripped
4 | (11/11) Accurately ripped
5 | (11/11) Accurately ripped
6 | (11/11) Accurately ripped
7 | (11/11) Accurately ripped
8 | (11/11) Accurately ripped
9 | (11/11) Accurately ripped
10 | (11/11) Accurately ripped
11 | (11/11) Accurately ripped
12 | (11/11) Accurately ripped
13 | (11/11) Accurately ripped
14 | (11/11) Accurately ripped
15 | (11/11) Accurately ripped
16 | (11/11) Accurately ripped
17 | (11/11) Accurately ripped
18 | (11/11) Accurately ripped
19 | (11/11) Accurately ripped
20 | (11/11) Accurately ripped

––––––––––––––––––––––––––––––––––––––––
Analyzed: Andy Williams / 100 Hits - The Best - Sixties Album - CD04 (1)
Aretha Franklin / 100 Hits - The Best - Sixties Album - CD04 (2)
Blood, Sweat & Tears / 100 Hits - The Best - Sixties Album - CD04 (3)
Bobby Vinton / 100 Hits - The Best - Sixties Album - CD04 (4)
Clodagh Rodgers / 100 Hits - The Best - Sixties Album - CD04 (5)
Dobie Gray / 100 Hits - The Best - Sixties Album - CD04 (6)
Erma Franklin / 100 Hits - The Best - Sixties Album - CD04 (7)
Family Dogg / 100 Hits - The Best - Sixties Album - CD04 (8)
Johnny Nash / 100 Hits - The Best - Sixties Album - CD04 (9)
Jose Feliciano / 100 Hits - The Best - Sixties Album - CD04 (10)
Laura Greene / 100 Hits - The Best - Sixties Album - CD04 (11)
Neil Christian / 100 Hits - The Best - Sixties Album - CD04 (12)
Neil Sedaka / 100 Hits - The Best - Sixties Album - CD04 (13)
Nina Simone / 100 Hits - The Best - Sixties Album - CD04 (14)
Sly & The Family Stone / 100 Hits - The Best - Sixties Album - CD04 (15)
The Capitols / 100 Hits - The Best - Sixties Album - CD04 (16)
The Delfonics / 100 Hits - The Best - Sixties Album - CD04 (17)
The Fifth Dimension / 100 Hits - The Best - Sixties Album - CD04 (18)
The Isley Brothers / 100 Hits - The Best - Sixties Album - CD04 (19)
Tony Bennett / 100 Hits - The Best - Sixties Album - CD04 (20)
––––––––––––––––––––––––––––––––––––––––

DR Peak RMS Duration Track
––––––––––––––––––––––––––––––––––––––––
DR10 -0.50 dB -12.68 dB 3:14 14-Can't Take My Eyes Off You
DR9 -0.50 dB -11.24 dB 2:24 03-The Shoop Shoop Song
DR10 -0.50 dB -12.67 dB 3:30 17-You've Made Me So Very Happy
DR8 -1.00 dB -11.47 dB 2:39 18-Roses Are Red (My Love)
DR8 -1.40 dB -11.90 dB 2:36 12-Come Back And Shake Me
DR9 -0.50 dB -10.31 dB 2:54 08-Out On The Floor
DR9 0.00 dB -10.92 dB 2:36 02-Piece Of My Heart
DR8 -2.60 dB -12.35 dB 4:06 20-A Way Of Life
DR9 -0.50 dB -12.04 dB 3:27 13-Cupid
DR9 -0.50 dB -12.86 dB 3:36 15-Light My Fire
DR9 -0.50 dB -12.38 dB 2:31 07-Moonlight Music And You
DR9 -0.50 dB -11.10 dB 2:40 11-That's Nice
DR7 -2.00 dB -10.58 dB 2:39 19-Calendar Girl
DR9 -1.40 dB -11.66 dB 2:10 04-Ain't Got No - I Got Life (From ''Hair'')
DR9 -0.50 dB -11.19 dB 2:58 01-Dance To The Music
DR10 -0.50 dB -12.68 dB 2:31 10-Cool Jerk
DR9 -0.50 dB -12.02 dB 3:23 05-Didn't I (Blow Your Mind This Time)
DR6 -3.08 dB -11.21 dB 3:54 09-Aquarius - Let The Sunshine In (The Flesh Failures)
DR10 -1.40 dB -12.56 dB 2:48 06-It's Your Thing
DR8 0.00 dB -10.99 dB 2:52 16-(I Left My Heart) In San Francisco
––––––––––––––––––––––––––––––––––––––––

Number of tracks: 20
Official DR value: DR9

Samplerate: 44100 Hz
Channels: 2
Bits per sample: 16
Bitrate: 801 kbps
Codec: FLAC
================================================================================

Exact Audio Copy V1.3 from 2. September 2016

EAC extraction logfile from 8. May 2018, 3:28

Various / 100 Hits - The Best - Sixties Album - CD05

Used drive : HL-DT-STDVDRAM GSA-E40N Adapter: 1 ID: 1

Read mode : Secure
Utilize accurate stream : Yes
Defeat audio cache : No
Make use of C2 pointers : Yes

Read offset correction : 667
Overread into Lead-In and Lead-Out : No
Fill up missing offset samples with silence : Yes
Delete leading and trailing silent blocks : No
Null samples used in CRC calculations : Yes
Used interface : Native Win32 interface for Win NT & 2000
Gap handling : Not detected, thus appended to previous track

Used output format : User Defined Encoder
Selected bitrate : 896 kBit/s
Quality : High
Add ID3 tag : No
Command line compressor : C:\Program Files (x86)\Exact Audio Copy\FLAC\FLAC.EXE
Additional command line options : -6 -V -T "ARTIST=%artist%" -T "TITLE=%title%" -T "ALBUM=%albumtitle%" -T "DATE=%year%" -T "TRACKNUMBER=%tracknr%" -T "GENRE=%genre%" -T "COMMENT=%comment%" -T "BAND=%albuminterpret%" -T "ALBUMARTIST=%albuminterpret%" -T "COMPOSER=%composer%" %haslyrics%–tag-from-file=LYRICS="%lyricsfile%"%haslyrics% -T "DISCNUMBER=%cdnumber%" -T "TOTALDISCS=%totalcds%" -T "TOTALTRACKS=%numtracks%" %hascover%–picture="%coverfile%"%hascover% %source% -o %dest%


TOC of the extracted CD

Track | Start | Length | Start sector | End sector
––––––––––––––––––––––––––––-
1 | 0:00.00 | 2:36.36 | 0 | 11735
2 | 2:36.36 | 2:39.33 | 11736 | 23693
3 | 5:15.69 | 3:50.62 | 23694 | 41005
4 | 9:06.56 | 3:02.58 | 41006 | 54713
5 | 12:09.39 | 2:57.66 | 54714 | 68054
6 | 15:07.30 | 2:06.16 | 68055 | 77520
7 | 17:13.46 | 2:34.18 | 77521 | 89088
8 | 19:47.64 | 4:32.03 | 89089 | 109491
9 | 24:19.67 | 2:21.19 | 109492 | 120085
10 | 26:41.11 | 2:21.71 | 120086 | 130731
11 | 29:03.07 | 3:01.53 | 130732 | 144359
12 | 32:04.60 | 3:34.50 | 144360 | 160459
13 | 35:39.35 | 2:52.71 | 160460 | 173430
14 | 38:32.31 | 2:15.52 | 173431 | 183607
15 | 40:48.08 | 2:45.74 | 183608 | 196056
16 | 43:34.07 | 3:09.28 | 196057 | 210259
17 | 46:43.35 | 2:20.06 | 210260 | 220765
18 | 49:03.41 | 2:52.02 | 220766 | 233667
19 | 51:55.43 | 2:41.02 | 233668 | 245744
20 | 54:36.45 | 2:17.30 | 245745 | 256049


Track 1

Filename A:\PsPBuRnOuT's MUSIC\100 HITS\- 100 HITS - THE BEST -\100 HITS - THE BEST - SIXTIES ALBUM\100 HITS - THE BEST - SIXTIES ALBUM - CD05\01.Johnny Cash - Ring Of Fire.wav

Peak level 94.3 %
Extraction speed 14.7 X
Track quality 99.8 %
Copy CRC 8AC35F87
Track not present in AccurateRip database
Copy OK

Track 2

Filename A:\PsPBuRnOuT's MUSIC\100 HITS\- 100 HITS - THE BEST -\100 HITS - THE BEST - SIXTIES ALBUM\100 HITS - THE BEST - SIXTIES ALBUM - CD05\02.Tammy Wynette - Stand By Your Man.wav

Peak level 73.2 %
Extraction speed 19.0 X
Track quality 100.0 %
Copy CRC 30F6C9CD
Track not present in AccurateRip database
Copy OK

Track 3

Filename A:\PsPBuRnOuT's MUSIC\100 HITS\- 100 HITS - THE BEST -\100 HITS - THE BEST - SIXTIES ALBUM\100 HITS - THE BEST - SIXTIES ALBUM - CD05\03.The Byrds - Turn! Turn! Turn! (To Everything There Is A Season).wav

Peak level 94.3 %
Extraction speed 21.4 X
Track quality 100.0 %
Copy CRC 618F3996
Track not present in AccurateRip database
Copy OK

Track 4

Filename A:\PsPBuRnOuT's MUSIC\100 HITS\- 100 HITS - THE BEST -\100 HITS - THE BEST - SIXTIES ALBUM\100 HITS - THE BEST - SIXTIES ALBUM - CD05\04.The Box Tops - Neon Rainbow.wav

Peak level 94.3 %
Extraction speed 19.8 X
Track quality 100.0 %
Copy CRC F24801ED
Track not present in AccurateRip database
Copy OK

Track 5

Filename A:\PsPBuRnOuT's MUSIC\100 HITS\- 100 HITS - THE BEST -\100 HITS - THE BEST - SIXTIES ALBUM\100 HITS - THE BEST - SIXTIES ALBUM - CD05\05.The Creation - Making Time.wav

Peak level 74.8 %
Extraction speed 23.6 X
Track quality 100.0 %
Copy CRC D6001FB7
Track not present in AccurateRip database
Copy OK

Track 6

Filename A:\PsPBuRnOuT's MUSIC\100 HITS\- 100 HITS - THE BEST -\100 HITS - THE BEST - SIXTIES ALBUM\100 HITS - THE BEST - SIXTIES ALBUM - CD05\06.The Lovin' Spoonful - Do You Believe In Magic.wav

Peak level 91.1 %
Extraction speed 19.4 X
Track quality 99.8 %
Copy CRC 39FCBC2E
Track not present in AccurateRip database
Copy OK

Track 7

Filename A:\PsPBuRnOuT's MUSIC\100 HITS\- 100 HITS - THE BEST -\100 HITS - THE BEST - SIXTIES ALBUM\100 HITS - THE BEST - SIXTIES ALBUM - CD05\07.Big Brother & The Holding Company Ft. Janis Joplin - Call On Me.wav

Peak level 94.3 %
Extraction speed 19.9 X
Track quality 99.8 %
Copy CRC A0586CDB
Track not present in AccurateRip database
Copy OK

Track 8

Filename A:\PsPBuRnOuT's MUSIC\100 HITS\- 100 HITS - THE BEST -\100 HITS - THE BEST - SIXTIES ALBUM\100 HITS - THE BEST - SIXTIES ALBUM - CD05\08.Kris Kristofferson - Sunday Morning Comin' Down.wav

Peak level 94.3 %
Extraction speed 24.6 X
Track quality 100.0 %
Copy CRC A6AE72FE
Track not present in AccurateRip database
Copy OK

Track 9

Filename A:\PsPBuRnOuT's MUSIC\100 HITS\- 100 HITS - THE BEST -\100 HITS - THE BEST - SIXTIES ALBUM\100 HITS - THE BEST - SIXTIES ALBUM - CD05\09.Bobby Darin - If I Were A Carpenter.wav

Peak level 89.1 %
Extraction speed 28.1 X
Track quality 100.0 %
Copy CRC FF70B2B8
Track not present in AccurateRip database
Copy OK

Track 10

Filename A:\PsPBuRnOuT's MUSIC\100 HITS\- 100 HITS - THE BEST -\100 HITS - THE BEST - SIXTIES ALBUM\100 HITS - THE BEST - SIXTIES ALBUM - CD05\10.Perry Como - Delaware.wav

Peak level 94.3 %
Extraction speed 24.5 X
Track quality 100.0 %
Copy CRC E881FE3E
Track not present in AccurateRip database
Copy OK

Track 11

Filename A:\PsPBuRnOuT's MUSIC\100 HITS\- 100 HITS - THE BEST -\100 HITS - THE BEST - SIXTIES ALBUM\100 HITS - THE BEST - SIXTIES ALBUM - CD05\11.Jimmy Dean - Big Bad John.wav

Peak level 94.3 %
Extraction speed 30.0 X
Track quality 100.0 %
Copy CRC 6C3C852C
Track not present in AccurateRip database
Copy OK

Track 12

Filename A:\PsPBuRnOuT's MUSIC\100 HITS\- 100 HITS - THE BEST -\100 HITS - THE BEST - SIXTIES ALBUM\100 HITS - THE BEST - SIXTIES ALBUM - CD05\12.Johnny Mathis - Misty.wav

Peak level 91.1 %
Extraction speed 27.4 X
Track quality 100.0 %
Copy CRC 2A09CC17
Track not present in AccurateRip database
Copy OK

Track 13

Filename A:\PsPBuRnOuT's MUSIC\100 HITS\- 100 HITS - THE BEST -\100 HITS - THE BEST - SIXTIES ALBUM\100 HITS - THE BEST - SIXTIES ALBUM - CD05\13.Jim Reeves - Distant Drums.wav

Peak level 94.3 %
Extraction speed 26.6 X
Track quality 100.0 %
Copy CRC 26B2BC40
Track not present in AccurateRip database
Copy OK

Track 14

Filename A:\PsPBuRnOuT's MUSIC\100 HITS\- 100 HITS - THE BEST -\100 HITS - THE BEST - SIXTIES ALBUM\100 HITS - THE BEST - SIXTIES ALBUM - CD05\14.Unit Four Plus Two - Concrete And Clay.wav

Peak level 79.4 %
Extraction speed 26.2 X
Track quality 100.0 %
Copy CRC 1CFC25B8
Track not present in AccurateRip database
Copy OK

Track 15

Filename A:\PsPBuRnOuT's MUSIC\100 HITS\- 100 HITS - THE BEST -\100 HITS - THE BEST - SIXTIES ALBUM\100 HITS - THE BEST - SIXTIES ALBUM - CD05\15.Hugo Montenegro & His Orchestra & Chorus - The Good, The Bad And The Ugly.wav

Peak level 94.3 %
Extraction speed 28.3 X
Track quality 100.0 %
Copy CRC BB884483
Track not present in AccurateRip database
Copy OK

Track 16

Filename A:\PsPBuRnOuT's MUSIC\100 HITS\- 100 HITS - THE BEST -\100 HITS - THE BEST - SIXTIES ALBUM\100 HITS - THE BEST - SIXTIES ALBUM - CD05\16.Georgie Fame - The Ballad Of Bonnie & Clyde.wav

Peak level 94.3 %
Extraction speed 34.0 X
Track quality 100.0 %
Copy CRC B4296466
Track not present in AccurateRip database
Copy OK

Track 17

Filename A:\PsPBuRnOuT's MUSIC\100 HITS\- 100 HITS - THE BEST -\100 HITS - THE BEST - SIXTIES ALBUM\100 HITS - THE BEST - SIXTIES ALBUM - CD05\17.The Statler Brothers - Flowers On The Wall.wav

Peak level 94.3 %
Extraction speed 28.1 X
Track quality 100.0 %
Copy CRC A3AF2B6F
Track not present in AccurateRip database
Copy OK

Track 18

Filename A:\PsPBuRnOuT's MUSIC\100 HITS\- 100 HITS - THE BEST -\100 HITS - THE BEST - SIXTIES ALBUM\100 HITS - THE BEST - SIXTIES ALBUM - CD05\18.Marty Robbins - Devil Woman.wav

Peak level 94.3 %
Extraction speed 29.1 X
Track quality 100.0 %
Copy CRC 58B6D7E8
Track not present in AccurateRip database
Copy OK

Track 19

Filename A:\PsPBuRnOuT's MUSIC\100 HITS\- 100 HITS - THE BEST -\100 HITS - THE BEST - SIXTIES ALBUM\100 HITS - THE BEST - SIXTIES ALBUM - CD05\19.Crispian St. Peters - You Were On My Mind.wav

Peak level 94.3 %
Extraction speed 36.7 X
Track quality 100.0 %
Copy CRC 341CCC69
Track not present in AccurateRip database
Copy OK

Track 20

Filename A:\PsPBuRnOuT's MUSIC\100 HITS\- 100 HITS - THE BEST -\100 HITS - THE BEST - SIXTIES ALBUM\100 HITS - THE BEST - SIXTIES ALBUM - CD05\20.Harry Nilsson - Without Her.wav

Peak level 94.3 %
Extraction speed 36.6 X
Track quality 100.0 %
Copy CRC 048A3E1A
Track not present in AccurateRip database
Copy OK


None of the tracks are present in the AccurateRip database

No errors occurred

End of status report

–– CUETools DB Plugin V2.1.6

[CTDB TOCID: Z.QDvlLYkN2V1Nfjp__Tpjh.7lA-] found
Submit result: Z.QDvlLYkN2V1Nfjp__Tpjh.7lA- has been confirmed
Track | CTDB Status
1 | (11/11) Accurately ripped
2 | (11/11) Accurately ripped
3 | (11/11) Accurately ripped
4 | (11/11) Accurately ripped
5 | (11/11) Accurately ripped
6 | (11/11) Accurately ripped
7 | (11/11) Accurately ripped
8 | (11/11) Accurately ripped
9 | (11/11) Accurately ripped
10 | (11/11) Accurately ripped
11 | (11/11) Accurately ripped
12 | (11/11) Accurately ripped
13 | (11/11) Accurately ripped
14 | (11/11) Accurately ripped
15 | (11/11) Accurately ripped
16 | (11/11) Accurately ripped
17 | (11/11) Accurately ripped
18 | (11/11) Accurately ripped
19 | (11/11) Accurately ripped
20 | (11/11) Accurately ripped

––––––––––––––––––––––––––––––––––––––––
Analyzed: Big Brother & The Holding Company Ft. Janis Joplin / 100 Hits - The Best - Sixties Album - CD05 (1)
Bobby Darin / 100 Hits - The Best - Sixties Album - CD05 (2)
Crispian St. Peters / 100 Hits - The Best - Sixties Album - CD05 (3)
Georgie Fame / 100 Hits - The Best - Sixties Album - CD05 (4)
Harry Nilsson / 100 Hits - The Best - Sixties Album - CD05 (5)
Hugo Montenegro & His Orchestra & Chorus / 100 Hits - The Best - Sixties Album - CD05 (6)
Jim Reeves / 100 Hits - The Best - Sixties Album - CD05 (7)
Jimmy Dean / 100 Hits - The Best - Sixties Album - CD05 (8)
Johnny Cash / 100 Hits - The Best - Sixties Album - CD05 (9)
Johnny Mathis / 100 Hits - The Best - Sixties Album - CD05 (10)
Kris Kristofferson / 100 Hits - The Best - Sixties Album - CD05 (11)
Marty Robbins / 100 Hits - The Best - Sixties Album - CD05 (12)
Perry Como / 100 Hits - The Best - Sixties Album - CD05 (13)
Tammy Wynette / 100 Hits - The Best - Sixties Album - CD05 (14)
The Box Tops / 100 Hits - The Best - Sixties Album - CD05 (15)
The Byrds / 100 Hits - The Best - Sixties Album - CD05 (16)
The Creation / 100 Hits - The Best - Sixties Album - CD05 (17)
The Lovin' Spoonful / 100 Hits - The Best - Sixties Album - CD05 (18)
The Statler Brothers / 100 Hits - The Best - Sixties Album - CD05 (19)
Unit Four Plus Two / 100 Hits - The Best - Sixties Album - CD05 (20)
––––––––––––––––––––––––––––––––––––––––

DR Peak RMS Duration Track
––––––––––––––––––––––––––––––––––––––––
DR10 -0.50 dB -12.91 dB 2:34 07-Call On Me
DR9 -1.00 dB -12.47 dB 2:21 09-If I Were A Carpenter
DR9 -0.50 dB -12.53 dB 2:41 19-You Were On My Mind
DR8 -0.50 dB -10.80 dB 3:09 16-The Ballad Of Bonnie & Clyde
DR10 -0.50 dB -12.09 dB 2:17 20-Without Her
DR8 -0.50 dB -11.54 dB 2:46 15-The Good, The Bad And The Ugly
DR8 -0.50 dB -10.39 dB 2:53 13-Distant Drums
DR9 -0.50 dB -11.28 dB 3:02 11-Big Bad John
DR9 -0.50 dB -10.87 dB 2:36 01-Ring Of Fire
DR8 -0.80 dB -10.98 dB 3:35 12-Misty
DR10 -0.50 dB -13.79 dB 4:32 08-Sunday Morning Comin' Down
DR9 -0.50 dB -10.73 dB 2:52 18-Devil Woman
DR9 -0.50 dB -11.24 dB 2:22 10-Delaware
DR8 -2.70 dB -13.19 dB 2:39 02-Stand By Your Man
DR8 -0.50 dB -11.44 dB 3:03 04-Neon Rainbow
DR9 -0.50 dB -11.84 dB 3:51 03-Turn! Turn! Turn! (To Everything There Is A Season)
DR7 -2.52 dB -10.44 dB 2:58 05-Making Time
DR9 -0.80 dB -12.37 dB 2:06 06-Do You Believe In Magic
DR8 -0.50 dB -9.90 dB 2:20 17-Flowers On The Wall
DR8 -2.00 dB -10.83 dB 2:16 14-Concrete And Clay
––––––––––––––––––––––––––––––––––––––––

Number of tracks: 20
Official DR value: DR9

Samplerate: 44100 Hz
Channels: 2
Bits per sample: 16
Bitrate: 500 kbps
Codec: FLAC
================================================================================

All thanks to PsPBuRnOuT

See also:
Various Artists - 100 Hits: The Best Eighties Album [5CD] (2017)

password: BlondStyle