Subcategories

Various Artists - The Rolling Stone Collection: 25 Years Of Essential Rock [7CD Box Set] (1993)

Posted By: BlondStyle
Various Artists - The Rolling Stone Collection: 25 Years Of Essential Rock [7CD Box Set] (1993)

Various Artists - The Rolling Stone Collection: 25 Years Of Essential Rock [7CD Box Set] (1993)
Pop/Rock, Classic Rock | EAC Rip | FLAC, Tracks+CUE+LOG+Scans (JPEG) | 07:47:47 h. | 3,09 Gb
Label: Time-Life Music/Sony Music Special Products (USA) | Cat.# R102-34 | Released: 1993
Various Artists - The Rolling Stone Collection: 25 Years Of Essential Rock [7CD Box Set] (1993)

This collection retailed for $100.00 when first released in 1993. There has never been a better collection of Rock Classics - probably never will be, what with the difficulties of gaining clearances and gathering the best materials. The seven CDs are divided into the years covered: 1967-69; 1969-70; 1971-73; 1973-77; 1977-82; 1982-86; 1986-92. Enclosed in each CD is a booklet with a capsule history of the music and a complete artist/title list. All of which contain from 15 to 17 tracks, for a total of 110.
~Review by J. Daniel Schick


Release of this 7CDs Set: 1993 [CDs Time-Life Music/Sony Music Special Products (USA), Cat.# R102-34]
℗ 1993 Sony Music Entertainment, Inc.
Manufactured for Time-Life Music by Sony Music Special Products, a Division of Sony Music Entertainment, Inc.
Made in USA

Various Artists - The Rolling Stone Collection: 25 Years Of Essential Rock [7CD Box Set] (1993)


CD1: 1967 - 1969

01. Bob Dylan - Like a Rolling Stone (06:09)
02. Buffalo Springfield - For What It's Worth (02:37)
03. Moby Grape - Omaha (02:22)
04. Quicksilver Messenger Service - Dino's Song (03:07)
05. Donovan - Season of the Witch (04:56)
06. The Doors - Crystal Ship (02:33)
07. The Jimi Hendrix Experience - Spanish Castle Magic (03:02)
08. Cream - Crossroads (04:12)
09. The Who - I Can See for Miles (04:07)
10. The Jimi Hendrix Experience - All Along the Watchtower (04:00)
11. Jeff Beck Group - Beck's Bolero (02:53)
12. Big Brother and the Holding Company - Piece of My Heart (04:14)
13. The Band - The Weight (04:36)
14. The Byrds - Wasn't Born to Follow (02:02)
15. Johnny Winter - Highway 61 Revisited (05:05)
16. Jefferson Airplane - Three Fifths of a Mile in Ten Seconds (04:45)
17. Traffic - Dear Mr. Fantasy (05:32)

Exact Audio Copy V1.0 beta 3 from 29. August 2011

EAC extraction logfile from 3. January 2015, 1:16

Various Artists / 25 Years of Essential Rock (1967-1969)

Used drive : PLEXTOR CD-R PX-W1610A Adapter: 1 ID: 1

Read mode : Secure
Utilize accurate stream : Yes
Defeat audio cache : Yes
Make use of C2 pointers : No

Read offset correction : 99
Overread into Lead-In and Lead-Out : No
Fill up missing offset samples with silence : Yes
Delete leading and trailing silent blocks : No
Null samples used in CRC calculations : Yes
Used interface : Native Win32 interface for Win NT & 2000
Gap handling : Appended to previous track

Used output format : User Defined Encoder
Selected bitrate : 1024 kBit/s
Quality : High
Add ID3 tag : No
Command line compressor : C:\Program Files\Exact Audio Copy\FLAC\FLAC.EXE
Additional command line options : -8 -V -T "ARTIST=%artist%" -T "TITLE=%title%" -T "ALBUM=%albumtitle%" -T "DATE=%year%" -T "TRACKNUMBER=%tracknr%" -T "GENRE=%genre%" -T "COMMENT=%comment%" %source% -o %dest%


TOC of the extracted CD

Track | Start | Length | Start sector | End sector
––––––––––––––––––––––––––––-
1 | 0:00.00 | 6:08.67 | 0 | 27666
2 | 6:08.67 | 2:37.23 | 27667 | 39464
3 | 8:46.15 | 2:22.27 | 39465 | 50141
4 | 11:08.42 | 3:07.23 | 50142 | 64189
5 | 14:15.65 | 4:56.00 | 64190 | 86389
6 | 19:11.65 | 2:32.67 | 86390 | 97856
7 | 21:44.57 | 3:01.48 | 97857 | 111479
8 | 24:46.30 | 4:12.35 | 111480 | 130414
9 | 28:58.65 | 4:06.50 | 130415 | 148914
10 | 33:05.40 | 4:00.30 | 148915 | 166944
11 | 37:05.70 | 2:53.05 | 166945 | 179924
12 | 39:59.00 | 4:14.07 | 179925 | 198981
13 | 44:13.07 | 4:36.18 | 198982 | 219699
14 | 48:49.25 | 2:02.15 | 219700 | 228864
15 | 50:51.40 | 5:05.27 | 228865 | 251766
16 | 55:56.67 | 4:45.18 | 251767 | 273159
17 | 60:42.10 | 5:32.12 | 273160 | 298071


Track 1

Filename F:\Various Artists - The Rolling Stone Collection, 25 Years of Essential Rock\1967-1969\01 - Like a Rolling Stone - Bob Dylan.wav

Pre-gap length 0:00:02.00

Peak level 75.9 %
Extraction speed 5.0 X
Track quality 100.0 %
Test CRC 312D0185
Copy CRC 312D0185
Accurately ripped (confidence 13) [2CC5CB09] (AR v2)
Copy OK

Track 2

Filename F:\Various Artists - The Rolling Stone Collection, 25 Years of Essential Rock\1967-1969\02 - For What It's Worth - Buffalo Springfield.wav

Pre-gap length 0:00:02.60

Peak level 100.0 %
Extraction speed 5.0 X
Track quality 100.0 %
Test CRC 8015DD4F
Copy CRC 8015DD4F
Accurately ripped (confidence 13) [903F0F0D] (AR v2)
Copy OK

Track 3

Filename F:\Various Artists - The Rolling Stone Collection, 25 Years of Essential Rock\1967-1969\03 - Omaha - Moby Grape.wav

Pre-gap length 0:00:02.60

Peak level 88.9 %
Extraction speed 5.1 X
Track quality 100.0 %
Test CRC FFAF1E66
Copy CRC FFAF1E66
Accurately ripped (confidence 13) [F16B9157] (AR v2)
Copy OK

Track 4

Filename F:\Various Artists - The Rolling Stone Collection, 25 Years of Essential Rock\1967-1969\04 - Dino's Song - Quicksilver Messenger Service.wav

Pre-gap length 0:00:02.62

Peak level 75.5 %
Extraction speed 5.6 X
Track quality 100.0 %
Test CRC 27DBB0B9
Copy CRC 27DBB0B9
Accurately ripped (confidence 13) [4B749826] (AR v2)
Copy OK

Track 5

Filename F:\Various Artists - The Rolling Stone Collection, 25 Years of Essential Rock\1967-1969\05 - Season of the Witch - Donovan.wav

Pre-gap length 0:00:02.63

Peak level 75.3 %
Extraction speed 6.3 X
Track quality 100.0 %
Test CRC 22980B6B
Copy CRC 22980B6B
Accurately ripped (confidence 13) [FA009E54] (AR v2)
Copy OK

Track 6

Filename F:\Various Artists - The Rolling Stone Collection, 25 Years of Essential Rock\1967-1969\06 - Crystal Ship - The Doors.wav

Pre-gap length 0:00:02.63

Peak level 91.8 %
Extraction speed 6.0 X
Track quality 100.0 %
Test CRC 0B84B723
Copy CRC 0B84B723
Accurately ripped (confidence 13) [5A1D6436] (AR v2)
Copy OK

Track 7

Filename F:\Various Artists - The Rolling Stone Collection, 25 Years of Essential Rock\1967-1969\07 - Spanish Castle Magic - The Jimi Hendrix Experience.wav

Pre-gap length 0:00:01.62

Peak level 66.5 %
Extraction speed 6.4 X
Track quality 100.0 %
Test CRC A72BAE4E
Copy CRC A72BAE4E
Accurately ripped (confidence 13) [2EDF7859] (AR v2)
Copy OK

Track 8

Filename F:\Various Artists - The Rolling Stone Collection, 25 Years of Essential Rock\1967-1969\08 - Crossroads - Cream.wav

Pre-gap length 0:00:02.63

Peak level 99.9 %
Extraction speed 6.9 X
Track quality 100.0 %
Test CRC A5782273
Copy CRC A5782273
Accurately ripped (confidence 13) [495B3221] (AR v2)
Copy OK

Track 9

Filename F:\Various Artists - The Rolling Stone Collection, 25 Years of Essential Rock\1967-1969\09 - I Can See for Miles - The Who.wav

Pre-gap length 0:00:02.63

Peak level 70.6 %
Extraction speed 5.9 X
Track quality 99.9 %
Test CRC 76A6E26A
Copy CRC 76A6E26A
Accurately ripped (confidence 13) [3D08091E] (AR v2)
Copy OK

Track 10

Filename F:\Various Artists - The Rolling Stone Collection, 25 Years of Essential Rock\1967-1969\10 - All Along the Watchtower - The Jimi Hendrix Experience.wav

Pre-gap length 0:00:02.63

Peak level 64.2 %
Extraction speed 7.3 X
Track quality 100.0 %
Test CRC 5AA262B1
Copy CRC 5AA262B1
Accurately ripped (confidence 13) [A754E7F7] (AR v2)
Copy OK

Track 11

Filename F:\Various Artists - The Rolling Stone Collection, 25 Years of Essential Rock\1967-1969\11 - Beck's Bolero - Jeff Beck Group.wav

Pre-gap length 0:00:02.63

Peak level 70.8 %
Extraction speed 7.1 X
Track quality 100.0 %
Test CRC 4FF9AA46
Copy CRC 4FF9AA46
Accurately ripped (confidence 13) [F10D3340] (AR v2)
Copy OK

Track 12

Filename F:\Various Artists - The Rolling Stone Collection, 25 Years of Essential Rock\1967-1969\12 - Piece of My Heart - Big Brother and the Holding Company.wav

Pre-gap length 0:00:02.63

Peak level 62.9 %
Extraction speed 7.7 X
Track quality 100.0 %
Test CRC ECE5E1B6
Copy CRC ECE5E1B6
Accurately ripped (confidence 13) [22B2C2E6] (AR v2)
Copy OK

Track 13

Filename F:\Various Artists - The Rolling Stone Collection, 25 Years of Essential Rock\1967-1969\13 - The Weight - The Band.wav

Pre-gap length 0:00:02.62

Peak level 100.0 %
Extraction speed 6.7 X
Track quality 99.9 %
Test CRC 7354C3D1
Copy CRC 7354C3D1
Accurately ripped (confidence 13) [D87137EB] (AR v2)
Copy OK

Track 14

Filename F:\Various Artists - The Rolling Stone Collection, 25 Years of Essential Rock\1967-1969\14 - Wasn't Born to Follow - The Byrds.wav

Pre-gap length 0:00:02.63

Peak level 71.8 %
Extraction speed 5.7 X
Track quality 100.0 %
Test CRC DFFADD5A
Copy CRC DFFADD5A
Accurately ripped (confidence 13) [E8B70579] (AR v2)
Copy OK

Track 15

Filename F:\Various Artists - The Rolling Stone Collection, 25 Years of Essential Rock\1967-1969\15 - Highway 61 Revisited - Johnny Winter.wav

Pre-gap length 0:00:02.65

Peak level 90.3 %
Extraction speed 8.0 X
Track quality 100.0 %
Test CRC FC72803E
Copy CRC FC72803E
Accurately ripped (confidence 13) [337A79E3] (AR v2)
Copy OK

Track 16

Filename F:\Various Artists - The Rolling Stone Collection, 25 Years of Essential Rock\1967-1969\16 - Three Fifths of a Mile in Ten Seconds - Jefferson Airplane.wav

Pre-gap length 0:00:02.55

Peak level 97.0 %
Extraction speed 8.1 X
Track quality 100.0 %
Test CRC FB2A89D8
Copy CRC FB2A89D8
Accurately ripped (confidence 12) [5E848B17] (AR v2)
Copy OK

Track 17

Filename F:\Various Artists - The Rolling Stone Collection, 25 Years of Essential Rock\1967-1969\17 - Dear Mr. Fantasy - Traffic.wav

Pre-gap length 0:00:02.65

Peak level 79.8 %
Extraction speed 8.0 X
Track quality 100.0 %
Test CRC D4052444
Copy CRC D4052444
Accurately ripped (confidence 11) [3E68A488] (AR v2)
Copy OK


All tracks accurately ripped

No errors occurred

End of status report

==== Log checksum 036F428580F4ECC99E03844AD5066F0BC4608847B1DC6F20117F0010F634B1CF ====

––––––––––––––––––––––––––––––––––––––––
Analyzed: Big Brother and the Holding Company / The Rolling Stone Collection: 25 Years of Essential Rock (1967-1969) (1)
Bob Dylan / The Rolling Stone Collection: 25 Years of Essential Rock (1967-1969) (2)
Buffalo Springfield / The Rolling Stone Collection: 25 Years of Essential Rock (1967-1969) (3)
Cream / The Rolling Stone Collection: 25 Years of Essential Rock (1967-1969) (4)
Donovan / The Rolling Stone Collection: 25 Years of Essential Rock (1967-1969) (5)
Jeff Beck Group / The Rolling Stone Collection: 25 Years of Essential Rock (1967-1969) (6)
Jefferson Airplane / The Rolling Stone Collection: 25 Years of Essential Rock (1967-1969) (7)
Johnny Winter / The Rolling Stone Collection: 25 Years of Essential Rock (1967-1969) (8)
Moby Grape / The Rolling Stone Collection: 25 Years of Essential Rock (1967-1969) (9)
Quicksilver Messenger Service / The Rolling Stone Collection: 25 Years of Essential Rock (1967-1969) (10)
The Band / The Rolling Stone Collection: 25 Years of Essential Rock (1967-1969) (11)
The Byrds / The Rolling Stone Collection: 25 Years of Essential Rock (1967-1969) (12)
The Doors / The Rolling Stone Collection: 25 Years of Essential Rock (1967-1969) (13)
The Jimi Hendrix Experience / The Rolling Stone Collection: 25 Years of Essential Rock (1967-1969) (14-15)
The Who / The Rolling Stone Collection: 25 Years of Essential Rock (1967-1969) (16)
Traffic / The Rolling Stone Collection: 25 Years of Essential Rock (1967-1969) (17)
––––––––––––––––––––––––––––––––––––––––

DR Peak RMS Duration Track
––––––––––––––––––––––––––––––––––––––––
DR11 -4.02 dB -16.36 dB 4:14 12-Piece of My Heart
DR10 -2.39 dB -14.55 dB 6:09 01-Like a Rolling Stone
DR14 0.00 dB -17.46 dB 2:37 02-For What It's Worth
DR12 0.00 dB -15.26 dB 4:12 08-Crossroads
DR13 -2.45 dB -20.07 dB 4:56 05-Season of the Witch
DR9 -2.99 dB -13.94 dB 2:53 11-Beck's Bolero
DR13 -0.26 dB -15.78 dB 4:45 16-Three Fifths of a Mile in Ten Seconds
DR11 -0.88 dB -14.63 dB 5:05 15-Highway 61 Revisited
DR11 -1.02 dB -15.76 dB 2:22 03-Omaha
DR12 -2.44 dB -16.79 dB 3:07 04-Dino's Song
DR15 0.00 dB -18.48 dB 4:36 13-The Weight
DR11 -2.87 dB -16.33 dB 2:02 14-Wasn't Born to Follow
DR12 -0.73 dB -15.55 dB 2:33 06-Crystal Ship
DR11 -3.53 dB -16.34 dB 3:02 07-Spanish Castle Magic
DR10 -3.84 dB -15.89 dB 4:00 10-All Along the Watchtower
DR9 -3.02 dB -14.83 dB 4:07 09-I Can See for Miles
DR11 -1.95 dB -16.70 dB 5:32 17-Dear Mr. Fantasy
––––––––––––––––––––––––––––––––––––––––

Number of tracks: 17
Official DR value: DR11

Samplerate: 44100 Hz
Channels: 2
Bits per sample: 16
Bitrate: 864 kbps
Codec: FLAC
================================================================================

Various Artists - The Rolling Stone Collection: 25 Years Of Essential Rock [7CD Box Set] (1993)


CD2: 1969 - 1970

01. MC5 - Kick Out the Jams (02:59)
02. Santana - Everybody's Everything (03:29)
03. The Steve Miller Band - My Dark Hour (03:08)
04. Neil Young - The Loner (03:53)
05. Bob Dylan - Lay Lady Lay (03:19)
06. Crosby, Stills, Nash & Young - Ohio (03:00)
07. Boz Scaggs - Loan Me a Dime (12:33)
08. The Jackson Five - I Want You Back (2:57)
09. Sly and the Family Stone - Thank You (Falletin Me Be Mice Elf Agin) (04:53)
10. John Lennon / Plastic Ono Band - Working Class Hero (03:51)
11. Creedence Clearwater Revival - Fortunate Son (02:21)
12. Eric Clapton - Blues Power (03:09)
13. Grateful Dead - Casey Jones (04:28)
14. The Allman Brothers Band - Dreams (07:18)
15. Led Zeppelin - Friends (03:54)

Exact Audio Copy V1.0 beta 3 from 29. August 2011

EAC extraction logfile from 3. January 2015, 1:51

Various Artists / 25 Years of Essential Rock (1969-1970)

Used drive : PLEXTOR CD-R PX-W1610A Adapter: 1 ID: 1

Read mode : Secure
Utilize accurate stream : Yes
Defeat audio cache : Yes
Make use of C2 pointers : No

Read offset correction : 99
Overread into Lead-In and Lead-Out : No
Fill up missing offset samples with silence : Yes
Delete leading and trailing silent blocks : No
Null samples used in CRC calculations : Yes
Used interface : Native Win32 interface for Win NT & 2000
Gap handling : Appended to previous track

Used output format : User Defined Encoder
Selected bitrate : 1024 kBit/s
Quality : High
Add ID3 tag : No
Command line compressor : C:\Program Files\Exact Audio Copy\FLAC\FLAC.EXE
Additional command line options : -8 -V -T "ARTIST=%artist%" -T "TITLE=%title%" -T "ALBUM=%albumtitle%" -T "DATE=%year%" -T "TRACKNUMBER=%tracknr%" -T "GENRE=%genre%" -T "COMMENT=%comment%" %source% -o %dest%


TOC of the extracted CD

Track | Start | Length | Start sector | End sector
––––––––––––––––––––––––––––-
1 | 0:00.00 | 2:58.55 | 0 | 13404
2 | 2:58.55 | 3:29.25 | 13405 | 29104
3 | 6:28.05 | 3:07.72 | 29105 | 43201
4 | 9:36.02 | 3:53.05 | 43202 | 60681
5 | 13:29.07 | 3:18.60 | 60682 | 75591
6 | 16:47.67 | 3:00.25 | 75592 | 89116
7 | 19:48.17 | 12:32.55 | 89117 | 145571
8 | 32:20.72 | 2:57.30 | 145572 | 158876
9 | 35:18.27 | 4:52.58 | 158877 | 180834
10 | 40:11.10 | 3:50.40 | 180835 | 198124
11 | 44:01.50 | 2:20.60 | 198125 | 208684
12 | 46:22.35 | 3:08.57 | 208685 | 222841
13 | 49:31.17 | 4:27.38 | 222842 | 242904
14 | 53:58.55 | 7:18.07 | 242905 | 275761
15 | 61:16.62 | 3:53.73 | 275762 | 293309


Track 1

Filename F:\Various Artists - The Rolling Stone Collection, 25 Years of Essential Rock\1969-1970\01 - Kick Out the Jams - MC5.wav

Pre-gap length 0:00:02.00

Peak level 86.6 %
Extraction speed 4.5 X
Track quality 100.0 %
Test CRC F5B99BCE
Copy CRC F5B99BCE
Accurately ripped (confidence 8) [4274E0C0] (AR v2)
Copy OK

Track 2

Filename F:\Various Artists - The Rolling Stone Collection, 25 Years of Essential Rock\1969-1970\02 - Everybody's Everything - Santana.wav

Pre-gap length 0:00:02.40

Peak level 82.1 %
Extraction speed 5.0 X
Track quality 100.0 %
Test CRC D0CA2929
Copy CRC D0CA2929
Accurately ripped (confidence 8) [06633952] (AR v2)
Copy OK

Track 3

Filename F:\Various Artists - The Rolling Stone Collection, 25 Years of Essential Rock\1969-1970\03 - My Dark Hour - The Steve Miller Band.wav

Pre-gap length 0:00:02.63

Peak level 72.8 %
Extraction speed 5.2 X
Track quality 100.0 %
Test CRC 3FF2002C
Copy CRC 3FF2002C
Accurately ripped (confidence 8) [349A7131] (AR v2)
Copy OK

Track 4

Filename F:\Various Artists - The Rolling Stone Collection, 25 Years of Essential Rock\1969-1970\04 - The Loner - Neil Young.wav

Pre-gap length 0:00:02.62

Peak level 84.7 %
Extraction speed 4.6 X
Track quality 99.9 %
Test CRC 7432ED5B
Copy CRC 7432ED5B
Accurately ripped (confidence 8) [25395F92] (AR v2)
Copy OK

Track 5

Filename F:\Various Artists - The Rolling Stone Collection, 25 Years of Essential Rock\1969-1970\05 - Lay Lady Lay - Bob Dylan.wav

Pre-gap length 0:00:02.60

Peak level 90.0 %
Extraction speed 5.8 X
Track quality 100.0 %
Test CRC B9FC815B
Copy CRC B9FC815B
Accurately ripped (confidence 8) [895107FD] (AR v2)
Copy OK

Track 6

Filename F:\Various Artists - The Rolling Stone Collection, 25 Years of Essential Rock\1969-1970\06 - Ohio - Crosby, Stills, Nash & Young.wav

Pre-gap length 0:00:02.65

Peak level 80.8 %
Extraction speed 6.0 X
Track quality 100.0 %
Test CRC 79ACE236
Copy CRC 79ACE236
Accurately ripped (confidence 8) [225BC790] (AR v2)
Copy OK

Track 7

Filename F:\Various Artists - The Rolling Stone Collection, 25 Years of Essential Rock\1969-1970\07 - Loan Me a Dime - Boz Scaggs.wav

Pre-gap length 0:00:02.62

Peak level 95.1 %
Extraction speed 7.1 X
Track quality 100.0 %
Test CRC EFFBE808
Copy CRC EFFBE808
Accurately ripped (confidence 8) [3C58B01B] (AR v2)
Copy OK

Track 8

Filename F:\Various Artists - The Rolling Stone Collection, 25 Years of Essential Rock\1969-1970\08 - I Want You Back - The Jackson Five.wav

Pre-gap length 0:00:02.60

Peak level 86.5 %
Extraction speed 6.8 X
Track quality 100.0 %
Test CRC 6354D309
Copy CRC 6354D309
Accurately ripped (confidence 8) [CA537C5B] (AR v2)
Copy OK

Track 9

Filename F:\Various Artists - The Rolling Stone Collection, 25 Years of Essential Rock\1969-1970\09 - Thank You (Falletin Me Be Mice Elf Agin) - Sly and the Family Stone.wav

Pre-gap length 0:00:02.62

Peak level 94.8 %
Extraction speed 6.3 X
Track quality 99.9 %
Test CRC 0683C856
Copy CRC 0683C856
Accurately ripped (confidence 8) [8DA808EB] (AR v2)
Copy OK

Track 10

Filename F:\Various Artists - The Rolling Stone Collection, 25 Years of Essential Rock\1969-1970\10 - Working Class Hero - John Lennon & Plastic Ono Band.wav

Pre-gap length 0:00:02.63

Peak level 78.4 %
Extraction speed 7.0 X
Track quality 100.0 %
Test CRC 842BB1CF
Copy CRC 842BB1CF
Accurately ripped (confidence 8) [ABA39456] (AR v2)
Copy OK

Track 11

Filename F:\Various Artists - The Rolling Stone Collection, 25 Years of Essential Rock\1969-1970\11 - Fortunate Son - Creedence Clearwater Revival.wav

Pre-gap length 0:00:02.63

Peak level 72.2 %
Extraction speed 6.7 X
Track quality 100.0 %
Test CRC 5C15E28A
Copy CRC 5C15E28A
Accurately ripped (confidence 8) [9B47FBE6] (AR v2)
Copy OK

Track 12

Filename F:\Various Artists - The Rolling Stone Collection, 25 Years of Essential Rock\1969-1970\12 - Blues Power - Eric Clapton.wav

Pre-gap length 0:00:02.65

Peak level 87.2 %
Extraction speed 7.2 X
Track quality 100.0 %
Test CRC FC4D5C76
Copy CRC FC4D5C76
Accurately ripped (confidence 8) [A9F11ADC] (AR v2)
Copy OK

Track 13

Filename F:\Various Artists - The Rolling Stone Collection, 25 Years of Essential Rock\1969-1970\13 - Casey Jones - Grateful Dead.wav

Pre-gap length 0:00:02.62

Peak level 84.9 %
Extraction speed 6.4 X
Track quality 100.0 %
Test CRC A12BFA3D
Copy CRC A12BFA3D
Accurately ripped (confidence 8) [01CC6FD4] (AR v2)
Copy OK

Track 14

Filename F:\Various Artists - The Rolling Stone Collection, 25 Years of Essential Rock\1969-1970\14 - Dreams - The Allman Brothers Band.wav

Pre-gap length 0:00:02.65

Peak level 89.1 %
Extraction speed 7.9 X
Track quality 100.0 %
Test CRC 1DA3654A
Copy CRC 1DA3654A
Accurately ripped (confidence 8) [F34483C9] (AR v2)
Copy OK

Track 15

Filename F:\Various Artists - The Rolling Stone Collection, 25 Years of Essential Rock\1969-1970\15 - Friends - Led Zeppelin.wav

Pre-gap length 0:00:02.65

Peak level 98.0 %
Extraction speed 5.8 X
Track quality 100.0 %
Test CRC A6D0AA46
Copy CRC A6D0AA46
Accurately ripped (confidence 8) [0DB204EB] (AR v2)
Copy OK


All tracks accurately ripped

No errors occurred

End of status report

==== Log checksum 7FE14069276FB997785946F75124D67F4F5F1A3742FD9E15CC8B5EDB05243842 ====

––––––––––––––––––––––––––––––––––––––––
Analyzed: Bob Dylan / The Rolling Stone Collection: 25 Years of Essential Rock (1969-1970) (1)
Boz Scaggs / The Rolling Stone Collection: 25 Years of Essential Rock (1969-1970) (2)
Creedence Clearwater Revival / The Rolling Stone Collection: 25 Years of Essential Rock (1969-1970) (3)
Crosby, Stills, Nash & Young / The Rolling Stone Collection: 25 Years of Essential Rock (1969-1970) (4)
Eric Clapton / The Rolling Stone Collection: 25 Years of Essential Rock (1969-1970) (5)
Grateful Dead / The Rolling Stone Collection: 25 Years of Essential Rock (1969-1970) (6)
John Lennon / Plastic Ono Band / The Rolling Stone Collection: 25 Years of Essential Rock (1969-1970) (7)
Led Zeppelin / The Rolling Stone Collection: 25 Years of Essential Rock (1969-1970) (8)
MC5 / The Rolling Stone Collection: 25 Years of Essential Rock (1969-1970) (9)
Neil Young / The Rolling Stone Collection: 25 Years of Essential Rock (1969-1970) (10)
Santana / The Rolling Stone Collection: 25 Years of Essential Rock (1969-1970) (11)
Sly and the Family Stone / The Rolling Stone Collection: 25 Years of Essential Rock (1969-1970) (12)
The Allman Brothers Band / The Rolling Stone Collection: 25 Years of Essential Rock (1969-1970) (13)
The Jackson Five / The Rolling Stone Collection: 25 Years of Essential Rock (1969-1970) (14)
The Steve Miller Band / The Rolling Stone Collection: 25 Years of Essential Rock (1969-1970) (15)
––––––––––––––––––––––––––––––––––––––––

DR Peak RMS Duration Track
––––––––––––––––––––––––––––––––––––––––
DR13 -0.91 dB -17.82 dB 3:19 05-Lay Lady Lay
DR12 -0.44 dB -16.70 dB 12:33 07-Loan Me a Dime
DR13 -2.83 dB -18.03 dB 2:21 11-Fortunate Son
DR12 -1.85 dB -16.67 dB 3:00 06-Ohio
DR14 -1.19 dB -17.57 dB 3:09 12-Blues Power
DR12 -1.42 dB -16.28 dB 4:28 13-Casey Jones
DR12 -2.11 dB -19.97 dB 3:51 10-Working Class Hero
DR12 -0.17 dB -15.50 dB 3:54 15-Friends
DR10 -1.25 dB -14.14 dB 2:59 01-Kick Out the Jams
DR14 -1.44 dB -18.24 dB 3:53 04-The Loner
DR13 -1.70 dB -17.53 dB 3:29 02-Everybody's Everything
DR15 -0.46 dB -17.86 dB 4:53 09-Thank You (Falletin Me Be Mice Elf Agin)
DR12 -1.00 dB -16.39 dB 7:18 14-Dreams
DR13 -1.26 dB -16.51 dB 2:57 08-I Want You Back
DR9 -2.76 dB -14.43 dB 3:08 03-My Dark Hour
––––––––––––––––––––––––––––––––––––––––

Number of tracks: 15
Official DR value: DR12

Samplerate: 44100 Hz
Channels: 2
Bits per sample: 16
Bitrate: 901 kbps
Codec: FLAC
================================================================================

Various Artists - The Rolling Stone Collection: 25 Years Of Essential Rock [7CD Box Set] (1993)


CD3: 1971 - 1973

01. Rod Stewart - Maggie May (05:14)
02. The Who - Won't Get Fooled Again (08:31)
03. Stevie Wonder - Superstition (04:26)
04. Marvin Gaye - What's Going On (03:48)
05. Joni Mitchell - California (03:49)
06. Paul Simon - Mother and Child Reunion (03:06)
07. Randy Newman - Sail Away (02:52)
08. Eagles - Take It Easy (03:31)
09. Bonnie Raitt - Give It Up (Or Let Me Go) (04:30)
10. Little Feat - Dixie Chicken (03:51)
11. The Allman Brothers Band - Ramblin' Man (04:44)
12. Derek and the Dominos - Bell Bottom Blues (05:02)
13. Mott the Hoople - All the Young Dudes (03:31)
14. Lou Reed - Walk on the Wild Side (04:12)
15. Bob Dylan - Knockin' on Heaven's Door (02:30)

Exact Audio Copy V1.0 beta 3 from 29. August 2011

EAC extraction logfile from 3. January 2015, 2:19

Various Artists / 25 Years of Essential Rock (1971-1973)

Used drive : PLEXTOR CD-R PX-W1610A Adapter: 1 ID: 1

Read mode : Secure
Utilize accurate stream : Yes
Defeat audio cache : Yes
Make use of C2 pointers : No

Read offset correction : 99
Overread into Lead-In and Lead-Out : No
Fill up missing offset samples with silence : Yes
Delete leading and trailing silent blocks : No
Null samples used in CRC calculations : Yes
Used interface : Native Win32 interface for Win NT & 2000
Gap handling : Appended to previous track

Used output format : User Defined Encoder
Selected bitrate : 1024 kBit/s
Quality : High
Add ID3 tag : No
Command line compressor : C:\Program Files\Exact Audio Copy\FLAC\FLAC.EXE
Additional command line options : -8 -V -T "ARTIST=%artist%" -T "TITLE=%title%" -T "ALBUM=%albumtitle%" -T "DATE=%year%" -T "TRACKNUMBER=%tracknr%" -T "GENRE=%genre%" -T "COMMENT=%comment%" %source% -o %dest%


TOC of the extracted CD

Track | Start | Length | Start sector | End sector
––––––––––––––––––––––––––––-
1 | 0:00.00 | 5:14.18 | 0 | 23567
2 | 5:14.18 | 8:30.42 | 23568 | 61859
3 | 13:44.60 | 4:26.30 | 61860 | 81839
4 | 18:11.15 | 3:48.33 | 81840 | 98972
5 | 21:59.48 | 3:48.52 | 98973 | 116124
6 | 25:48.25 | 3:05.60 | 116125 | 130059
7 | 28:54.10 | 2:51.38 | 130060 | 142922
8 | 31:45.48 | 3:30.72 | 142923 | 158744
9 | 35:16.45 | 4:30.23 | 158745 | 179017
10 | 39:46.68 | 3:51.00 | 179018 | 196342
11 | 43:37.68 | 4:43.52 | 196343 | 217619
12 | 48:21.45 | 5:02.15 | 217620 | 240284
13 | 53:23.60 | 3:31.00 | 240285 | 256109
14 | 56:54.60 | 4:11.63 | 256110 | 274997
15 | 61:06.48 | 2:29.47 | 274998 | 286219


Track 1

Filename F:\Various Artists - The Rolling Stone Collection, 25 Years of Essential Rock\1971-1973\01 - Maggie May - Rod Stewart.wav

Pre-gap length 0:00:02.00

Peak level 78.2 %
Extraction speed 4.9 X
Track quality 100.0 %
Test CRC 3CB6E2D6
Copy CRC 3CB6E2D6
Accurately ripped (confidence 11) [E2DA9A3E] (AR v2)
Copy OK

Track 2

Filename F:\Various Artists - The Rolling Stone Collection, 25 Years of Essential Rock\1971-1973\02 - Won't Get Fooled Again - The Who.wav

Pre-gap length 0:00:02.68

Peak level 71.8 %
Extraction speed 5.9 X
Track quality 100.0 %
Test CRC C5D389B8
Copy CRC C5D389B8
Accurately ripped (confidence 12) [E4376F91] (AR v2)
Copy OK

Track 3

Filename F:\Various Artists - The Rolling Stone Collection, 25 Years of Essential Rock\1971-1973\03 - Superstition - Stevie Wonder.wav

Pre-gap length 0:00:02.67

Peak level 74.5 %
Extraction speed 6.0 X
Track quality 100.0 %
Test CRC 0442B7A9
Copy CRC 0442B7A9
Accurately ripped (confidence 13) [BD855166] (AR v2)
Copy OK

Track 4

Filename F:\Various Artists - The Rolling Stone Collection, 25 Years of Essential Rock\1971-1973\04 - What's Going On - Marvin Gaye.wav

Pre-gap length 0:00:02.70

Peak level 87.6 %
Extraction speed 6.2 X
Track quality 100.0 %
Test CRC B534BFE7
Copy CRC B534BFE7
Accurately ripped (confidence 12) [084F7719] (AR v2)
Copy OK

Track 5

Filename F:\Various Artists - The Rolling Stone Collection, 25 Years of Essential Rock\1971-1973\05 - California - Joni Mitchell.wav

Pre-gap length 0:00:02.68

Peak level 80.1 %
Extraction speed 6.6 X
Track quality 100.0 %
Test CRC 8DD23B53
Copy CRC 8DD23B53
Accurately ripped (confidence 12) [7B8776B8] (AR v2)
Copy OK

Track 6

Filename F:\Various Artists - The Rolling Stone Collection, 25 Years of Essential Rock\1971-1973\06 - Mother and Child Reunion - Paul Simon.wav

Pre-gap length 0:00:02.67

Peak level 84.0 %
Extraction speed 6.6 X
Track quality 100.0 %
Test CRC C49AF334
Copy CRC C49AF334
Accurately ripped (confidence 12) [4B0C16F8] (AR v2)
Copy OK

Track 7

Filename F:\Various Artists - The Rolling Stone Collection, 25 Years of Essential Rock\1971-1973\07 - Sail Away - Randy Newman.wav

Pre-gap length 0:00:02.72

Peak level 87.6 %
Extraction speed 6.8 X
Track quality 100.0 %
Test CRC B49CC9A9
Copy CRC B49CC9A9
Accurately ripped (confidence 12) [9AE7AB74] (AR v2)
Copy OK

Track 8

Filename F:\Various Artists - The Rolling Stone Collection, 25 Years of Essential Rock\1971-1973\08 - Take It Easy - Eagles.wav

Pre-gap length 0:00:02.73

Peak level 92.6 %
Extraction speed 7.2 X
Track quality 100.0 %
Test CRC DC7F03D5
Copy CRC DC7F03D5
Accurately ripped (confidence 12) [9253B565] (AR v2)
Copy OK

Track 9

Filename F:\Various Artists - The Rolling Stone Collection, 25 Years of Essential Rock\1971-1973\09 - Give It Up (Or Let Me Go) - Bonnie Raitt.wav

Pre-gap length 0:00:02.65

Peak level 78.5 %
Extraction speed 7.7 X
Track quality 100.0 %
Test CRC 9C541902
Copy CRC 9C541902
Accurately ripped (confidence 12) [4E240C90] (AR v2)
Copy OK

Track 10

Filename F:\Various Artists - The Rolling Stone Collection, 25 Years of Essential Rock\1971-1973\10 - Dixie Chicken - Little Feat.wav

Pre-gap length 0:00:02.65

Peak level 94.4 %
Extraction speed 7.8 X
Track quality 100.0 %
Test CRC 8B33BBCA
Copy CRC 8B33BBCA
Accurately ripped (confidence 12) [5F5F28E4] (AR v2)
Copy OK

Track 11

Filename F:\Various Artists - The Rolling Stone Collection, 25 Years of Essential Rock\1971-1973\11 - Ramblin' Man - The Allman Brothers Band.wav

Pre-gap length 0:00:02.65

Peak level 100.0 %
Extraction speed 8.1 X
Track quality 100.0 %
Test CRC 81C09558
Copy CRC 81C09558
Accurately ripped (confidence 11) [83CEEF66] (AR v2)
Copy OK

Track 12

Filename F:\Various Artists - The Rolling Stone Collection, 25 Years of Essential Rock\1971-1973\12 - Bell Bottom Blues - Derek and the Dominos.wav

Pre-gap length 0:00:02.67

Peak level 90.9 %
Extraction speed 7.7 X
Track quality 100.0 %
Test CRC E417C8DF
Copy CRC E417C8DF
Accurately ripped (confidence 12) [8DD16774] (AR v2)
Copy OK

Track 13

Filename F:\Various Artists - The Rolling Stone Collection, 25 Years of Essential Rock\1971-1973\13 - All the Young Dudes - Mott The Hoople.wav

Pre-gap length 0:00:03.17

Peak level 90.7 %
Extraction speed 8.3 X
Track quality 100.0 %
Test CRC 34CF43E9
Copy CRC 34CF43E9
Accurately ripped (confidence 12) [36B7A4BD] (AR v2)
Copy OK

Track 14

Filename F:\Various Artists - The Rolling Stone Collection, 25 Years of Essential Rock\1971-1973\14 - Walk on the Wild Side - Lou Reed.wav

Pre-gap length 0:00:02.62

Peak level 100.0 %
Extraction speed 8.2 X
Track quality 100.0 %
Test CRC DEA27E1B
Copy CRC DEA27E1B
Accurately ripped (confidence 11) [0FA34CC1] (AR v2)
Copy OK

Track 15

Filename F:\Various Artists - The Rolling Stone Collection, 25 Years of Essential Rock\1971-1973\15 - Knockin' on Heaven's Door - Bob Dylan.wav

Pre-gap length 0:00:02.65

Peak level 85.6 %
Extraction speed 8.1 X
Track quality 100.0 %
Test CRC B7F14CF5
Copy CRC B7F14CF5
Accurately ripped (confidence 12) [554C8A35] (AR v2)
Copy OK


All tracks accurately ripped

No errors occurred

End of status report

==== Log checksum 17A65B6AB4A4DD87DEEEE93FAA72B5FCA78FA678F27BD3550A87433BC3EA72CD ====

––––––––––––––––––––––––––––––––––––––––
Analyzed: Bob Dylan / 25 Years of Essential Rock (1971-1973) (1)
Bonnie Raitt / 25 Years of Essential Rock (1971-1973) (2)
Derek and the Dominos / 25 Years of Essential Rock (1971-1973) (3)
Eagles / 25 Years of Essential Rock (1971-1973) (4)
Joni Mitchell / 25 Years of Essential Rock (1971-1973) (5)
Little Feat / 25 Years of Essential Rock (1971-1973) (6)
Lou Reed / 25 Years of Essential Rock (1971-1973) (7)
Marvin Gaye / 25 Years of Essential Rock (1971-1973) (8)
Mott the Hoople / 25 Years of Essential Rock (1971-1973) (9)
Paul Simon / 25 Years of Essential Rock (1971-1973) (10)
Randy Newman / 25 Years of Essential Rock (1971-1973) (11)
Rod Stewart / 25 Years of Essential Rock (1971-1973) (12)
Stevie Wonder / 25 Years of Essential Rock (1971-1973) (13)
The Allman Brothers Band / 25 Years of Essential Rock (1971-1973) (14)
The Who / 25 Years of Essential Rock (1971-1973) (15)
––––––––––––––––––––––––––––––––––––––––

DR Peak RMS Duration Track
––––––––––––––––––––––––––––––––––––––––
DR11 -1.35 dB -16.94 dB 2:30 15-Knockin' on Heaven's Door
DR12 -2.10 dB -16.15 dB 4:30 09-Give It Up (Or Let Me Go)
DR12 -0.83 dB -15.60 dB 5:02 12-Bell Bottom Blues
DR12 -0.66 dB -15.14 dB 3:31 08-Take It Easy
DR12 -1.92 dB -16.93 dB 3:49 05-California
DR13 -0.49 dB -16.68 dB 3:51 10-Dixie Chicken
DR15 0.00 dB -17.75 dB 4:12 14-Walk on the Wild Side
DR13 -1.14 dB -16.62 dB 3:48 04-What's Going On
DR10 -0.85 dB -14.09 dB 3:31 13-All the Young Dudes
DR12 -1.51 dB -15.44 dB 3:06 06-Mother and Child Reunion
DR11 -1.15 dB -16.25 dB 2:52 07-Sail Away
DR12 -2.13 dB -17.18 dB 5:14 01-Maggie May
DR13 -2.56 dB -17.61 dB 4:26 03-Superstition
DR14 0.00 dB -15.93 dB 4:44 11-Ramblin' Man
DR10 -2.87 dB -15.33 dB 8:31 02-Won't Get Fooled Again
––––––––––––––––––––––––––––––––––––––––

Number of tracks: 15
Official DR value: DR12

Samplerate: 44100 Hz
Channels: 2
Bits per sample: 16
Bitrate: 827 kbps
Codec: FLAC
================================================================================

Various Artists - The Rolling Stone Collection: 25 Years Of Essential Rock [7CD Box Set] (1993)


CD4: 1973 - 1977

01. David Bowie - Rebel Rebel (04:31)
02. Ry Cooder - It's All Over Now (04:53)
03. Bob Marley and the Wailers - No Woman No Cry (03:42)
04. Elton John - Daniel (03:55)
05. James Taylor - Mexico (02:59)
06. Bob Dylan - Simple Twist of Fate (04:19)
07. Neil Young - Tonight's the Night (04:44)
08. Led Zeppelin - Trampled Under Foot (05:36)
09. Bruce Springsteen - Born to Run (04:32)
10. Graham Parker - Heat Treatment (03:07)
11. Ramones - Blitzkrieg Bop (02:14)
12. Fleetwood Mac - Go Your Own Way (03:39)
13. Bonnie Raitt - Runaway (03:23)
14. Jackson Browne - The Pretender (05:51)
15. Eagles - Hotel California (06:27)
16. Wings - Maybe I'm Amazed (05:18)

Exact Audio Copy V1.0 beta 3 from 29. August 2011

EAC extraction logfile from 3. January 2015, 2:56

Various Artists / 25 Years of Essential Rock (1973-1977)

Used drive : PLEXTOR CD-R PX-W1610A Adapter: 1 ID: 1

Read mode : Secure
Utilize accurate stream : Yes
Defeat audio cache : Yes
Make use of C2 pointers : No

Read offset correction : 99
Overread into Lead-In and Lead-Out : No
Fill up missing offset samples with silence : Yes
Delete leading and trailing silent blocks : No
Null samples used in CRC calculations : Yes
Used interface : Native Win32 interface for Win NT & 2000
Gap handling : Appended to previous track

Used output format : User Defined Encoder
Selected bitrate : 1024 kBit/s
Quality : High
Add ID3 tag : No
Command line compressor : C:\Program Files\Exact Audio Copy\FLAC\FLAC.EXE
Additional command line options : -8 -V -T "ARTIST=%artist%" -T "TITLE=%title%" -T "ALBUM=%albumtitle%" -T "DATE=%year%" -T "TRACKNUMBER=%tracknr%" -T "GENRE=%genre%" -T "COMMENT=%comment%" %source% -o %dest%


TOC of the extracted CD

Track | Start | Length | Start sector | End sector
––––––––––––––––––––––––––––-
1 | 0:00.32 | 4:30.73 | 32 | 20354
2 | 4:31.30 | 4:53.35 | 20355 | 42364
3 | 9:24.65 | 3:42.35 | 42365 | 59049
4 | 13:07.25 | 3:55.15 | 59050 | 76689
5 | 17:02.40 | 2:59.22 | 76690 | 90136
6 | 20:01.62 | 4:19.20 | 90137 | 109581
7 | 24:21.07 | 4:44.00 | 109582 | 130881
8 | 29:05.07 | 5:36.15 | 130882 | 156096
9 | 34:41.22 | 4:31.48 | 156097 | 176469
10 | 39:12.70 | 3:06.70 | 176470 | 190489
11 | 42:19.65 | 2:14.02 | 190490 | 200541
12 | 44:33.67 | 3:39.08 | 200542 | 216974
13 | 48:13.00 | 3:23.15 | 216975 | 232214
14 | 51:36.15 | 5:51.22 | 232215 | 258561
15 | 57:27.37 | 6:27.35 | 258562 | 287621
16 | 63:54.72 | 5:17.38 | 287622 | 311434


Track 1

Filename F:\Various Artists - The Rolling Stone Collection, 25 Years of Essential Rock\1973-1977\01 - Rebel Rebel - David Bowie.wav

Pre-gap length 0:00:02.32

Peak level 77.1 %
Extraction speed 4.7 X
Track quality 100.0 %
Test CRC D30420BF
Copy CRC D30420BF
Accurately ripped (confidence 20) [1957B03C] (AR v2)
Copy OK

Track 2

Filename F:\Various Artists - The Rolling Stone Collection, 25 Years of Essential Rock\1973-1977\02 - It's All Over Now - Ry Cooder.wav

Pre-gap length 0:00:02.50

Peak level 89.9 %
Extraction speed 4.3 X
Track quality 99.9 %
Test CRC C0648ABB
Copy CRC C0648ABB
Accurately ripped (confidence 20) [E1F3382A] (AR v2)
Copy OK

Track 3

Filename F:\Various Artists - The Rolling Stone Collection, 25 Years of Essential Rock\1973-1977\03 - No Woman No Cry - Bob Marley and the Wailers.wav

Pre-gap length 0:00:02.52

Peak level 89.0 %
Extraction speed 4.9 X
Track quality 100.0 %
Test CRC 3648D79B
Copy CRC 3648D79B
Accurately ripped (confidence 20) [B0FA0E21] (AR v2)
Copy OK

Track 4

Filename F:\Various Artists - The Rolling Stone Collection, 25 Years of Essential Rock\1973-1977\04 - Daniel - Elton John.wav

Pre-gap length 0:00:02.55

Peak level 74.6 %
Extraction speed 5.7 X
Track quality 100.0 %
Test CRC E5393D09
Copy CRC E5393D09
Accurately ripped (confidence 20) [BC3BD930] (AR v2)
Copy OK

Track 5

Filename F:\Various Artists - The Rolling Stone Collection, 25 Years of Essential Rock\1973-1977\05 - Mexico - James Taylor.wav

Pre-gap length 0:00:02.60

Peak level 79.2 %
Extraction speed 4.4 X
Track quality 99.9 %
Test CRC F4711CE5
Copy CRC F4711CE5
Accurately ripped (confidence 20) [EE0A096F] (AR v2)
Copy OK

Track 6

Filename F:\Various Artists - The Rolling Stone Collection, 25 Years of Essential Rock\1973-1977\06 - Simple Twist of Fate - Bob Dylan.wav

Pre-gap length 0:00:02.44

Peak level 74.7 %
Extraction speed 4.7 X
Track quality 99.9 %
Test CRC 2AB1CC60
Copy CRC 2AB1CC60
Accurately ripped (confidence 20) [1DDC85B6] (AR v2)
Copy OK

Track 7

Filename F:\Various Artists - The Rolling Stone Collection, 25 Years of Essential Rock\1973-1977\07 - Tonight's the Night - Neil Young.wav

Pre-gap length 0:00:02.49

Peak level 96.9 %
Extraction speed 5.1 X
Track quality 100.0 %
Test CRC 191072B6
Copy CRC 191072B6
Accurately ripped (confidence 20) [49993213] (AR v2)
Copy OK

Track 8

Filename F:\Various Artists - The Rolling Stone Collection, 25 Years of Essential Rock\1973-1977\08 - Trampled Under Foot - Led Zeppelin.wav

Pre-gap length 0:00:02.47

Peak level 70.2 %
Extraction speed 4.4 X
Track quality 100.0 %
Test CRC 2F1BBD56
Copy CRC 2F1BBD56
Accurately ripped (confidence 20) [4AC58698] (AR v2)
Copy OK

Track 9

Filename F:\Various Artists - The Rolling Stone Collection, 25 Years of Essential Rock\1973-1977\09 - Born to Run - Bruce Springsteen.wav

Pre-gap length 0:00:02.52

Peak level 94.6 %
Extraction speed 4.5 X
Track quality 100.0 %
Test CRC D9EC621E
Copy CRC D9EC621E
Accurately ripped (confidence 20) [1523C8CF] (AR v2)
Copy OK

Track 10

Filename F:\Various Artists - The Rolling Stone Collection, 25 Years of Essential Rock\1973-1977\10 - Heat Treatment - Graham Parker.wav

Pre-gap length 0:00:02.52

Peak level 84.1 %
Extraction speed 5.6 X
Track quality 100.0 %
Test CRC C32CC560
Copy CRC C32CC560
Accurately ripped (confidence 20) [34A5CD9B] (AR v2)
Copy OK

Track 11

Filename F:\Various Artists - The Rolling Stone Collection, 25 Years of Essential Rock\1973-1977\11 - Blitzkrieg Bop - Ramones.wav

Pre-gap length 0:00:02.60

Peak level 76.8 %
Extraction speed 5.3 X
Track quality 100.0 %
Test CRC 1C5BEB99
Copy CRC 1C5BEB99
Accurately ripped (confidence 20) [D45E6FD4] (AR v2)
Copy OK

Track 12

Filename F:\Various Artists - The Rolling Stone Collection, 25 Years of Essential Rock\1973-1977\12 - Go Your Own Way - Fleetwood Mac.wav

Pre-gap length 0:00:02.49

Peak level 96.3 %
Extraction speed 5.1 X
Track quality 99.9 %
Test CRC C2D19E33
Copy CRC C2D19E33
Accurately ripped (confidence 20) [C17373D3] (AR v2)
Copy OK

Track 13

Filename F:\Various Artists - The Rolling Stone Collection, 25 Years of Essential Rock\1973-1977\13 - Runaway - Bonnie Raitt.wav

Pre-gap length 0:00:02.50

Peak level 77.6 %
Extraction speed 3.5 X
Track quality 99.9 %
Test CRC E2B74ED4
Copy CRC E2B74ED4
Accurately ripped (confidence 20) [712DA01B] (AR v2)
Copy OK

Track 14

Filename F:\Various Artists - The Rolling Stone Collection, 25 Years of Essential Rock\1973-1977\14 - The Pretender - Jackson Browne.wav

Pre-gap length 0:00:02.50

Peak level 67.7 %
Extraction speed 6.0 X
Track quality 100.0 %
Test CRC 8A4E154B
Copy CRC 8A4E154B
Accurately ripped (confidence 20) [8FD6DFFB] (AR v2)
Copy OK

Track 15

Filename F:\Various Artists - The Rolling Stone Collection, 25 Years of Essential Rock\1973-1977\15 - Hotel California - Eagles.wav

Pre-gap length 0:00:02.52

Peak level 92.0 %
Extraction speed 6.7 X
Track quality 100.0 %
Test CRC F1A721BE
Copy CRC F1A721BE
Accurately ripped (confidence 20) [2953039A] (AR v2)
Copy OK

Track 16

Filename F:\Various Artists - The Rolling Stone Collection, 25 Years of Essential Rock\1973-1977\16 - Maybe I'm Amazed - Wings.wav

Pre-gap length 0:00:02.47

Peak level 63.9 %
Extraction speed 7.1 X
Track quality 100.0 %
Test CRC 912330A8
Copy CRC 912330A8
Accurately ripped (confidence 20) [37416BEF] (AR v2)
Copy OK


All tracks accurately ripped

No errors occurred

End of status report

==== Log checksum C18072060B650426F1B6B5C27BA664D605CE021DAC03E443BCAE5BC3C5F22C93 ====

––––––––––––––––––––––––––––––––––––––––
Analyzed: Bob Dylan / The Rolling Stone Collection: 25 Years of Essential Rock (1973-1977) (1)
Bob Marley and the Wailers / The Rolling Stone Collection: 25 Years of Essential Rock (1973-1977) (2)
Bonnie Raitt / The Rolling Stone Collection: 25 Years of Essential Rock (1973-1977) (3)
Bruce Springsteen / The Rolling Stone Collection: 25 Years of Essential Rock (1973-1977) (4)
David Bowie / The Rolling Stone Collection: 25 Years of Essential Rock (1973-1977) (5)
Eagles / The Rolling Stone Collection: 25 Years of Essential Rock (1973-1977) (6)
Elton John / The Rolling Stone Collection: 25 Years of Essential Rock (1973-1977) (7)
Fleetwood Mac / The Rolling Stone Collection: 25 Years of Essential Rock (1973-1977) (8)
Graham Parker / The Rolling Stone Collection: 25 Years of Essential Rock (1973-1977) (9)
Jackson Browne / The Rolling Stone Collection: 25 Years of Essential Rock (1973-1977) (10)
James Taylor / The Rolling Stone Collection: 25 Years of Essential Rock (1973-1977) (11)
Led Zeppelin / The Rolling Stone Collection: 25 Years of Essential Rock (1973-1977) (12)
Neil Young / The Rolling Stone Collection: 25 Years of Essential Rock (1973-1977) (13)
Ramones / The Rolling Stone Collection: 25 Years of Essential Rock (1973-1977) (14)
Ry Cooder / The Rolling Stone Collection: 25 Years of Essential Rock (1973-1977) (15)
Wings / The Rolling Stone Collection: 25 Years of Essential Rock (1973-1977) (16)
––––––––––––––––––––––––––––––––––––––––

DR Peak RMS Duration Track
––––––––––––––––––––––––––––––––––––––––
DR12 -2.53 dB -17.58 dB 4:19 06-Simple Twist of Fate
DR14 -1.01 dB -16.95 dB 3:42 03-No Woman No Cry
DR12 -2.19 dB -17.15 dB 3:23 13-Runaway
DR12 -0.48 dB -14.21 dB 4:32 09-Born to Run
DR13 -2.25 dB -16.81 dB 4:31 01-Rebel Rebel
DR15 -0.72 dB -19.30 dB 6:27 15-Hotel California
DR13 -2.54 dB -18.03 dB 3:55 04-Daniel
DR14 -0.33 dB -16.57 dB 3:39 12-Go Your Own Way
DR11 -1.50 dB -14.88 dB 3:07 10-Heat Treatment
DR13 -3.38 dB -19.80 dB 5:51 14-The Pretender
DR13 -2.02 dB -18.05 dB 2:59 05-Mexico
DR11 -3.06 dB -16.18 dB 5:36 08-Trampled Under Foot
DR13 -0.27 dB -16.85 dB 4:44 07-Tonight's the Night
DR13 -2.28 dB -16.35 dB 2:14 11-Blitzkrieg Bop
DR14 -0.92 dB -17.77 dB 4:53 02-It's All Over Now
DR12 -3.89 dB -19.20 dB 5:18 16-Maybe I'm Amazed
––––––––––––––––––––––––––––––––––––––––

Number of tracks: 16
Official DR value: DR13

Samplerate: 44100 Hz
Channels: 2
Bits per sample: 16
Bitrate: 735 kbps
Codec: FLAC
================================================================================

Various Artists - The Rolling Stone Collection: 25 Years Of Essential Rock [7CD Box Set] (1993)


CD5: 1977 - 1982

01. Sex Pistols - God Save the Queen (03:21)
02. Television - See No Evil (03:54)
03. Elvis Costello - Watching the Detectives (03:44)
04. Patti Smith Group - We Three (04:18)
05. Ian Dury and the Blockheads - Sex & Drugs & Rock 'n' Roll (03:05)
06. Warren Zevon - Werewolves of London (03:27)
07. Tom Petty and the Heartbreakers - Refugee (03:22)
08. Ry Cooder - Little Sister (03:46)
09. The Kinks - A Rock 'n' Roll Fantasy (05:01)
10. Dire Straits - Sultans of Swing (05:47)
11. The Cars - Just What I Needed (03:45)
12. The Clash - Train in Vain (Stand by Me) (03:09)
13. Pretenders - Brass in Pocket (03:04)
14. U2 - I Will Follow (03:37)
15. Prince - When U Were Mine (03:44)
16. Richard and Linda Thompson - Wall of Death (03:44)
17. Grandmaster Flash and the Furious Five - The Message (07:10)

Exact Audio Copy V1.0 beta 3 from 29. August 2011

EAC extraction logfile from 3. January 2015, 6:36

Various Artists / 25 Years of Essential Rock (1977-1982)

Used drive : PLEXTOR CD-R PX-W1610A Adapter: 1 ID: 1

Read mode : Secure
Utilize accurate stream : Yes
Defeat audio cache : Yes
Make use of C2 pointers : No

Read offset correction : 99
Overread into Lead-In and Lead-Out : No
Fill up missing offset samples with silence : Yes
Delete leading and trailing silent blocks : No
Null samples used in CRC calculations : Yes
Used interface : Native Win32 interface for Win NT & 2000
Gap handling : Appended to previous track

Used output format : User Defined Encoder
Selected bitrate : 1024 kBit/s
Quality : High
Add ID3 tag : No
Command line compressor : C:\Program Files\Exact Audio Copy\FLAC\FLAC.EXE
Additional command line options : -8 -V -T "ARTIST=%artist%" -T "TITLE=%title%" -T "ALBUM=%albumtitle%" -T "DATE=%year%" -T "TRACKNUMBER=%tracknr%" -T "GENRE=%genre%" -T "COMMENT=%comment%" %source% -o %dest%


TOC of the extracted CD

Track | Start | Length | Start sector | End sector
––––––––––––––––––––––––––––-
1 | 0:00.32 | 3:20.40 | 32 | 15071
2 | 3:20.72 | 3:54.03 | 15072 | 32624
3 | 7:15.00 | 3:44.15 | 32625 | 49439
4 | 10:59.15 | 4:18.22 | 49440 | 68811
5 | 15:17.37 | 3:04.43 | 68812 | 82654
6 | 18:22.05 | 3:26.57 | 82655 | 98161
7 | 21:48.62 | 3:22.35 | 98162 | 113346
8 | 25:11.22 | 3:46.00 | 113347 | 130296
9 | 28:57.22 | 5:00.43 | 130297 | 152839
10 | 33:57.65 | 5:46.50 | 152840 | 178839
11 | 39:44.40 | 3:45.37 | 178840 | 195751
12 | 43:30.02 | 3:08.48 | 195752 | 209899
13 | 46:38.50 | 3:04.17 | 209900 | 223716
14 | 49:42.67 | 3:37.15 | 223717 | 240006
15 | 53:20.07 | 3:44.00 | 240007 | 256806
16 | 57:04.07 | 3:44.18 | 256807 | 273624
17 | 60:48.25 | 7:10.07 | 273625 | 305881


Track 1

Filename F:\Various Artists - The Rolling Stone Collection, 25 Years of Essential Rock\1977-1982\01 - God Save the Queen - Sex Pistols.wav

Pre-gap length 0:00:02.32

Peak level 69.4 %
Extraction speed 3.7 X
Track quality 99.9 %
Test CRC 17F3D9A4
Copy CRC 17F3D9A4
Accurately ripped (confidence 19) [107F745A] (AR v2)
Copy OK

Track 2

Filename F:\Various Artists - The Rolling Stone Collection, 25 Years of Essential Rock\1977-1982\02 - See No Evil - Television.wav

Pre-gap length 0:00:02.48

Peak level 66.9 %
Extraction speed 4.2 X
Track quality 99.9 %
Test CRC 5388F15C
Copy CRC 5388F15C
Accurately ripped (confidence 20) [A635F95E] (AR v2)
Copy OK

Track 3

Filename F:\Various Artists - The Rolling Stone Collection, 25 Years of Essential Rock\1977-1982\03 - Watching the Detectives - Elvis Costello.wav

Pre-gap length 0:00:02.51

Peak level 71.9 %
Extraction speed 5.4 X
Track quality 100.0 %
Test CRC C3F41590
Copy CRC C3F41590
Accurately ripped (confidence 20) [00D75B25] (AR v2)
Copy OK

Track 4

Filename F:\Various Artists - The Rolling Stone Collection, 25 Years of Essential Rock\1977-1982\04 - We Three - Patti Smith Group.wav

Pre-gap length 0:00:02.51

Peak level 74.6 %
Extraction speed 4.9 X
Track quality 99.9 %
Test CRC 9B8B6E3A
Copy CRC 9B8B6E3A
Accurately ripped (confidence 20) [D9F081B5] (AR v2)
Copy OK

Track 5

Filename F:\Various Artists - The Rolling Stone Collection, 25 Years of Essential Rock\1977-1982\05 - Sex & Drugs & Rock 'n' Roll - Ian Dury and the Blockheads.wav

Pre-gap length 0:00:02.50

Peak level 64.6 %
Extraction speed 4.6 X
Track quality 99.9 %
Test CRC A886D392
Copy CRC A886D392
Accurately ripped (confidence 20) [CEAC4207] (AR v2)
Copy OK

Track 6

Filename F:\Various Artists - The Rolling Stone Collection, 25 Years of Essential Rock\1977-1982\06 - Werewolves of London - Warren Zevon.wav

Pre-gap length 0:00:02.51

Peak level 82.0 %
Extraction speed 6.2 X
Track quality 100.0 %
Test CRC 2008682C
Copy CRC 2008682C
Accurately ripped (confidence 20) [A6A658EB] (AR v2)
Copy OK

Track 7

Filename F:\Various Artists - The Rolling Stone Collection, 25 Years of Essential Rock\1977-1982\07 - Refugee - Tom Petty and the Heartbreakers.wav

Pre-gap length 0:00:02.50

Peak level 84.6 %
Extraction speed 6.4 X
Track quality 100.0 %
Test CRC 0799306C
Copy CRC 0799306C
Accurately ripped (confidence 20) [AC2242A9] (AR v2)
Copy OK

Track 8

Filename F:\Various Artists - The Rolling Stone Collection, 25 Years of Essential Rock\1977-1982\08 - Little Sister - Ry Cooder.wav

Pre-gap length 0:00:02.50

Peak level 82.9 %
Extraction speed 6.6 X
Track quality 100.0 %
Test CRC E54D093C
Copy CRC E54D093C
Accurately ripped (confidence 20) [70E04EC2] (AR v2)
Copy OK

Track 9

Filename F:\Various Artists - The Rolling Stone Collection, 25 Years of Essential Rock\1977-1982\09 - A Rock 'n' Roll Fantasy - The Kinks.wav

Pre-gap length 0:00:02.45

Peak level 98.6 %
Extraction speed 7.0 X
Track quality 100.0 %
Test CRC 1D7A15F1
Copy CRC 1D7A15F1
Accurately ripped (confidence 20) [CA7DC8D7] (AR v2)
Copy OK

Track 10

Filename F:\Various Artists - The Rolling Stone Collection, 25 Years of Essential Rock\1977-1982\10 - Sultans of Swing - Dire Straits.wav

Pre-gap length 0:00:02.51

Peak level 76.6 %
Extraction speed 7.6 X
Track quality 100.0 %
Test CRC 3DFF0528
Copy CRC 3DFF0528
Accurately ripped (confidence 20) [3E4D3973] (AR v2)
Copy OK

Track 11

Filename F:\Various Artists - The Rolling Stone Collection, 25 Years of Essential Rock\1977-1982\11 - Just What I Needed - The Cars.wav

Pre-gap length 0:00:02.51

Peak level 70.1 %
Extraction speed 7.4 X
Track quality 100.0 %
Test CRC BEBD0EB1
Copy CRC BEBD0EB1
Accurately ripped (confidence 20) [EB1B9C3A] (AR v2)
Copy OK

Track 12

Filename F:\Various Artists - The Rolling Stone Collection, 25 Years of Essential Rock\1977-1982\12 - Train in Vain (Stand by Me) - The Clash.wav

Pre-gap length 0:00:02.50

Peak level 80.1 %
Extraction speed 7.5 X
Track quality 100.0 %
Test CRC 4A82150F
Copy CRC 4A82150F
Accurately ripped (confidence 19) [C88413ED] (AR v2)
Copy OK

Track 13

Filename F:\Various Artists - The Rolling Stone Collection, 25 Years of Essential Rock\1977-1982\13 - Brass in Pocket - Pretenders.wav

Pre-gap length 0:00:02.51

Peak level 74.9 %
Extraction speed 5.9 X
Track quality 99.9 %
Test CRC F5DA9CB6
Copy CRC F5DA9CB6
Accurately ripped (confidence 18) [9E06772F] (AR v2)
Copy OK

Track 14

Filename F:\Various Artists - The Rolling Stone Collection, 25 Years of Essential Rock\1977-1982\14 - I Will Follow - U2.wav

Pre-gap length 0:00:02.50

Peak level 70.1 %
Extraction speed 8.1 X
Track quality 100.0 %
Test CRC 60A57159
Copy CRC 60A57159
Accurately ripped (confidence 20) [CE9D27F4] (AR v2)
Copy OK

Track 15

Filename F:\Various Artists - The Rolling Stone Collection, 25 Years of Essential Rock\1977-1982\15 - When U Were Mine - Prince.wav

Pre-gap length 0:00:02.53

Peak level 85.9 %
Extraction speed 8.1 X
Track quality 100.0 %
Test CRC BF122C73
Copy CRC BF122C73
Accurately ripped (confidence 20) [0415A2A4] (AR v2)
Copy OK

Track 16

Filename F:\Various Artists - The Rolling Stone Collection, 25 Years of Essential Rock\1977-1982\16 - Wall of Death - Richard and Linda Thompson.wav

Pre-gap length 0:00:02.55

Peak level 69.0 %
Extraction speed 7.9 X
Track quality 100.0 %
Test CRC 1D9A51B9
Copy CRC 1D9A51B9
Accurately ripped (confidence 20) [F0C430BD] (AR v2)
Copy OK

Track 17

Filename F:\Various Artists - The Rolling Stone Collection, 25 Years of Essential Rock\1977-1982\17 - The Message - Grandmaster Flash and the Furious Five.wav

Pre-gap length 0:00:02.58

Peak level 55.4 %
Extraction speed 9.0 X
Track quality 100.0 %
Test CRC 808E674A
Copy CRC 808E674A
Accurately ripped (confidence 17) [B900F256] (AR v2)
Copy OK


All tracks accurately ripped

No errors occurred

End of status report

==== Log checksum D3D6D52D6A2F036F2AAEAE8E2618586CEDA81EEDBF3CE4932792D9CE41FCB8D5 ====

––––––––––––––––––––––––––––––––––––––––
Analyzed: Dire Straits / The Rolling Stone Collection: 25 Years of Essential Rock (1977-1982) (1)
Elvis Costello / The Rolling Stone Collection: 25 Years of Essential Rock (1977-1982) (2)
Grandmaster Flash and the Furious Five / The Rolling Stone Collection: 25 Years of Essential Rock (1977-1982) (3)
Ian Dury and the Blockheads / The Rolling Stone Collection: 25 Years of Essential Rock (1977-1982) (4)
Patti Smith Group / The Rolling Stone Collection: 25 Years of Essential Rock (1977-1982) (5)
Pretenders / The Rolling Stone Collection: 25 Years of Essential Rock (1977-1982) (6)
Prince / The Rolling Stone Collection: 25 Years of Essential Rock (1977-1982) (7)
Richard and Linda Thompson / The Rolling Stone Collection: 25 Years of Essential Rock (1977-1982) (8)
Ry Cooder / The Rolling Stone Collection: 25 Years of Essential Rock (1977-1982) (9)
Sex Pistols / The Rolling Stone Collection: 25 Years of Essential Rock (1977-1982) (10)
Television / The Rolling Stone Collection: 25 Years of Essential Rock (1977-1982) (11)
The Cars / The Rolling Stone Collection: 25 Years of Essential Rock (1977-1982) (12)
The Clash / The Rolling Stone Collection: 25 Years of Essential Rock (1977-1982) (13)
The Kinks / The Rolling Stone Collection: 25 Years of Essential Rock (1977-1982) (14)
Tom Petty and the Heartbreakers / The Rolling Stone Collection: 25 Years of Essential Rock (1977-1982) (15)
U2 / The Rolling Stone Collection: 25 Years of Essential Rock (1977-1982) (16)
Warren Zevon / The Rolling Stone Collection: 25 Years of Essential Rock (1977-1982) (17)
––––––––––––––––––––––––––––––––––––––––

DR Peak RMS Duration Track
––––––––––––––––––––––––––––––––––––––––
DR14 -2.31 dB -17.46 dB 5:47 10-Sultans of Swing
DR14 -2.86 dB -19.42 dB 3:44 03-Watching the Detectives
DR14 -5.12 dB -20.44 dB 7:10 17-The Message
DR14 -3.79 dB -20.20 dB 3:05 05-Sex & Drugs & Rock 'n' Roll
DR14 -2.54 dB -20.39 dB 4:18 04-We Three
DR14 -2.50 dB -19.20 dB 3:04 13-Brass in Pocket
DR15 -1.31 dB -18.18 dB 3:44 15-When U Were Mine
DR12 -3.22 dB -17.97 dB 3:44 16-Wall of Death
DR14 -1.63 dB -18.33 dB 3:46 08-Little Sister
DR11 -3.16 dB -15.95 dB 3:21 01-God Save the Queen
DR11 -3.48 dB -16.75 dB 3:54 02-See No Evil
DR11 -3.08 dB -16.51 dB 3:45 11-Just What I Needed
DR14 -1.92 dB -18.79 dB 3:09 12-Train in Vain (Stand by Me)
DR13 -0.12 dB -16.97 dB 5:01 09-A Rock 'n' Roll Fantasy
DR13 -1.44 dB -17.01 dB 3:22 07-Refugee
DR12 -3.08 dB -15.86 dB 3:37 14-I Will Follow
DR14 -1.72 dB -18.78 dB 3:27 06-Werewolves of London
––––––––––––––––––––––––––––––––––––––––

Number of tracks: 17
Official DR value: DR13

Samplerate: 44100 Hz
Channels: 2
Bits per sample: 16
Bitrate: 781 kbps
Codec: FLAC
================================================================================

Various Artists - The Rolling Stone Collection: 25 Years Of Essential Rock [7CD Box Set] (1993)


CD6: 1982 - 1986

01. Eurythmics - Sweet Dreams (Are Made of This) (04:52)
02. The J. Geils Band - Freeze Frame (03:58)
03. Prince - Little Red Corvette (05:05)
04. Talking Heads - Life During Wartime [Live] (05:53)
05. Sting - If You Love Somebody Set Them Free (04:15)
06. Don Henley - The Boys of Summer (04:50)
07. Prince - When Doves Cry (05:55)
08. Bruce Springsteen - Born in the U.S.A. (04:38)
09. U2 - Pride (In the Name of Love) (03:48)
10. Madonna - Borderline (03:58)
11. Cyndi Lauper - She Bop (03:49)
12. Paul Simon - Diamonds on the Soles of Her Shoes (05:49)
13. John Mellencamp - Rain on the Scarecrow (03:45)
14. Jackson Browne - Lives in the Balance (04:12)
15. Foreigner - I Want to Know What Love Is (04:59)

Exact Audio Copy V1.0 beta 3 from 29. August 2011

EAC extraction logfile from 3. January 2015, 7:15

Various Artists / 25 Years of Essential Rock (1982-1986)

Used drive : PLEXTOR CD-R PX-W1610A Adapter: 1 ID: 1

Read mode : Secure
Utilize accurate stream : Yes
Defeat audio cache : Yes
Make use of C2 pointers : No

Read offset correction : 99
Overread into Lead-In and Lead-Out : No
Fill up missing offset samples with silence : Yes
Delete leading and trailing silent blocks : No
Null samples used in CRC calculations : Yes
Used interface : Native Win32 interface for Win NT & 2000
Gap handling : Appended to previous track

Used output format : User Defined Encoder
Selected bitrate : 1024 kBit/s
Quality : High
Add ID3 tag : No
Command line compressor : C:\Program Files\Exact Audio Copy\FLAC\FLAC.EXE
Additional command line options : -8 -V -T "ARTIST=%artist%" -T "TITLE=%title%" -T "ALBUM=%albumtitle%" -T "DATE=%year%" -T "TRACKNUMBER=%tracknr%" -T "GENRE=%genre%" -T "COMMENT=%comment%" %source% -o %dest%


TOC of the extracted CD

Track | Start | Length | Start sector | End sector
––––––––––––––––––––––––––––-
1 | 0:00.32 | 4:52.33 | 32 | 21964
2 | 4:52.65 | 3:58.22 | 21965 | 39836
3 | 8:51.12 | 5:04.40 | 39837 | 62676
4 | 13:55.52 | 5:52.73 | 62677 | 89149
5 | 19:48.50 | 4:14.47 | 89150 | 108246
6 | 24:03.22 | 4:49.55 | 108247 | 129976
7 | 28:53.02 | 5:54.55 | 129977 | 156581
8 | 34:47.57 | 4:37.68 | 156582 | 177424
9 | 39:25.50 | 3:48.35 | 177425 | 194559
10 | 43:14.10 | 3:58.30 | 194560 | 212439
11 | 47:12.40 | 3:48.52 | 212440 | 229591
12 | 51:01.17 | 5:48.50 | 229592 | 255741
13 | 56:49.67 | 3:45.23 | 255742 | 272639
14 | 60:35.15 | 4:12.25 | 272640 | 291564
15 | 64:47.40 | 4:58.50 | 291565 | 313964


Track 1

Filename F:\Various Artists - The Rolling Stone Collection, 25 Years of Essential Rock\1982-1986\01 - Sweet Dreams (Are Made of This) - Eurythmics.wav

Pre-gap length 0:00:02.32

Peak level 73.2 %
Extraction speed 4.7 X
Track quality 100.0 %
Test CRC AFDC0FB1
Copy CRC AFDC0FB1
Accurately ripped (confidence 20) [C22AE439] (AR v2)
Copy OK

Track 2

Filename F:\Various Artists - The Rolling Stone Collection, 25 Years of Essential Rock\1982-1986\02 - Freeze Frame - The J. Geils Band.wav

Pre-gap length 0:00:02.47

Peak level 74.6 %
Extraction speed 5.2 X
Track quality 100.0 %
Test CRC D2CD10E3
Copy CRC D2CD10E3
Accurately ripped (confidence 20) [D49ABCB1] (AR v2)
Copy OK

Track 3

Filename F:\Various Artists - The Rolling Stone Collection, 25 Years of Essential Rock\1982-1986\03 - Little Red Corvette - Prince.wav

Pre-gap length 0:00:02.47

Peak level 71.6 %
Extraction speed 5.7 X
Track quality 100.0 %
Test CRC 856B230E
Copy CRC 856B230E
Accurately ripped (confidence 21) [CB36A4C0] (AR v2)
Copy OK

Track 4

Filename F:\Various Artists - The Rolling Stone Collection, 25 Years of Essential Rock\1982-1986\04 - Life During Wartime [Live] - Talking Heads.wav

Pre-gap length 0:00:02.49

Peak level 88.4 %
Extraction speed 6.0 X
Track quality 100.0 %
Test CRC E48AFA73
Copy CRC E48AFA73
Accurately ripped (confidence 21) [91ADED10] (AR v2)
Copy OK

Track 5

Filename F:\Various Artists - The Rolling Stone Collection, 25 Years of Essential Rock\1982-1986\05 - If You Love Somebody Set Them Free - Sting.wav

Pre-gap length 0:00:02.47

Peak level 69.6 %
Extraction speed 5.0 X
Track quality 99.9 %
Test CRC 44407F18
Copy CRC 44407F18
Accurately ripped (confidence 21) [D0C5B3D4] (AR v2)
Copy OK

Track 6

Filename F:\Various Artists - The Rolling Stone Collection, 25 Years of Essential Rock\1982-1986\06 - The Boys of Summer - Don Henley.wav

Pre-gap length 0:00:02.49

Peak level 83.7 %
Extraction speed 6.2 X
Track quality 100.0 %
Test CRC 01998E0D
Copy CRC 01998E0D
Accurately ripped (confidence 20) [49B28541] (AR v2)
Copy OK

Track 7

Filename F:\Various Artists - The Rolling Stone Collection, 25 Years of Essential Rock\1982-1986\07 - When Doves Cry - Prince.wav

Pre-gap length 0:00:04.22

Peak level 70.7 %
Extraction speed 7.1 X
Track quality 100.0 %
Test CRC E844FCFB
Copy CRC E844FCFB
Accurately ripped (confidence 20) [492DC9AD] (AR v2)
Copy OK

Track 8

Filename F:\Various Artists - The Rolling Stone Collection, 25 Years of Essential Rock\1982-1986\08 - Born in the U.S.A. - Bruce Springsteen.wav

Pre-gap length 0:00:02.49

Peak level 82.4 %
Extraction speed 5.9 X
Track quality 99.9 %
Test CRC EF64D6D0
Copy CRC EF64D6D0
Accurately ripped (confidence 21) [31D971DF] (AR v2)
Copy OK

Track 9

Filename F:\Various Artists - The Rolling Stone Collection, 25 Years of Essential Rock\1982-1986\09 - Pride (In the Name of Love) - U2.wav

Pre-gap length 0:00:02.50

Peak level 69.1 %
Extraction speed 6.6 X
Track quality 100.0 %
Test CRC B9A4E0A9
Copy CRC B9A4E0A9
Accurately ripped (confidence 21) [EB3D2110] (AR v2)
Copy OK

Track 10

Filename F:\Various Artists - The Rolling Stone Collection, 25 Years of Essential Rock\1982-1986\10 - Borderline - Madonna.wav

Pre-gap length 0:00:02.52

Peak level 64.1 %
Extraction speed 6.1 X
Track quality 99.9 %
Test CRC A6A3BE91
Copy CRC A6A3BE91
Accurately ripped (confidence 20) [9AFA865A] (AR v2)
Copy OK

Track 11

Filename F:\Various Artists - The Rolling Stone Collection, 25 Years of Essential Rock\1982-1986\11 - She Bop - Cyndi Lauper.wav

Pre-gap length 0:00:02.47

Peak level 70.5 %
Extraction speed 5.7 X
Track quality 100.0 %
Test CRC E6125E9B
Copy CRC E6125E9B
Accurately ripped (confidence 20) [C7FF0286] (AR v2)
Copy OK

Track 12

Filename F:\Various Artists - The Rolling Stone Collection, 25 Years of Essential Rock\1982-1986\12 - Diamonds on the Soles of Her Shoes - Paul Simon.wav

Pre-gap length 0:00:02.54

Peak level 98.8 %
Extraction speed 4.6 X
Track quality 100.0 %
Test CRC 2D75A58D
Copy CRC 2D75A58D
Accurately ripped (confidence 20) [58AE707D] (AR v2)
Copy OK

Track 13

Filename F:\Various Artists - The Rolling Stone Collection, 25 Years of Essential Rock\1982-1986\13 - Rain on the Scarecrow - John Mellencamp.wav

Pre-gap length 0:00:02.49

Peak level 84.5 %
Extraction speed 6.9 X
Track quality 100.0 %
Test CRC 85DB26F7
Copy CRC 85DB26F7
Accurately ripped (confidence 21) [41F9FEA9] (AR v2)
Copy OK

Track 14

Filename F:\Various Artists - The Rolling Stone Collection, 25 Years of Essential Rock\1982-1986\14 - Lives in the Balance - Jackson Browne.wav

Pre-gap length 0:00:02.50

Peak level 78.6 %
Extraction speed 6.5 X
Track quality 99.9 %
Test CRC 4D43A649
Copy CRC 4D43A649
Accurately ripped (confidence 20) [F551D060] (AR v2)
Copy OK

Track 15

Filename F:\Various Artists - The Rolling Stone Collection, 25 Years of Essential Rock\1982-1986\15 - I Want to Know What Love Is - Foreigner.wav

Pre-gap length 0:00:02.42

Peak level 82.6 %
Extraction speed 6.7 X
Track quality 100.0 %
Test CRC B67F5527
Copy CRC B67F5527
Accurately ripped (confidence 19) [1E946658] (AR v2)
Copy OK


All tracks accurately ripped

No errors occurred

End of status report

==== Log checksum FB048A9DEE2A87CA61499CA3158297649B37419F9F2F1BBFEE59D59FDE005AEA ====

––––––––––––––––––––––––––––––––––––––––
Analyzed: Bruce Springsteen / The Rolling Stone Collection: 25 Years of Essential Rock (1982-1986) (1)
Cyndi Lauper / The Rolling Stone Collection: 25 Years of Essential Rock (1982-1986) (2)
Don Henley / The Rolling Stone Collection: 25 Years of Essential Rock (1982-1986) (3)
Eurythmics / The Rolling Stone Collection: 25 Years of Essential Rock (1982-1986) (4)
Foreigner / The Rolling Stone Collection: 25 Years of Essential Rock (1982-1986) (5)
Jackson Browne / The Rolling Stone Collection: 25 Years of Essential Rock (1982-1986) (6)
John Mellencamp / The Rolling Stone Collection: 25 Years of Essential Rock (1982-1986) (7)
Madonna / The Rolling Stone Collection: 25 Years of Essential Rock (1982-1986) (8)
Paul Simon / The Rolling Stone Collection: 25 Years of Essential Rock (1982-1986) (9)
Prince / The Rolling Stone Collection: 25 Years of Essential Rock (1982-1986) (10-11)
Sting / The Rolling Stone Collection: 25 Years of Essential Rock (1982-1986) (12)
Talking Heads / The Rolling Stone Collection: 25 Years of Essential Rock (1982-1986) (13)
The J. Geils Band / The Rolling Stone Collection: 25 Years of Essential Rock (1982-1986) (14)
U2 / The Rolling Stone Collection: 25 Years of Essential Rock (1982-1986) (15)
––––––––––––––––––––––––––––––––––––––––

DR Peak RMS Duration Track
––––––––––––––––––––––––––––––––––––––––
DR14 -1.68 dB -17.55 dB 4:38 08-Born in the U.S.A.
DR11 -3.03 dB -16.99 dB 3:49 11-She Bop
DR11 -1.54 dB -16.41 dB 4:50 06-The Boys of Summer
DR13 -2.71 dB -17.11 dB 4:52 01-Sweet Dreams (Are Made of This)
DR10 -1.66 dB -15.02 dB 4:59 15-I Want to Know What Love Is
DR13 -2.08 dB -18.80 dB 4:12 14-Lives in the Balance
DR14 -1.46 dB -18.02 dB 3:45 13-Rain on the Scarecrow
DR11 -3.86 dB -16.62 dB 3:58 10-Borderline
DR15 -0.10 dB -18.22 dB 5:49 12-Diamonds on the Soles of Her Shoes
DR11 -2.90 dB -17.75 dB 5:05 03-Little Red Corvette
DR15 -3.01 dB -19.87 dB 5:55 07-When Doves Cry
DR13 -3.14 dB -18.60 dB 4:15 05-If You Love Somebody Set Them Free
DR14 -1.06 dB -17.43 dB 5:53 04-Life During Wartime [Live]
DR12 -2.54 dB -16.69 dB 3:58 02-Freeze Frame
DR10 -3.20 dB -15.43 dB 3:48 09-Pride (In the Name of Love)
––––––––––––––––––––––––––––––––––––––––

Number of tracks: 15
Official DR value: DR13

Samplerate: 44100 Hz
Channels: 2
Bits per sample: 16
Bitrate: 870 kbps
Codec: FLAC
================================================================================

Various Artists - The Rolling Stone Collection: 25 Years Of Essential Rock [7CD Box Set] (1993)


CD7: 1986 - 1992

01. Bangles - Manic Monday (03:06)
02. Run-D.M.C. - Walk This Way (05:13)
03. Robert Cray - Smoking Gun (04:07)
04. Living Colour - Cult of Personality (04:56)
05. The B-52's - Love Shack (05:24)
06. Grateful Dead - Touch of Grey (05:48)
07. Don Henley - The End of the Innocence (05:15)
08. Tracy Chapman - Talkin' Bout a Revolution (02:40)
09. Public Enemy - Fight the Power (04:46)
10. The Vaughan Brothers - White Boots (03:48)
11. Bonnie Raitt - Thing Called Love (03:53)
12. The Black Crowes - Hard to Handle (03:11)
13. R.E.M. - Losing My Religion (04:29)
14. Robbie Robertson - Shake This Town (05:21)
15. Spin Doctors - Little Miss Can't Be Wrong (03:53)

Exact Audio Copy V1.0 beta 3 from 29. August 2011

EAC extraction logfile from 3. January 2015, 7:55

Various Artists / 25 Years of Essential Rock (1986-1992)

Used drive : PLEXTOR CD-R PX-W1610A Adapter: 1 ID: 1

Read mode : Secure
Utilize accurate stream : Yes
Defeat audio cache : Yes
Make use of C2 pointers : No

Read offset correction : 99
Overread into Lead-In and Lead-Out : No
Fill up missing offset samples with silence : Yes
Delete leading and trailing silent blocks : No
Null samples used in CRC calculations : Yes
Used interface : Native Win32 interface for Win NT & 2000
Gap handling : Appended to previous track

Used output format : User Defined Encoder
Selected bitrate : 1024 kBit/s
Quality : High
Add ID3 tag : No
Command line compressor : C:\Program Files\Exact Audio Copy\FLAC\FLAC.EXE
Additional command line options : -8 -V -T "ARTIST=%artist%" -T "TITLE=%title%" -T "ALBUM=%albumtitle%" -T "DATE=%year%" -T "TRACKNUMBER=%tracknr%" -T "GENRE=%genre%" -T "COMMENT=%comment%" %source% -o %dest%


TOC of the extracted CD

Track | Start | Length | Start sector | End sector
––––––––––––––––––––––––––––-
1 | 0:00.00 | 3:06.07 | 0 | 13956
2 | 3:06.07 | 5:12.60 | 13957 | 37416
3 | 8:18.67 | 4:06.68 | 37417 | 55934
4 | 12:25.60 | 4:56.05 | 55935 | 78139
5 | 17:21.65 | 5:24.17 | 78140 | 102456
6 | 22:46.07 | 5:48.05 | 102457 | 128561
7 | 28:34.12 | 5:15.00 | 128562 | 152186
8 | 33:49.12 | 2:39.70 | 152187 | 164181
9 | 36:29.07 | 4:45.50 | 164182 | 185606
10 | 41:14.57 | 3:48.25 | 185607 | 202731
11 | 45:03.07 | 3:52.55 | 202732 | 220186
12 | 48:55.62 | 3:10.63 | 220187 | 234499
13 | 52:06.50 | 4:28.65 | 234500 | 254664
14 | 56:35.40 | 5:21.35 | 254665 | 278774
15 | 61:57.00 | 3:52.52 | 278775 | 296226


Track 1

Filename F:\Various Artists - The Rolling Stone Collection, 25 Years of Essential Rock\1986-1992\01 - Manic Monday - Bangles.wav

Pre-gap length 0:00:02.00

Peak level 91.3 %
Extraction speed 4.4 X
Track quality 100.0 %
Test CRC E47B6BA2
Copy CRC E47B6BA2
Accurately ripped (confidence 21) [4055ADC4] (AR v2)
Copy OK

Track 2

Filename F:\Various Artists - The Rolling Stone Collection, 25 Years of Essential Rock\1986-1992\02 - Walk This Way - Run-D.M.C..wav

Pre-gap length 0:00:02.60

Peak level 74.1 %
Extraction speed 5.1 X
Track quality 100.0 %
Test CRC 03D669A9
Copy CRC 03D669A9
Accurately ripped (confidence 22) [B4539AAF] (AR v2)
Copy OK

Track 3

Filename F:\Various Artists - The Rolling Stone Collection, 25 Years of Essential Rock\1986-1992\03 - Smoking Gun - Robert Cray.wav

Pre-gap length 0:00:02.57

Peak level 89.4 %
Extraction speed 5.3 X
Track quality 100.0 %
Test CRC B6CFA1A8
Copy CRC B6CFA1A8
Accurately ripped (confidence 21) [B96850F5] (AR v2)
Copy OK

Track 4

Filename F:\Various Artists - The Rolling Stone Collection, 25 Years of Essential Rock\1986-1992\04 - Cult of Personality - Living Colour.wav

Pre-gap length 0:00:02.60

Peak level 100.0 %
Extraction speed 5.3 X
Track quality 100.0 %
Test CRC 51B70D54
Copy CRC 51B70D54
Accurately ripped (confidence 22) [0F80816F] (AR v2)
Copy OK

Track 5

Filename F:\Various Artists - The Rolling Stone Collection, 25 Years of Essential Rock\1986-1992\05 - Love Shack - The B-52's.wav

Pre-gap length 0:00:02.63

Peak level 85.7 %
Extraction speed 5.8 X
Track quality 100.0 %
Test CRC AD9B2B19
Copy CRC AD9B2B19
Accurately ripped (confidence 21) [D43E9AF0] (AR v2)
Copy OK

Track 6

Filename F:\Various Artists - The Rolling Stone Collection, 25 Years of Essential Rock\1986-1992\06 - Touch of Grey - Grateful Dead.wav

Pre-gap length 0:00:02.60

Peak level 98.3 %
Extraction speed 6.3 X
Track quality 100.0 %
Test CRC E73AA605
Copy CRC E73AA605
Accurately ripped (confidence 22) [74C8A736] (AR v2)
Copy OK

Track 7

Filename F:\Various Artists - The Rolling Stone Collection, 25 Years of Essential Rock\1986-1992\07 - The End of the Innocence - Don Henley.wav

Pre-gap length 0:00:02.60

Peak level 84.1 %
Extraction speed 6.7 X
Track quality 100.0 %
Test CRC E221C277
Copy CRC E221C277
Accurately ripped (confidence 22) [A4B71F98] (AR v2)
Copy OK

Track 8

Filename F:\Various Artists - The Rolling Stone Collection, 25 Years of Essential Rock\1986-1992\08 - Talkin' Bout a Revolution - Tracy Chapman.wav

Pre-gap length 0:00:02.65

Peak level 93.5 %
Extraction speed 6.4 X
Track quality 100.0 %
Test CRC CA0E2C3D
Copy CRC CA0E2C3D
Accurately ripped (confidence 21) [C799D3F9] (AR v2)
Copy OK

Track 9

Filename F:\Various Artists - The Rolling Stone Collection, 25 Years of Essential Rock\1986-1992\09 - Fight the Power - Public Enemy.wav

Pre-gap length 0:00:02.62

Peak level 94.3 %
Extraction speed 6.6 X
Track quality 100.0 %
Test CRC FEC432FB
Copy CRC FEC432FB
Accurately ripped (confidence 22) [FE71A4AF] (AR v2)
Copy OK

Track 10

Filename F:\Various Artists - The Rolling Stone Collection, 25 Years of Essential Rock\1986-1992\10 - White Boots - The Vaughan Brothers.wav

Pre-gap length 0:00:02.62

Peak level 81.6 %
Extraction speed 6.8 X
Track quality 100.0 %
Test CRC 5D6D7FDE
Copy CRC 5D6D7FDE
Accurately ripped (confidence 21) [E3718669] (AR v2)
Copy OK

Track 11

Filename F:\Various Artists - The Rolling Stone Collection, 25 Years of Essential Rock\1986-1992\11 - Thing Called Love - Bonnie Raitt.wav

Pre-gap length 0:00:02.62

Peak level 87.8 %
Extraction speed 4.8 X
Track quality 99.9 %
Test CRC FC009B02
Copy CRC FC009B02
Accurately ripped (confidence 21) [D0023FC9] (AR v2)
Copy OK

Track 12

Filename F:\Various Artists - The Rolling Stone Collection, 25 Years of Essential Rock\1986-1992\12 - Hard to Handle - The Black Crowes.wav

Pre-gap length 0:00:02.62

Peak level 99.4 %
Extraction speed 6.4 X
Track quality 100.0 %
Test CRC 826E55B9
Copy CRC 826E55B9
Accurately ripped (confidence 22) [C42AC7A2] (AR v2)
Copy OK

Track 13

Filename F:\Various Artists - The Rolling Stone Collection, 25 Years of Essential Rock\1986-1992\13 - Losing My Religion - R.E.M..wav

Pre-gap length 0:00:02.58

Peak level 77.8 %
Extraction speed 7.0 X
Track quality 100.0 %
Test CRC 054FAAFB
Copy CRC 054FAAFB
Accurately ripped (confidence 22) [5BA164C6] (AR v2)
Copy OK

Track 14

Filename F:\Various Artists - The Rolling Stone Collection, 25 Years of Essential Rock\1986-1992\14 - Shake This Town - Robbie Robertson.wav

Pre-gap length 0:00:02.65

Peak level 87.6 %
Extraction speed 7.6 X
Track quality 100.0 %
Test CRC 877199A1
Copy CRC 877199A1
Accurately ripped (confidence 21) [331FEC9A] (AR v2)
Copy OK

Track 15

Filename F:\Various Artists - The Rolling Stone Collection, 25 Years of Essential Rock\1986-1992\15 - Little Miss Can't Be Wrong - Spin Doctors.wav

Pre-gap length 0:00:02.60

Peak level 75.9 %
Extraction speed 5.5 X
Track quality 100.0 %
Test CRC F5961209
Copy CRC F5961209
Accurately ripped (confidence 20) [9446E57A] (AR v2)
Copy OK


All tracks accurately ripped

No errors occurred

End of status report

==== Log checksum 8220930648B4BDD863A540FF020719695C76A2C4BFAE641407186C91EB49361F ====

––––––––––––––––––––––––––––––––––––––––
Analyzed: Bangles / The Rolling Stone Collection: 25 Years of Essential Rock (1986-1992) (1)
Bonnie Raitt / The Rolling Stone Collection: 25 Years of Essential Rock (1986-1992) (2)
Don Henley / The Rolling Stone Collection: 25 Years of Essential Rock (1986-1992) (3)
Grateful Dead / The Rolling Stone Collection: 25 Years of Essential Rock (1986-1992) (4)
Living Colour / The Rolling Stone Collection: 25 Years of Essential Rock (1986-1992) (5)
Public Enemy / The Rolling Stone Collection: 25 Years of Essential Rock (1986-1992) (6)
R.E.M. / The Rolling Stone Collection: 25 Years of Essential Rock (1986-1992) (7)
Robbie Robertson / The Rolling Stone Collection: 25 Years of Essential Rock (1986-1992) (8)
Robert Cray / The Rolling Stone Collection: 25 Years of Essential Rock (1986-1992) (9)
Run-D.M.C. / The Rolling Stone Collection: 25 Years of Essential Rock (1986-1992) (10)
Spin Doctors / The Rolling Stone Collection: 25 Years of Essential Rock (1986-1992) (11)
The B-52's / The Rolling Stone Collection: 25 Years of Essential Rock (1986-1992) (12)
The Black Crowes / The Rolling Stone Collection: 25 Years of Essential Rock (1986-1992) (13)
The Vaughan Brothers / The Rolling Stone Collection: 25 Years of Essential Rock (1986-1992) (14)
Tracy Chapman / The Rolling Stone Collection: 25 Years of Essential Rock (1986-1992) (15)
––––––––––––––––––––––––––––––––––––––––

DR Peak RMS Duration Track
––––––––––––––––––––––––––––––––––––––––
DR13 -0.78 dB -16.79 dB 3:06 01-Manic Monday
DR12 -1.13 dB -15.71 dB 3:53 11-Thing Called Love
DR11 -1.50 dB -14.60 dB 5:15 07-The End of the Innocence
DR14 -0.14 dB -16.00 dB 5:48 06-Touch of Grey
DR15 0.00 dB -16.83 dB 4:56 04-Cult of Personality
DR13 -0.50 dB -14.96 dB 4:46 09-Fight the Power
DR13 -2.17 dB -16.41 dB 4:29 13-Losing My Religion
DR14 -1.15 dB -16.92 dB 5:21 14-Shake This Town
DR14 -0.97 dB -16.31 dB 4:07 03-Smoking Gun
DR14 -2.60 dB -17.99 dB 5:13 02-Walk This Way
DR12 -2.39 dB -15.96 dB 3:53 15-Little Miss Can't Be Wrong
DR14 -1.33 dB -17.10 dB 5:24 05-Love Shack
DR14 -0.05 dB -16.49 dB 3:11 12-Hard to Handle
DR16 -1.76 dB -18.47 dB 3:48 10-White Boots
DR14 -0.58 dB -16.89 dB 2:40 08-Talkin' Bout a Revolution
––––––––––––––––––––––––––––––––––––––––

Number of tracks: 15
Official DR value: DR14

Samplerate: 44100 Hz
Channels: 2
Bits per sample: 16
Bitrate: 862 kbps
Codec: FLAC
================================================================================

Thanks to original releaser

password: BlondStyle