Various Artists - Big Beat Jazz (1998)

Posted By: technick
Various Artists - Big Beat Jazz (1998)

Various Artists - Big Beat Jazz (1998)
EAC: flac (tracks) + cue + log | RAR, 3 %, 436,85 MB
mp3 320 kbps | RAR, 3 %, 170,59 MB | Scans | RAR, 3 %, 28,29 MB
Label: Minos-EMI S.A. | Cat №: 7243 4 96329 2 9 | (DepositFiles+FilePost+Uploaded)

A Greek-only premium compilation from the catalogue of Blue Note Records, released with the music magazine "Jazz & Tzaz" (Issue 65/66).

Exact Audio Copy V0.99 prebeta 5 from 4. May 2009

EAC extraction logfile from 27. December 2010, 22:23

Various Blue Note Anthology / Big Beat Jazz

Used drive : HL-DT-STDVD-RAM GH22NP20 Adapter: 1 ID: 1

Read mode : Secure
Utilize accurate stream : Yes
Defeat audio cache : Yes
Make use of C2 pointers : No

Read offset correction : 102
Overread into Lead-In and Lead-Out : No
Fill up missing offset samples with silence : Yes
Delete leading and trailing silent blocks : No
Null samples used in CRC calculations : Yes
Used interface : Native Win32 interface for Win NT & 2000
Gap handling : Appended to previous track

Used output format : User Defined Encoder
Selected bitrate : 1024 kBit/s
Quality : High
Add ID3 tag : No
Command line compressor : C:\Program Files\Exact Audio Copy\FLAC\FLAC.EXE
Additional command line options : -5 -V -T "ARTIST=%a" -T "TITLE=%t" -T "ALBUM=%g" -T "DATE=%y" -T "TRACKNUMBER=%n" -T "GENRE=%m" -T "COMMENT=%e" %s -o %d


TOC of the extracted CD

Track | Start | Length | Start sector | End sector
––––––––––––––––––––––––––––-
1 | 0:00.00 | 8:05.13 | 0 | 36387
2 | 8:05.13 | 5:29.25 | 36388 | 61087
3 | 13:34.38 | 8:50.29 | 61088 | 100866
4 | 22:24.67 | 4:35.01 | 100867 | 121492
5 | 26:59.68 | 7:05.13 | 121493 | 153380
6 | 34:05.06 | 5:58.15 | 153381 | 180245
7 | 40:03.21 | 6:33.43 | 180246 | 209763
8 | 46:36.64 | 5:12.35 | 209764 | 233198
9 | 51:49.24 | 5:45.13 | 233199 | 259086
10 | 57:34.37 | 6:13.21 | 259087 | 287082
11 | 63:47.58 | 9:43.17 | 287083 | 330824


Track 1

Filename C:\New Folder\01. Sonny Rollins - Decision.wav

Pre-gap length 0:00:02.00

Peak level 92.8 %
Track quality 100.0 %
Test CRC 6104F6BD
Copy CRC 6104F6BD
Accurately ripped (confidence 1) [7108F407]
Copy OK

Track 2

Filename C:\New Folder\02. Kenny Burrell - Chiltins Con Carne.wav

Pre-gap length 0:00:01.60

Peak level 100.0 %
Track quality 100.0 %
Test CRC B715D3F3
Copy CRC B715D3F3
Accurately ripped (confidence 1) [768E2C82]
Copy OK

Track 3

Filename C:\New Folder\03. Art Blakey - Dat Dere.wav

Pre-gap length 0:00:01.60

Peak level 92.4 %
Track quality 100.0 %
Test CRC D93B9648
Copy CRC D93B9648
Accurately ripped (confidence 1) [0483024D]
Copy OK

Track 4

Filename C:\New Folder\04. Jimmy Smith - The Preacher.wav

Pre-gap length 0:00:01.60

Peak level 81.0 %
Track quality 100.0 %
Test CRC BC820FDD
Copy CRC BC820FDD
Accurately ripped (confidence 1) [759D2B5E]
Copy OK

Track 5

Filename C:\New Folder\05. Horace Silver - Senor Blues.wav

Pre-gap length 0:00:01.60

Peak level 94.5 %
Track quality 100.0 %
Test CRC 81988498
Copy CRC 81988498
Accurately ripped (confidence 1) [6C051F7C]
Copy OK

Track 6

Filename C:\New Folder\06. Grant Green - Corcovado.wav

Pre-gap length 0:00:01.60

Peak level 92.6 %
Track quality 100.0 %
Test CRC D36D7B34
Copy CRC D36D7B34
Accurately ripped (confidence 1) [C5C4CEEB]
Copy OK

Track 7

Filename C:\New Folder\07. Jackie McLean - Goin' Way Blues.wav

Pre-gap length 0:00:01.60

Peak level 82.5 %
Track quality 100.0 %
Test CRC 29DC752F
Copy CRC 29DC752F
Accurately ripped (confidence 1) [4362FF27]
Copy OK

Track 8

Filename C:\New Folder\08. Art Blakey - Moon River.wav

Pre-gap length 0:00:01.60

Peak level 88.9 %
Track quality 99.9 %
Test CRC AAE08BD9
Copy CRC AAE08BD9
Accurately ripped (confidence 1) [95D492A3]
Copy OK

Track 9

Filename C:\New Folder\09. Dexter Gordon - McSplivens.wav

Pre-gap length 0:00:01.60

Peak level 85.7 %
Track quality 100.0 %
Test CRC 3E37DBAA
Copy CRC 3E37DBAA
Accurately ripped (confidence 1) [C0DBFFAA]
Copy OK

Track 10

Filename C:\New Folder\10. Wayne Shorter - Tom Thumb.wav

Pre-gap length 0:00:01.58

Peak level 88.4 %
Track quality 100.0 %
Test CRC F196D3FC
Copy CRC F196D3FC
Accurately ripped (confidence 1) [EB0BE9A0]
Copy OK

Track 11

Filename C:\New Folder\11. Don Pullen - Indio Gitano.wav

Pre-gap length 0:00:01.60

Peak level 88.4 %
Track quality 100.0 %
Test CRC CC15B7E3
Copy CRC CC15B7E3
Accurately ripped (confidence 1) [0DF8BC3F]
Copy OK


All tracks accurately ripped

No errors occurred

End of status report

Tracklist:
01. Sonny Rollins - Decision [08:01]
02. Kenny Burrell - Chiltins Con Carne [05:26]
03. Art Blakey - Dat Dere [08:46]
04. Jimmy Smith - The Preacher [04:31]
05. Horace Silver - Senor Blues [07:01]
06. Grant Green - Corcovado (Quiet Nights) [05:56]
07. Jackie McLean - Goin' Way Blues [06:30]
08. Art Blakey - Moon River [05:09]
09. Dexter Gordon - McSplivens [05:41]
10. Wayne Shorter - Tom Thumb [06:15]
11. Don Pullen - Indio Gitano [09:39]
–––––––––––––
Total time [1:13:33]
Various Artists - Big Beat Jazz (1998)
Various Artists - Big Beat Jazz (1998)

No mirrors, please!
Not my rip! All Thanks to alekow!
Welcome to My Blog!
FilePost: Part1, Part2, mp3, scans.
Uploaded: Part1, Part2, mp3, scans.
DepositFiles: flac, mp3, scans.
pass: kermith