Subcategories

Vaya Con Dios - 3 Original Album Classics (2010) Repost / New Rip

Posted By: popsakov
Vaya Con Dios - 3 Original Album Classics (2010) Repost / New Rip

Vaya Con Dios - 3 Original Album Classics (2010)
EAC Rip | FLAC (Img) + Cue + Log ~ 905 Mb | MP3 CBR320 ~ 404 Mb
Covers Included / Box Scans (PNG, 400 dpi) ~ 24 Mb | RAR 5% Recovery
Soft Rock, Pop Rock, Soul-Jazz, Blues, Chanson | Sony Music / RCA / BMG #88697651142

Vaya Con Dios was a Belgian music act, that stood out for its mixing of blues, jazz, and Gypsy styles, as well as the distinctive voice of its lead singer Dani Klein. It was one of the most successful Belgian music acts ever, having sold more than 7 million albums and more than 3 million singles. It was founded in 1986, but after 1991 Vaya Con Dios was for the most part a one woman band, centered on singer, lyricist, band leader and (co-)producer Dani Klein, reinforced by an ever-changing selection of musicians. In 2014, Dani Klein performed her last international tour under the Vaya Con Dios formula. Vaya Con Dios officially disbanded with their last concert on 25 October 2014, in Forest National.
~ Wiki

***************

Vaya Con Dios - 3 Original Album Classics (2010) Repost / New Rip

Track List CD1 - Vaya Con Dios (1988):

01. Don't Cry For Louie [3:03]
02. The Moonshiner [2:49]
03. Lord, Help Me, Please [3:24]
04. Lay Your Hands [3:45]
05. Lulu's Song [4:54]
06. Just A Friend Of Mine [3:25]
07. I Sold My Soul [5:02]
08. One Silver Dollar [3:11]
09. Philadelphia [3:36]
10. Remember [2:50]
11. Puerto Rico [4:23]
12. Johnny [2:21]

Exact Audio Copy V1.0 beta 3 from 29. August 2011

EAC extraction logfile from 17. April 2018, 22:41

Vaya Con Dios / Vaya Con Dios

Used drive : PIONEER BD-RW BDR-TD03 Adapter: 0 ID: 1

Read mode : Secure
Utilize accurate stream : Yes
Defeat audio cache : Yes
Make use of C2 pointers : No

Read offset correction : 667
Overread into Lead-In and Lead-Out : No
Fill up missing offset samples with silence : Yes
Delete leading and trailing silent blocks : No
Null samples used in CRC calculations : Yes
Used interface : Native Win32 interface for Win NT & 2000

Used output format : User Defined Encoder
Selected bitrate : 768 kBit/s
Quality : High
Add ID3 tag : No
Command line compressor : C:\Program Files (x86)\Exact Audio Copy\FLAC\FLAC.EXE
Additional command line options : -6 -V -T "ARTIST=%artist%" -T "TITLE=%title%" -T "ALBUM=%albumtitle%" -T "DATE=%year%" -T "TRACKNUMBER=%tracknr%" -T "GENRE=%genre%" -T "COMMENT=%comment%" -T "BAND=%albuminterpret%" -T "ALBUMARTIST=%albuminterpret%" -T "COMPOSER=%composer%" %haslyrics%–tag-from-file=LYRICS="%lyricsfile%"%haslyrics% -T "DISCNUMBER=%cdnumber%" -T "TOTALDISCS=%totalcds%" -T "TOTALTRACKS=%numtracks%" %hascover%–picture="%coverfile%"%hascover% %source% -o %dest%


TOC of the extracted CD

Track | Start | Length | Start sector | End sector
––––––––––––––––––––––––––––-
1 | 0:00.00 | 3:03.17 | 0 | 13741
2 | 3:03.17 | 2:49.33 | 13742 | 26449
3 | 5:52.50 | 3:24.32 | 26450 | 41781
4 | 9:17.07 | 3:44.58 | 41782 | 58639
5 | 13:01.65 | 4:53.45 | 58640 | 80659
6 | 17:55.35 | 3:24.60 | 80660 | 96019
7 | 21:20.20 | 5:02.22 | 96020 | 118691
8 | 26:22.42 | 3:11.33 | 118692 | 133049
9 | 29:34.00 | 3:36.02 | 133050 | 149251
10 | 33:10.02 | 2:50.25 | 149252 | 162026
11 | 36:00.27 | 4:22.63 | 162027 | 181739
12 | 40:23.15 | 2:20.60 | 181740 | 192299


Range status and errors

Selected range

Filename C:\Users\Deris\Desktop\Vaya\CD1\Vaya Con Dios - Vaya Con Dios.wav

Peak level 97.6 %
Extraction speed 4.5 X
Range quality 100.0 %
Test CRC 851F4F87
Copy CRC 851F4F87
Copy OK

No errors occurred


AccurateRip summary

Track 1 accurately ripped (confidence 29) [94A3D0E5] (AR v2)
Track 2 accurately ripped (confidence 27) [5F476398] (AR v2)
Track 3 accurately ripped (confidence 29) [6B5949CD] (AR v2)
Track 4 accurately ripped (confidence 28) [B1C7C08A] (AR v2)
Track 5 accurately ripped (confidence 29) [43A66D8F] (AR v2)
Track 6 accurately ripped (confidence 29) [B34B7AC4] (AR v2)
Track 7 accurately ripped (confidence 28) [4698F925] (AR v2)
Track 8 accurately ripped (confidence 29) [165B1357] (AR v2)
Track 9 accurately ripped (confidence 28) [4B09CF15] (AR v2)
Track 10 accurately ripped (confidence 28) [1AA82D5B] (AR v2)
Track 11 accurately ripped (confidence 29) [B0EBA991] (AR v2)
Track 12 accurately ripped (confidence 28) [0ABE4286] (AR v2)

All tracks accurately ripped

End of status report

–– CUETools DB Plugin V2.1.3

[CTDB TOCID: .99xFU9NdcizKyvKSDqAyufjG.8-] found, Submit result: .99xFU9NdcizKyvKSDqAyufjG.8- has been confirmed
[2ad0f736] (693/707) Accurately ripped
[e17a3845] (001/707) No match
[972c88ff] (001/707) No match
[19fc3c61] (001/707) No match
[2eb93cee] (001/707) No match
[cd6671c5] (001/707) No match
[dfaf58c8] (001/707) No match
[93bdf3cb] (001/707) No match
[aa17d0b9] (001/707) No match
[b6da91d0] (001/707) No match
[7ea2812d] (001/707) No match
[e131755a] (001/707) No match
[22805171] (001/707) No match
[ceabb274] (001/707) No match
[01b530dc] (001/707) No match


==== Log checksum F48708ED69081C75433B71259B58EED1DF23C9A992BDA90B813BBF763C6C1BFD ====

foobar2000 1.3.16 / Dynamic Range Meter 1.1.1
log date: 2018-04-22 01:17:04

––––––––––––––––––––––––––––––––––––––––
Analyzed: Vaya Con Dios / Vaya Con Dios
––––––––––––––––––––––––––––––––––––––––

DR Peak RMS Duration Track
––––––––––––––––––––––––––––––––––––––––
DR12 -5.58 dB -20.40 dB 3:03 01-Don't Cry For Louie
DR15 -1.62 dB -19.45 dB 2:49 02-The Moonshiner
DR12 -6.78 dB -23.26 dB 3:24 03-Lord, Help Me, Please
DR13 -3.39 dB -18.81 dB 3:45 04-Lay Your Hands
DR14 -1.78 dB -19.39 dB 4:54 05-Lulu's Song
DR13 -5.12 dB -21.56 dB 3:25 06-Just A Friend Of Mine
DR12 -3.02 dB -18.61 dB 5:02 07-I Sold My Soul
DR13 -0.48 dB -20.52 dB 3:11 08-One Silver Dollar
DR13 -1.30 dB -17.94 dB 3:36 09-Philadelphia
DR13 -0.20 dB -15.74 dB 2:50 10-Remember
DR13 -2.07 dB -18.82 dB 4:23 11-Puerto Rico
DR13 -4.65 dB -20.74 dB 2:21 12-Johnny
––––––––––––––––––––––––––––––––––––––––

Number of tracks: 12
Official DR value: DR13

Samplerate: 44100 Hz
Channels: 2
Bits per sample: 16
Bitrate: 813 kbps
Codec: FLAC
================================================================================

[CUETools log; Date: 22.04.2018 1:17:13; Version: 2.1.6]
[CTDB TOCID: .99xFU9NdcizKyvKSDqAyufjG.8-] found.
Track | CTDB Status
1 | (712/717) Accurately ripped
2 | (714/717) Accurately ripped
3 | (713/717) Accurately ripped
4 | (712/717) Accurately ripped
5 | (714/717) Accurately ripped
6 | (713/717) Accurately ripped
7 | (712/717) Accurately ripped
8 | (712/717) Accurately ripped
9 | (713/717) Accurately ripped
10 | (713/717) Accurately ripped
11 | (712/717) Accurately ripped
12 | (712/717) Accurately ripped
[AccurateRip ID: 001323d3-00b472b6-b10a040c] found.
Track [ CRC | V2 ] Status
01 [b530a537|94a3d0e5] (015+029/505) Accurately ripped
02 [e9065ecd|5f476398] (015+027/502) Accurately ripped
03 [4c0f23c1|6b5949cd] (015+029/503) Accurately ripped
04 [67ae9077|b1c7c08a] (015+028/503) Accurately ripped
05 [a4b7618b|43a66d8f] (015+029/505) Accurately ripped
06 [2676380a|b34b7ac4] (014+029/503) Accurately ripped
07 [92185ea1|4698f925] (014+028/499) Accurately ripped
08 [d4984bce|165b1357] (015+029/503) Accurately ripped
09 [01ec7e96|4b09cf15] (015+028/500) Accurately ripped
10 [81cee50d|1aa82d5b] (015+028/503) Accurately ripped
11 [6e70fb3d|b0eba991] (015+029/504) Accurately ripped
12 [90c23ff7|0abe4286] (015+028/503) Accurately ripped
Offsetted by -178:
01 [d5fca353] (014/505) Accurately ripped
02 [1a245ecd] (014/502) Accurately ripped
03 [cac429f1] (013/503) Accurately ripped
04 [534d1a55] (014/503) Accurately ripped
05 [2cb7d17d] (014/505) Accurately ripped
06 [05220a76] (013/503) Accurately ripped
07 [80165ea1] (013/499) Accurately ripped
08 [4b6bf648] (012/503) Accurately ripped
09 [a9ded41c] (013/500) Accurately ripped
10 [b10ee50d] (013/503) Accurately ripped
11 [399efb3d] (013/504) Accurately ripped
12 [431f3d4f] (013/503) Accurately ripped
Offsetted by 12:
01 [e100604f] (009/505) Accurately ripped
02 [c3325ecd] (009/502) Accurately ripped
03 [bc5379a1] (009/503) Accurately ripped
04 [88b24223] (009/503) Accurately ripped
05 [f4b759ff] (009/505) Accurately ripped
06 [b8876642] (009/503) Accurately ripped
07 [3d045ea1] (009/499) Accurately ripped
08 [22e05192] (009/503) Accurately ripped
09 [2a6078d2] (009/500) Accurately ripped
10 [fa4ee50d] (009/503) Accurately ripped
11 [553cfb3d] (009/504) Accurately ripped
12 [176e5167] (009/503) Accurately ripped
Offsetted by 681:
01 [6b7d5ec9] (200/505) Accurately ripped
02 [06475ecd] (200/502) Accurately ripped
03 [2f352d29] (200/503) Accurately ripped
04 [f9403358] (200/503) Accurately ripped
05 [a0b5b542] (200/505) Accurately ripped
06 [07c536f4] (200/503) Accurately ripped
07 [b5e95ea1] (197/499) Accurately ripped
08 [af0f9301] (200/503) Accurately ripped
09 [79a23763] (197/500) Accurately ripped
10 [782ee50d] (200/503) Accurately ripped
11 [d829fb3d] (200/504) Accurately ripped
12 [2b671d8b] (200/503) Accurately ripped
Offsetted by -2226:
01 [f62a9353] (000/505) No match
02 [52245ecd] (000/502) No match
03 [f28ae9f1] (000/503) No match
04 [fb815255] (000/503) No match
05 [2cbcd97d] (000/505) No match
06 [4f033a76] (000/503) No match
07 [38165ea1] (000/499) No match
08 [1b681e48] (000/503) No match
09 [b1e2ac1c] (000/500) No match
10 [b10ee50d] (013/503) Accurately ripped
11 [b19efb3d] (000/504) No match
12 [7b139d4f] (000/503) No match
Offsetted by -2048:
01 [d55e9537] (000/505) No match
02 [21065ecd] (000/502) No match
03 [73d5e3c1] (000/503) No match
04 [0fe2c877] (000/503) No match
05 [a4bc698b] (000/505) No match
06 [7057680a] (000/503) No match
07 [4a185ea1] (000/499) No match
08 [a49473ce] (000/503) No match
09 [09f05696] (000/500) No match
10 [81cee50d] (015/503) Accurately ripped
11 [e670fb3d] (000/504) No match
12 [c8b69ff7] (000/503) No match
Offsetted by -2036:
01 [012e504f] (000/505) No match
02 [fb325ecd] (000/502) No match
03 [e41a39a1] (000/503) No match
04 [30e67a23] (000/503) No match
05 [f4bc61ff] (000/505) No match
06 [02689642] (000/503) No match
07 [f5045ea1] (000/499) No match
08 [f2dc7992] (000/503) No match
09 [326450d2] (000/500) No match
10 [fa4ee50d] (009/503) Accurately ripped
11 [cd3cfb3d] (000/504) No match
12 [4f62b167] (000/503) No match
Offsetted by -1367:
01 [8bab4ec9] (000/505) No match
02 [3e475ecd] (000/502) No match
03 [56fbed29] (000/503) No match
04 [a1746b58] (000/503) No match
05 [a0babd42] (000/505) No match
06 [51a666f4] (000/503) No match
07 [6de95ea1] (000/499) No match
08 [7f0bbb01] (000/503) No match
09 [81a60f63] (000/500) No match
10 [782ee50d] (200/503) Accurately ripped
11 [5029fb3d] (000/504) No match
12 [635b7d8b] (000/503) No match
Offsetted by 583:
01 [5b079185] (000/505) No match (V2 was not tested)
02 [3b355ecd] (000/502) No match (V2 was not tested)
03 [9a5c6fd9] (000/503) No match (V2 was not tested)
04 [164cb306] (000/503) No match (V2 was not tested)
05 [e8b5f2e4] (000/505) No match (V2 was not tested)
06 [098e3d80] (000/503) No match (V2 was not tested)
07 [6cb75ea1] (000/499) No match (V2 was not tested)
08 [2fc363eb] (000/503) No match (V2 was not tested)
09 [2f446679] (000/500) No match (V2 was not tested)
10 [756ee50d] (000/503) No match (V2 was not tested)
11 [50a7fb3d] (000/504) No match (V2 was not tested)
12 [5f948f23] (000/503) No match (V2 was not tested)
Offsetted by 595:
01 [86d74c9d] (000/505) No match (V2 was not tested)
02 [15615ecd] (000/502) No match (V2 was not tested)
03 [0aa0c5b9] (000/503) No match (V2 was not tested)
04 [375064b2] (000/503) No match (V2 was not tested)
05 [38b5eb58] (000/505) No match (V2 was not tested)
06 [9b9f6bb8] (000/503) No match (V2 was not tested)
07 [17a35ea1] (000/499) No match (V2 was not tested)
08 [7e0b69af] (000/503) No match (V2 was not tested)
09 [57b860b5] (000/500) No match (V2 was not tested)
10 [edeee50d] (000/503) No match (V2 was not tested)
11 [3773fb3d] (000/504) No match (V2 was not tested)
12 [e640a093] (000/503) No match (V2 was not tested)
Offsetted by 1870:
01 [b5ceb353] (000/505) No match
02 [e2245ecd] (000/502) No match
03 [a2fd69f1] (000/503) No match
04 [ab18e255] (000/503) No match
05 [2cb2c97d] (000/505) No match
06 [bb40da76] (000/503) No match
07 [c8165ea1] (000/499) No match
08 [7b6fce48] (000/503) No match
09 [a1dafc1c] (000/500) No match
10 [b10ee50d] (013/503) Accurately ripped
11 [c19efb3d] (000/504) No match
12 [0b2add4f] (000/503) No match
Offsetted by 2048:
01 [9502b537] (000/505) No match
02 [b1065ecd] (000/502) No match
03 [244863c1] (000/503) No match
04 [bf7a5877] (000/503) No match
05 [a4b2598b] (000/505) No match
06 [dc95080a] (000/503) No match
07 [da185ea1] (000/499) No match
08 [049c23ce] (000/503) No match
09 [f9e8a696] (000/500) No match
10 [81cee50d] (015/503) Accurately ripped
11 [f670fb3d] (000/504) No match
12 [58cddff7] (000/503) No match
Offsetted by 2060:
01 [c0d2704f] (000/505) No match
02 [8b325ecd] (000/502) No match
03 [948cb9a1] (000/503) No match
04 [e07e0a23] (000/503) No match
05 [f4b251ff] (000/505) No match
06 [6ea63642] (000/503) No match
07 [85045ea1] (000/499) No match
08 [52e42992] (000/503) No match
09 [225ca0d2] (000/500) No match
10 [fa4ee50d] (009/503) Accurately ripped
11 [dd3cfb3d] (000/504) No match
12 [df79f167] (000/503) No match
Offsetted by 2729:
01 [4b4f6ec9] (000/505) No match
02 [ce475ecd] (000/502) No match
03 [076e6d29] (000/503) No match
04 [510bfb58] (000/503) No match
05 [a0b0ad42] (000/505) No match
06 [bde406f4] (000/503) No match
07 [fde95ea1] (000/499) No match
08 [df136b01] (000/503) No match
09 [719e5f63] (000/500) No match
10 [782ee50d] (200/503) Accurately ripped
11 [6029fb3d] (000/504) No match
12 [f372bd8b] (000/503) No match

Track Peak [ CRC32 ] [W/O NULL] [ LOG ]
– 97,6 [851F4F87] [AF193F3E] CRC32
01 52,5 [8E6400BC] [A73F71A7]
02 83,0 [D340F59F] [B0B02A0A]
03 45,8 [B5CC72B8] [47952D38]
04 67,6 [C82B6126] [7C1C7F74]
05 81,4 [10F6360F] [0613BC26]
06 55,4 [9D2DA5BC] [EAFF9317]
07 70,5 [475567C2] [8BB5DDBD]
08 94,6 [DCB24A9F] [7B4D032B]
09 86,1 [84B8BF48] [51C8E263]
10 97,6 [580D48F2] [8148CB82]
11 78,7 [A18153F9] [E80F61FD]
12 58,5 [52F3A80F] [03F9B0D5]

Vaya Con Dios - 3 Original Album Classics (2010) Repost / New Rip

Track List CD2 - Night Owls (1990):

01. Nah Neh Nah [2:57]
02. Far Gone Now [3:12]
03. Sunny Days [3:27]
04. Sally [3:36]
05. Something's Got A Hold On Me [2:39]
06. I Don't Want To Know [3:34]
07. What's A Woman? [3:55]
08. Night Owls [3:59]
09. Pack Your Memories [3:07]
10. With You [3:17]
11. Travelling Light [3:33]
12. Quand Elle Rit Aux Eclats [3:47]

Exact Audio Copy V1.0 beta 3 from 29. August 2011

EAC extraction logfile from 18. April 2018, 23:43

Vaya Con Dios / Night Owls

Used drive : PIONEER BD-RW BDR-TD03 Adapter: 0 ID: 1

Read mode : Secure
Utilize accurate stream : Yes
Defeat audio cache : Yes
Make use of C2 pointers : No

Read offset correction : 667
Overread into Lead-In and Lead-Out : No
Fill up missing offset samples with silence : Yes
Delete leading and trailing silent blocks : No
Null samples used in CRC calculations : Yes
Used interface : Native Win32 interface for Win NT & 2000

Used output format : User Defined Encoder
Selected bitrate : 768 kBit/s
Quality : High
Add ID3 tag : No
Command line compressor : C:\Program Files (x86)\Exact Audio Copy\FLAC\FLAC.EXE
Additional command line options : -6 -V -T "ARTIST=%artist%" -T "TITLE=%title%" -T "ALBUM=%albumtitle%" -T "DATE=%year%" -T "TRACKNUMBER=%tracknr%" -T "GENRE=%genre%" -T "COMMENT=%comment%" -T "BAND=%albuminterpret%" -T "ALBUMARTIST=%albuminterpret%" -T "COMPOSER=%composer%" %haslyrics%–tag-from-file=LYRICS="%lyricsfile%"%haslyrics% -T "DISCNUMBER=%cdnumber%" -T "TOTALDISCS=%totalcds%" -T "TOTALTRACKS=%numtracks%" %hascover%–picture="%coverfile%"%hascover% %source% -o %dest%


TOC of the extracted CD

Track | Start | Length | Start sector | End sector
––––––––––––––––––––––––––––-
1 | 0:00.33 | 2:56.40 | 33 | 13272
2 | 2:56.73 | 3:11.50 | 13273 | 27647
3 | 6:08.48 | 3:27.17 | 27648 | 43189
4 | 9:35.65 | 3:35.43 | 43190 | 59357
5 | 13:11.33 | 2:39.37 | 59358 | 71319
6 | 15:50.70 | 3:33.38 | 71320 | 87332
7 | 19:24.33 | 3:55.37 | 87333 | 104994
8 | 23:19.70 | 3:59.20 | 104995 | 122939
9 | 27:19.15 | 3:06.43 | 122940 | 136932
10 | 30:25.58 | 3:17.25 | 136933 | 151732
11 | 33:43.08 | 3:33.00 | 151733 | 167707
12 | 37:16.08 | 3:46.50 | 167708 | 184707


Range status and errors

Selected range

Filename C:\Users\Deris\Desktop\Vaya\CD2\Vaya Con Dios - Night Owls.wav

Peak level 93.3 %
Extraction speed 4.4 X
Range quality 99.9 %
Test CRC E4B106C7
Copy CRC E4B106C7
Copy OK

No errors occurred


AccurateRip summary

Track 1 accurately ripped (confidence 33) [DDDBA1DA] (AR v2)
Track 2 accurately ripped (confidence 33) [2CB18954] (AR v2)
Track 3 accurately ripped (confidence 32) [A0479CA7] (AR v2)
Track 4 accurately ripped (confidence 32) [87ECE17F] (AR v2)
Track 5 accurately ripped (confidence 32) [19D395ED] (AR v2)
Track 6 accurately ripped (confidence 33) [3853793B] (AR v2)
Track 7 accurately ripped (confidence 33) [FEB5C0A8] (AR v2)
Track 8 accurately ripped (confidence 32) [2C2B4E26] (AR v2)
Track 9 accurately ripped (confidence 33) [9F39C26A] (AR v2)
Track 10 accurately ripped (confidence 32) [A720FC46] (AR v2)
Track 11 accurately ripped (confidence 32) [CFCB7E4C] (AR v2)
Track 12 accurately ripped (confidence 33) [0C70CA45] (AR v2)

All tracks accurately ripped

End of status report

–– CUETools DB Plugin V2.1.3

[CTDB TOCID: 8_eqzAb_AtpUTUcOh_1FzRqf5X8-] found
[a91c8cc6] (891/918) No match
[9e3ab5e5] (001/918) Accurately ripped
[bc7ae934] (001/918) Accurately ripped
[7c4a5ac6] (001/918) Accurately ripped
[1b2cbdc1] (001/918) Accurately ripped
[cf52a95a] (001/918) Accurately ripped
[60899c59] (001/918) Accurately ripped
[5562bd1e] (001/918) Accurately ripped
[610645f3] (001/918) Accurately ripped
[b36cff8e] (001/918) Accurately ripped
[3de83b03] (001/918) Accurately ripped
[db3dc4a5] (001/918) Accurately ripped
[1f8df556] (001/918) Accurately ripped
[4984d79d] (001/918) Accurately ripped
[bc4d6530] (001/918) Accurately ripped
[1a3f46e5] (001/918) Accurately ripped
[6b7ef3f3] (001/918) Accurately ripped
[400fb577] (001/918) Accurately ripped
[a8027d01] (001/918) Accurately ripped
[ce9374c8] (001/918) Accurately ripped
[986e0a49] (001/918) Accurately ripped
[85ec7619] (001/918) Accurately ripped
[965de83b] (001/918) Accurately ripped
[0e30f7ea] (001/918) Accurately ripped
[b7b1541c] (001/918) Accurately ripped
[06fc091c] (001/918) Accurately ripped
[df270d48] (001/918) Accurately ripped
[7db997c1] (001/918) Accurately ripped


==== Log checksum 5AFB2E4F5B8DB6525AA23AD1096C5E21F5F66288B6492F6970D8C1053E1273C8 ====

foobar2000 1.3.16 / Dynamic Range Meter 1.1.1
log date: 2018-04-22 01:18:49

––––––––––––––––––––––––––––––––––––––––
Analyzed: Vaya Con Dios / Night Owls
––––––––––––––––––––––––––––––––––––––––

DR Peak RMS Duration Track
––––––––––––––––––––––––––––––––––––––––
DR12 -1.64 dB -15.84 dB 2:57 01-Nah Neh Nah
DR11 -0.67 dB -15.71 dB 3:12 02-Far Gone Now
DR12 -1.36 dB -15.74 dB 3:27 03-Sunny Days
DR11 -1.94 dB -16.37 dB 3:36 04-Sally
DR11 -1.68 dB -15.70 dB 2:39 05-Something's Got A Hold On Me
DR12 -2.51 dB -17.58 dB 3:34 06-I Don't Want To Know
DR11 -1.63 dB -15.77 dB 3:55 07-What's A Woman?
DR14 -0.60 dB -15.93 dB 3:59 08-Night Owls
DR12 -1.48 dB -17.48 dB 3:07 09-Pack Your Memories
DR12 -2.36 dB -16.02 dB 3:17 10-With You
DR14 -0.95 dB -18.55 dB 3:33 11-Travelling Light
DR13 -2.31 dB -18.36 dB 3:47 12-Quand Elle Rit Aux Eclats
––––––––––––––––––––––––––––––––––––––––

Number of tracks: 12
Official DR value: DR12

Samplerate: 44100 Hz
Channels: 2
Bits per sample: 16
Bitrate: 873 kbps
Codec: FLAC
================================================================================

[CUETools log; Date: 22.04.2018 1:18:45; Version: 2.1.6]
Pregap length 00:00:33.
[CTDB TOCID: 8_eqzAb_AtpUTUcOh_1FzRqf5X8-] found.
Track | CTDB Status
1 | (926/941) Accurately ripped
2 | (930/941) Accurately ripped
3 | (931/941) Accurately ripped
4 | (933/941) Accurately ripped
5 | (932/941) Accurately ripped
6 | (932/941) Accurately ripped
7 | (932/941) Accurately ripped
8 | (932/941) Accurately ripped
9 | (930/941) Accurately ripped
10 | (929/941) Accurately ripped
11 | (932/941) Accurately ripped
12 | (930/941) Accurately ripped
[AccurateRip ID: 0011dee4-00a81a85-9c099e0c] found.
Track [ CRC | V2 ] Status
01 [d2b8d0b9|dddba1da] (022+033/514) Accurately ripped
02 [bef00881|2cb18954] (022+033/514) Accurately ripped
03 [66bc2804|a0479ca7] (022+032/513) Accurately ripped
04 [bd2a3bf7|87ece17f] (022+032/513) Accurately ripped
05 [d0a55c4a|19d395ed] (022+032/513) Accurately ripped
06 [c2d90b99|3853793b] (022+033/515) Accurately ripped
07 [674dda29|feb5c0a8] (022+033/515) Accurately ripped
08 [4854f95b|2c2b4e26] (022+032/511) Accurately ripped
09 [f586b84b|9f39c26a] (022+033/513) Accurately ripped
10 [a9b70e8f|a720fc46] (022+032/513) Accurately ripped
11 [2eaa30d5|cfcb7e4c] (022+032/513) Accurately ripped
12 [e470d419|0c70ca45] (022+033/518) Accurately ripped
Offsetted by -180:
01 [fc319a35] (006/514) Accurately ripped
02 [f39ccded] (006/514) Accurately ripped
03 [8382c9b4] (006/513) Accurately ripped
04 [80fc7e3f] (006/513) Accurately ripped
05 [b863c382] (006/513) Accurately ripped
06 [ecf0e455] (006/515) Accurately ripped
07 [c62852d5] (006/515) Accurately ripped
08 [4937f7cf] (005/511) Accurately ripped
09 [5bc08ef7] (005/513) Accurately ripped
10 [765ff0c3] (006/513) Accurately ripped
11 [4b27b73d] (006/513) Accurately ripped
12 [ba899835] (006/518) Accurately ripped
Offsetted by -21:
01 [645c3d90] (011/514) Accurately ripped
02 [4d9dca34] (011/514) Accurately ripped
03 [bb28a9d0] (011/513) Accurately ripped
04 [ba692a19] (011/513) Accurately ripped
05 [81041b88] (011/513) Accurately ripped
06 [104ac2c0] (011/515) Accurately ripped
07 [7ae7572c] (011/515) Accurately ripped
08 [7fe6ec60] (011/511) Accurately ripped
09 [2c1e88ce] (011/513) Accurately ripped
10 [ac423a04] (011/513) Accurately ripped
11 [541f3c3f] (011/513) Accurately ripped
12 [d704c8d8] (011/518) Accurately ripped
Offsetted by 679:
01 [c314bc3c] (200/514) Accurately ripped
02 [b9a89190] (200/514) Accurately ripped
03 [bd07c340] (200/513) Accurately ripped
04 [6b8cd301] (200/513) Accurately ripped
05 [df588a20] (200/513) Accurately ripped
06 [5026e9ac] (200/515) Accurately ripped
07 [ed95bac8] (200/515) Accurately ripped
08 [98e5f264] (200/511) Accurately ripped
09 [65af626a] (200/513) Accurately ripped
10 [accde6c8] (200/513) Accurately ripped
11 [c8e1bfc7] (200/513) Accurately ripped
12 [ebc0eaa4] (200/518) Accurately ripped
Offsetted by 12:
01 [365b6df5] (000/514) No match (V2 was not tested)
02 [ffb150ad] (000/514) No match (V2 was not tested)
03 [ed5994b4] (000/513) No match (V2 was not tested)
04 [e34f6abf] (000/513) No match (V2 was not tested)
05 [6bdcef02] (000/513) No match (V2 was not tested)
06 [044eec15] (000/515) No match (V2 was not tested)
07 [a53f4995] (000/515) No match (V2 was not tested)
08 [0401930f] (000/511) No match (V2 was not tested)
09 [440b65b7] (000/513) No match (V2 was not tested)
10 [f1678803] (000/513) No match (V2 was not tested)
11 [3dd505bd] (000/513) No match (V2 was not tested)
12 [a2f7b5f5] (000/518) No match (V2 was not tested)

Track Peak [ CRC32 ] [W/O NULL] [ LOG ]
– 93,3 [E4B106C7] [6024CF3F] CRC32
01 82,8 [E4E855A3] [135DA949]
02 92,5 [E34983BC] [9FCDB768]
03 85,5 [06752C93] [814E118B]
04 80,0 [F5090E6C] [BEC07050]
05 82,4 [9C4A2BC7] [780D9690]
06 74,8 [8C67B57D] [A1A1AB81]
07 82,8 [0DF05337] [5A937EBA]
08 93,3 [3293AF1E] [0E476CAB]
09 84,3 [3E204299] [3325533D]
10 76,1 [AB1519B2] [BDD2189B]
11 89,5 [1666DA9D] [7BD25F43]
12 76,6 [399F7331] [5786C1B9]

Vaya Con Dios - 3 Original Album Classics (2010) Repost / New Rip

Track List CD3 - Time Flies (1992):

01. Time Flies [3:41]
02. Forever Blue [3:58]
03. Farewell Song [3:11]
04. So Long Ago [2:56]
05. Still A Man [3:38]
06. Heading For A Fall [3:41]
07. Mothers And Daughters [2:32]
08. Listen [3:20]
09. Bold And Untrue [3:10]
10. Muddy Waters [3:19]
11. For You [3:12]
12. Brave Jane [3:17]
13. At The Parallel [2:57]

Exact Audio Copy V1.0 beta 3 from 29. August 2011

EAC extraction logfile from 19. April 2018, 23:50

Vaya Con Dios / Time Flies

Used drive : PIONEER BD-RW BDR-TD03 Adapter: 0 ID: 1

Read mode : Secure
Utilize accurate stream : Yes
Defeat audio cache : Yes
Make use of C2 pointers : No

Read offset correction : 667
Overread into Lead-In and Lead-Out : No
Fill up missing offset samples with silence : Yes
Delete leading and trailing silent blocks : No
Null samples used in CRC calculations : Yes
Used interface : Native Win32 interface for Win NT & 2000

Used output format : User Defined Encoder
Selected bitrate : 768 kBit/s
Quality : High
Add ID3 tag : No
Command line compressor : C:\Program Files (x86)\Exact Audio Copy\FLAC\FLAC.EXE
Additional command line options : -6 -V -T "ARTIST=%artist%" -T "TITLE=%title%" -T "ALBUM=%albumtitle%" -T "DATE=%year%" -T "TRACKNUMBER=%tracknr%" -T "GENRE=%genre%" -T "COMMENT=%comment%" -T "BAND=%albuminterpret%" -T "ALBUMARTIST=%albuminterpret%" -T "COMPOSER=%composer%" %haslyrics%–tag-from-file=LYRICS="%lyricsfile%"%haslyrics% -T "DISCNUMBER=%cdnumber%" -T "TOTALDISCS=%totalcds%" -T "TOTALTRACKS=%numtracks%" %hascover%–picture="%coverfile%"%hascover% %source% -o %dest%


TOC of the extracted CD

Track | Start | Length | Start sector | End sector
––––––––––––––––––––––––––––-
1 | 0:00.32 | 3:40.40 | 32 | 16571
2 | 3:40.72 | 3:58.08 | 16572 | 34429
3 | 7:39.05 | 3:11.12 | 34430 | 48766
4 | 10:50.17 | 2:55.68 | 48767 | 61959
5 | 13:46.10 | 3:37.42 | 61960 | 78276
6 | 17:23.52 | 3:40.73 | 78277 | 94849
7 | 21:04.50 | 2:32.02 | 94850 | 106251
8 | 23:36.52 | 3:19.60 | 106252 | 121236
9 | 26:56.37 | 3:09.70 | 121237 | 135481
10 | 30:06.32 | 3:19.10 | 135482 | 150416
11 | 33:25.42 | 3:11.50 | 150417 | 164791
12 | 36:37.17 | 3:16.63 | 164792 | 179554
13 | 39:54.05 | 2:56.55 | 179555 | 192809


Range status and errors

Selected range

Filename C:\Users\Deris\Desktop\Vaya\CD3\Vaya Con Dios - Time Flies.wav

Peak level 100.0 %
Extraction speed 1.6 X
Range quality 100.0 %
Test CRC C7FACD4C
Copy CRC C7FACD4C
Copy OK

No errors occurred


AccurateRip summary

Track 1 accurately ripped (confidence 25) [D64F4C12] (AR v2)
Track 2 accurately ripped (confidence 25) [82477342] (AR v2)
Track 3 accurately ripped (confidence 25) [64D9956F] (AR v2)
Track 4 accurately ripped (confidence 24) [9FD54272] (AR v2)
Track 5 accurately ripped (confidence 25) [6BD91C13] (AR v2)
Track 6 accurately ripped (confidence 25) [10CA9F25] (AR v2)
Track 7 accurately ripped (confidence 25) [70C42E34] (AR v2)
Track 8 accurately ripped (confidence 25) [6FC0E36B] (AR v2)
Track 9 accurately ripped (confidence 24) [BEB984EC] (AR v2)
Track 10 accurately ripped (confidence 25) [A752CD59] (AR v2)
Track 11 accurately ripped (confidence 25) [71263AB1] (AR v2)
Track 12 accurately ripped (confidence 24) [1B1F612E] (AR v2)
Track 13 accurately ripped (confidence 25) [9D26BE8A] (AR v2)

All tracks accurately ripped

End of status report

–– CUETools DB Plugin V2.1.3

[CTDB TOCID: rhjjfxKf6.NZ4WTH2tRs.DSZ6og-] found
[c760d0d5] (835/869) No match
[1a70c93c] (001/869) Accurately ripped
[4c8af596] (001/869) Accurately ripped
[52f013f2] (001/869) Accurately ripped
[30d44d65] (001/869) Accurately ripped
[8aeb0e57] (001/869) Accurately ripped
[916ab50a] (001/869) Accurately ripped
[82420a76] (001/869) Accurately ripped
[e73d54e0] (001/869) Accurately ripped
[35b7282e] (001/869) Accurately ripped
[6ce39922] (001/869) Accurately ripped
[17290519] (001/869) Accurately ripped
[1c0bbaa5] (001/869) Accurately ripped
[10aae4b7] (001/869) Accurately ripped
[e496e81b] (001/869) Accurately ripped
[8fc227ec] (001/869) Accurately ripped
[1c1de197] (002/869) Accurately ripped
[b9b44a55] (001/869) Accurately ripped
[53fdfc6d] (001/869) Accurately ripped
[9c1b7c17] (001/869) Accurately ripped
[2cafca86] (001/869) Accurately ripped
[0bed09dc] (001/869) Accurately ripped
[9663f39d] (001/869) Accurately ripped
[0727300c] (001/869) Accurately ripped
[399ce4ec] (001/869) Accurately ripped
[0c77c0fc] (001/869) Accurately ripped
[e7527725] (001/869) Accurately ripped
[974bc161] (001/869) Accurately ripped
[3abc2a33] (001/869) Accurately ripped
[b06f7e84] (001/869) Accurately ripped
[ecf1d0ff] (001/869) Accurately ripped
[21a76e48] (001/869) Accurately ripped
[f3facd2c] (001/869) Accurately ripped
[c747d48a] (001/869) Accurately ripped


==== Log checksum 5CB32C67A3A04D5F777BCD7EFAF6C56594AF59E243E1D83546E96551BC735C11 ====

foobar2000 1.3.16 / Dynamic Range Meter 1.1.1
log date: 2018-04-22 01:20:14

––––––––––––––––––––––––––––––––––––––––
Analyzed: Vaya Con Dios / Time Flies
––––––––––––––––––––––––––––––––––––––––

DR Peak RMS Duration Track
––––––––––––––––––––––––––––––––––––––––
DR9 -0.04 dB -12.14 dB 3:41 01-Time Flies
DR11 -0.07 dB -13.55 dB 3:58 02-Forever Blue
DR9 -0.12 dB -11.44 dB 3:11 03-Farewell Song
DR9 -0.07 dB -10.73 dB 2:56 04-So Long Ago
DR10 0.00 dB -13.13 dB 3:38 05-Still A Man
DR10 0.00 dB -12.53 dB 3:41 06-Heading For A Fall
DR11 0.00 dB -12.17 dB 2:32 07-Mothers And Daughters
DR10 -0.34 dB -13.02 dB 3:20 08-Listen
DR10 0.00 dB -11.50 dB 3:10 09-Bold And Untrue
DR10 0.00 dB -12.18 dB 3:19 10-Muddy Waters
DR10 0.00 dB -11.81 dB 3:12 11-For You
DR9 0.00 dB -10.83 dB 3:17 12-Brave Jane
DR10 -0.61 dB -13.62 dB 2:57 13-At The Parallel
––––––––––––––––––––––––––––––––––––––––

Number of tracks: 13
Official DR value: DR10

Samplerate: 44100 Hz
Channels: 2
Bits per sample: 16
Bitrate: 851 kbps
Codec: FLAC
================================================================================

[CUETools log; Date: 22.04.2018 1:20:18; Version: 2.1.6]
Pregap length 00:00:32.
[CTDB TOCID: rhjjfxKf6.NZ4WTH2tRs.DSZ6og-] found.
Track | CTDB Status
1 | (871/886) Accurately ripped
2 | (875/886) Accurately ripped
3 | (876/886) Accurately ripped
4 | (873/886) Accurately ripped
5 | (871/886) Accurately ripped
6 | (873/886) Accurately ripped
7 | (872/886) Accurately ripped, or (2/886) differs in 36 samples @02:04:27
8 | (878/886) Accurately ripped
9 | (875/886) Accurately ripped
10 | (873/886) Accurately ripped
11 | (874/886) Accurately ripped
12 | (870/886) Accurately ripped
13 | (875/886) Accurately ripped
[AccurateRip ID: 001523d9-00d19a71-ac0a0a0d] found.
Track [ CRC | V2 ] Status
01 [600e9869|d64f4c12] (019+025/536) Accurately ripped
02 [6f8bf87e|82477342] (019+025/533) Accurately ripped
03 [965599b8|64d9956f] (020+025/535) Accurately ripped
04 [f334a5f1|9fd54272] (019+024/533) Accurately ripped
05 [0249ea5b|6bd91c13] (020+025/536) Accurately ripped
06 [955cb610|10ca9f25] (020+025/538) Accurately ripped
07 [a3542858|70c42e34] (019+025/534) Accurately ripped
08 [a20dbc6c|6fc0e36b] (019+025/533) Accurately ripped
09 [c8bfa4c7|beb984ec] (018+024/533) Accurately ripped
10 [0f1eeacc|a752cd59] (019+025/533) Accurately ripped
11 [80e67f42|71263ab1] (020+025/534) Accurately ripped
12 [71046b0e|1b1f612e] (018+024/533) Accurately ripped
13 [b190692e|9d26be8a] (019+025/532) Accurately ripped
Offsetted by 679:
01 [fde3eef4] (019/536) Accurately ripped
02 [ad41c904] (019/533) Accurately ripped
03 [990a7111] (019/535) Accurately ripped
04 [4f7eb2f7] (019/533) Accurately ripped
05 [72ec9810] (019/536) Accurately ripped
06 [a5145edb] (019/538) Accurately ripped
07 [f8912d46] (019/534) Accurately ripped
08 [5a640deb] (019/533) Accurately ripped
09 [26eb7554] (019/533) Accurately ripped
10 [7995a420] (019/533) Accurately ripped
11 [1694805c] (019/534) Accurately ripped
12 [05b7bf5f] (019/533) Accurately ripped
13 [3f86facc] (018/532) Accurately ripped
Offsetted by 815:
01 [3602995c] (014/536) Accurately ripped
02 [e4f99e54] (013/533) Accurately ripped
03 [45e22089] (014/535) Accurately ripped
04 [412dc447] (014/533) Accurately ripped
05 [c38bdba8] (014/536) Accurately ripped
06 [280a0743] (014/538) Accurately ripped
07 [dc659956] (014/534) Accurately ripped
08 [d4852db3] (014/533) Accurately ripped
09 [e9da382c] (014/533) Accurately ripped
10 [0c753e80] (013/533) Accurately ripped
11 [22d7060c] (014/534) Accurately ripped
12 [6fa92517] (014/533) Accurately ripped
13 [047ded5c] (013/532) Accurately ripped
Offsetted by 880:
01 [61c5f619] (002/536) Accurately ripped
02 [f6317ade] (002/533) Accurately ripped
03 [03c93648] (002/535) Accurately ripped
04 [a5a17051] (002/533) Accurately ripped
05 [846e90ab] (002/536) Accurately ripped
06 [6c46f7c0] (002/538) Accurately ripped
07 [74948938] (002/534) Accurately ripped
08 [12a7d55c] (002/533) Accurately ripped
09 [79d7a097] (002/533) Accurately ripped
10 [7a2f2c0c] (002/533) Accurately ripped
11 [b21c76e2] (002/534) Accurately ripped
12 [2d96df1e] (002/533) Accurately ripped
13 [0664e50e] (002/532) Accurately ripped
Offsetted by 1539:
01 [684b7ee0] (200/536) Accurately ripped
02 [424c429c] (200/533) Accurately ripped
03 [b85e55b5] (200/535) Accurately ripped
04 [cf51be8f] (200/533) Accurately ripped
05 [43906924] (200/536) Accurately ripped
06 [8e6207c7] (200/538) Accurately ripped
07 [739bba7e] (200/534) Accurately ripped
08 [7ccc1aa7] (200/533) Accurately ripped
09 [0e2b9fc8] (200/533) Accurately ripped
10 [d6941270] (200/533) Accurately ripped
11 [2f665544] (200/534) Accurately ripped
12 [fe010de3] (200/533) Accurately ripped
13 [bb2816c4] (200/532) Accurately ripped
Offsetted by 12:
01 [213e7a45] (000/536) No match (V2 was not tested)
02 [9a1c30f6] (000/533) No match (V2 was not tested)
03 [f868a1ac] (000/535) No match (V2 was not tested)
04 [44c41869] (000/533) No match (V2 was not tested)
05 [9ffd9d7f] (000/536) No match (V2 was not tested)
06 [8a5444ec] (000/538) No match (V2 was not tested)
07 [0a4140f0] (000/534) No match (V2 was not tested)
08 [9dc55d58] (000/533) No match (V2 was not tested)
09 [0ea788cb] (000/533) No match (V2 was not tested)
10 [7df6695c] (000/533) No match (V2 was not tested)
11 [5c55c74a] (000/534) No match (V2 was not tested)
12 [4d304e62] (000/533) No match (V2 was not tested)
13 [33e26f86] (000/532) No match (V2 was not tested)
Offsetted by 855:
01 [64a234e4] (000/536) No match (V2 was not tested)
02 [c82fafe4] (000/533) No match (V2 was not tested)
03 [e2219061] (000/535) No match (V2 was not tested)
04 [a66141d7] (000/533) No match (V2 was not tested)
05 [268d8620] (000/536) No match (V2 was not tested)
06 [034338cb] (000/538) No match (V2 was not tested)
07 [88d140a6] (000/534) No match (V2 was not tested)
08 [70e9461b] (000/533) No match (V2 was not tested)
09 [7d89dae4] (000/533) No match (V2 was not tested)
10 [2898e460] (000/533) No match (V2 was not tested)
11 [539f4b7c] (000/534) No match (V2 was not tested)
12 [f83b702f] (000/533) No match (V2 was not tested)
13 [b6e4ad2c] (000/532) No match (V2 was not tested)
Offsetted by 1533:
01 [87b38df2] (000/536) No match (V2 was not tested)
02 [2d042660] (000/533) No match (V2 was not tested)
03 [8754d1bb] (000/535) No match (V2 was not tested)
04 [a68a0553] (000/533) No match (V2 was not tested)
05 [74b68f92] (000/536) No match (V2 was not tested)
06 [93e64059] (000/538) No match (V2 was not tested)
07 [c0252e32] (000/534) No match (V2 was not tested)
08 [7ef04a31] (000/533) No match (V2 was not tested)
09 [6b37adc6] (000/533) No match (V2 was not tested)
10 [1f285328] (000/533) No match (V2 was not tested)
11 [41aeb140] (000/534) No match (V2 was not tested)
12 [0feb1c39] (000/533) No match (V2 was not tested)
13 [f9ff1398] (000/532) No match (V2 was not tested)
Offsetted by 1881:
01 [6a2023de] (002/536) Accurately ripped
02 [ff5a8bf8] (002/533) Accurately ripped
03 [a37cb85f] (002/535) Accurately ripped
04 [e3c9fceb] (002/533) Accurately ripped
05 [5211daa6] (002/536) Accurately ripped
06 [53f16f45] (002/538) Accurately ripped
07 [6900f76a] (002/534) Accurately ripped
08 [02bd84ed] (002/533) Accurately ripped
09 [567c823a] (002/533) Accurately ripped
10 [ad91a978] (000/533) No match (V2 was not tested)
11 [1d49da28] (002/534) Accurately ripped
12 [00e3dcbd] (002/533) Accurately ripped
13 [bd49cb90] (002/532) Accurately ripped

Track Peak [ CRC32 ] [W/O NULL] [ LOG ]
– 100,0 [C7FACD4C] [36A9DDFB] CRC32
01 99,5 [48731CC3] [D3EB956E]
02 99,2 [961C3174] [2B110958]
03 98,6 [D6933FB5] [684334A6]
04 99,2 [F26081ED] [0ED1694A]
05 100,0 [A2D9F155] [117091C2]
06 100,0 [741B8119] [3BB79B9D]
07 100,0 [85749BA7] [8B24DA75]
08 96,1 [A71D8AC7] [2C2847D0]
09 100,0 [BDC88C66] [8E41FB9A]
10 100,0 [E08BA6C3] [749FFC49]
11 100,0 [BCE4DB8D] [2395E77E]
12 100,0 [9DD35E9C] [EAC51045]
13 93,1 [46B98EBE] [1DCA1619]

Vaya Con Dios - 3 Original Album Classics (2010) Repost / New Rip

All thanks go to Boris1

>>> My Blog <<<

Download from icerbox.com: