Subcategories

Gianluigi Gelmetti, Teatro Regio di Parma Chorus and Orchestra - Verdi: La forza del destino (2012) [Blu-Ray]

Posted By: Vilboa
Gianluigi Gelmetti, Teatro Regio di Parma Chorus and Orchestra - Verdi: La forza del destino (2012) [Blu-Ray]

Gianluigi Gelmetti, Teatro Regio di Parma Chorus and Orchestra - Verdi: La forza del destino (2012) [Blu-Ray]
BluRay | BDMV | MPEG-4 AVC Video / 1080i / 29,970 fps | 178 min | 45,4 Gb
Audio1: Italian / LPCM Audio / 2.0 / 24-bit | Audio2: DTS-HD Master Audio / 5.1 / 48 kHz / 24-bit

BluRay-rip | AVC | MKV 1920x1080 / 6215 kbps / 29,97 fps | 178 min | 9,62 Gb
Audio: Italian / DTS / 6ch / 48.0 KHz / 24 bits
Classical | C Major | Sub: Italian, English, German, French, Spanish, Chinese, Korean, Japanese

For "La forza del destino", Verdi created one of his most famous melodies, the "fate" motif that permeates the whole of the score. Music and action alternate in masterly fashion between large-scale crowd scenes and intimate interiority, in that way illustrating Verdi's real theme: the manner in which fallible human beings are destroyed by a cruel fate.

Cast:
Il marchese di Calatrava – Ziyan Atfeh
Donna Leonora – Dimitra Theodossiou
Don Carlo di Vargas – Vladimir Stoyanov
Don Alvaro – Aquiles Machado
Preziosilla – Mariana Pentcheva
Padre guardiano – Roberto Scandiuzzi
Fra Melitone – Carlo Lepore
Curra – Adriana Di Paola
Un alcalde – Alessandro Bianchini
Mastro Trabuco – Myung Ho Kim
Un chirurgo – Gabriele Bolletta
Parma Teatro Regio Chorus and Orchestra
Conductor - Gianluigi Gelmetti


General
ID : 0 (0x0)
Complete name : C:\LA FORZA DEL DESTINO\BDMV\STREAM\00001.m2ts
Format : BDAV
Format/Info : Blu-ray Video
File size : 30.8 GiB
Duration : 2h 14mn
Overall bit rate mode : Variable
Overall bit rate : 32.9 Mbps
Maximum Overall bit rate : 48.0 Mbps

Video
ID : 4113 (0x1011)
Menu ID : 1 (0x1)
Format : AVC
Format/Info : Advanced Video Codec
Format profile : High@L4.1
Format settings, CABAC : Yes
Format settings, ReFrames : 4 frames
Codec ID : 27
Duration : 2h 14mn
Bit rate mode : Variable
Maximum bit rate : 30.5 Mbps
Width : 1 920 pixels
Height : 1 080 pixels
Display aspect ratio : 16:9
Frame rate : 29.970 fps
Color space : YUV
Chroma subsampling : 4:2:0
Bit depth : 8 bits
Scan type : MBAFF
Scan order : Top Field First

Audio #1
ID : 4352 (0x1100)
Menu ID : 1 (0x1)
Format : PCM
Format settings, Endianness : Big
Format settings, Sign : Signed
Muxing mode : Blu-ray
Codec ID : 128
Duration : 2h 14mn
Bit rate mode : Constant
Bit rate : 2 304 Kbps
Channel(s) : 2 channels
Channel positions : Front: L R
Sampling rate : 48.0 KHz
Bit depth : 24 bits
Stream size : 2.16 GiB (7%)

Audio #2
ID : 4353 (0x1101)
Menu ID : 1 (0x1)
Format : DTS
Format/Info : Digital Theater Systems
Format profile : MA / Core
Mode : 16
Format settings, Endianness : Big
Muxing mode : Stream extension
Codec ID : 134
Duration : 2h 14mn
Bit rate mode : Variable
Bit rate : Unknown / 1 509 Kbps
Channel(s) : 6 channels
Channel positions : Front: L C R, Side: L R, LFE
Sampling rate : 48.0 KHz
Bit depth : 24 bits
Compression mode : Lossless / Lossy

Text #1
ID : 4608 (0x1200)
Menu ID : 1 (0x1)
Format : PGS
Codec ID : 144

Text #2
ID : 4609 (0x1201)
Menu ID : 1 (0x1)
Format : PGS
Codec ID : 144

Text #3
ID : 4610 (0x1202)
Menu ID : 1 (0x1)
Format : PGS
Codec ID : 144

Text #4
ID : 4611 (0x1203)
Menu ID : 1 (0x1)
Format : PGS
Codec ID : 144

Text #5
ID : 4612 (0x1204)
Menu ID : 1 (0x1)
Format : PGS
Codec ID : 144

Text #6
ID : 4613 (0x1205)
Menu ID : 1 (0x1)
Format : PGS
Codec ID : 144

Text #7
ID : 4614 (0x1206)
Menu ID : 1 (0x1)
Format : PGS
Codec ID : 144

Text #8
ID : 4615 (0x1207)
Menu ID : 1 (0x1)
Format : PGS
Codec ID : 144


General
Unique ID : 239237406168207537419407799769719012582 (0xB3FB72CCAE67646899994DA6C2E27CE6)
Complete name : C:\La_forza_del_destino.mkv
Format : Matroska
Format version : Version 2
File size : 9.62 GiB
Duration : 2h 57mn
Overall bit rate : 7 748 Kbps
Movie name : La_forza_del_destino
Encoded date : UTC 2017-12-11 10:12:57
Writing application : DVDFab 9.1.6.8
Writing library : libebml v0.7.8 + libmatroska v0.8.1

Video
ID : 1
Format : AVC
Format/Info : Advanced Video Codec
Format profile : High@L4.1
Format settings, CABAC : Yes
Format settings, ReFrames : 2 frames
Codec ID : V_MPEG4/ISO/AVC
Duration : 2h 57mn
Bit rate : 6 215 Kbps
Width : 1 920 pixels
Height : 1 080 pixels
Display aspect ratio : 16:9
Frame rate mode : Constant
Frame rate : 29.970 fps
Color space : YUV
Chroma subsampling : 4:2:0
Bit depth : 8 bits
Scan type : Progressive
Bits/(Pixel*Frame) : 0.100
Stream size : 7.56 GiB (79%)
Writing library : x264 core 142
Encoding settings : cabac=1 / ref=1 / deblock=1:-1:-1 / analyse=0x3:0 / me=hex / subme=5 / psy=0 / mixed_ref=0 / me_range=16 / chroma_me=1 / trellis=0 / 8x8dct=1 / cqm=0 / deadzone=21,11 / fast_pskip=1 / chroma_qp_offset=0 / threads=8 / lookahead_threads=2 / sliced_threads=0 / nr=0 / decimate=1 / interlaced=0 / bluray_compat=0 / constrained_intra=0 / bframes=2 / b_pyramid=0 / b_adapt=1 / b_bias=0 / direct=1 / weightb=1 / open_gop=0 / weightp=0 / keyint=24 / keyint_min=13 / scenecut=40 / intra_refresh=0 / rc=abr / mbtree=0 / bitrate=6215 / ratetol=1.0 / qcomp=0.60 / qpmin=0 / qpmax=69 / qpstep=4 / ip_ratio=1.40 / pb_ratio=1.30 / aq=1:1.00
Default : Yes
Forced : No
Color primaries : BT.709
Transfer characteristics : BT.709
Matrix coefficients : BT.709
Color range : Limited

Audio
ID : 2
Format : DTS
Format/Info : Digital Theater Systems
Mode : 16
Format settings, Endianness : Big
Codec ID : A_DTS
Duration : 2h 57mn
Bit rate mode : Constant
Bit rate : 1 509 Kbps
Channel(s) : 6 channels
Channel positions : Front: L C R, Side: L R, LFE
Sampling rate : 48.0 KHz
Bit depth : 24 bits
Compression mode : Lossy
Stream size : 1.87 GiB (19%)
Language : Italian
Default : Yes
Forced : No

Text #1
ID : 3
Format : VobSub
Codec ID : S_VOBSUB
Codec ID/Info : The same subtitle format used on DVDs
Language : Italian
Default : Yes
Forced : No

Text #2
ID : 4
Format : VobSub
Codec ID : S_VOBSUB
Codec ID/Info : The same subtitle format used on DVDs
Language : English
Default : No
Forced : No

Text #3
ID : 5
Format : VobSub
Codec ID : S_VOBSUB
Codec ID/Info : The same subtitle format used on DVDs
Language : German
Default : No
Forced : No

Text #4
ID : 6
Format : VobSub
Codec ID : S_VOBSUB
Codec ID/Info : The same subtitle format used on DVDs
Language : French
Default : No
Forced : No

Text #5
ID : 7
Format : VobSub
Codec ID : S_VOBSUB
Codec ID/Info : The same subtitle format used on DVDs
Language : Spanish
Default : No
Forced : No

Text #6
ID : 8
Format : VobSub
Codec ID : S_VOBSUB
Codec ID/Info : The same subtitle format used on DVDs
Language : Chinese
Default : No
Forced : No

Text #7
ID : 9
Format : VobSub
Codec ID : S_VOBSUB
Codec ID/Info : The same subtitle format used on DVDs
Language : Korean
Default : No
Forced : No

Text #8
ID : 10
Format : VobSub
Codec ID : S_VOBSUB
Codec ID/Info : The same subtitle format used on DVDs
Language : Japanese
Default : No
Forced : No

Menu
00:00:00.000 : en:Chapter 01
00:02:08.328 : en:Chapter 02
00:09:20.259 : en:Chapter 03
00:11:23.616 : en:Chapter 04
00:13:16.996 : en:Chapter 05
00:17:28.013 : en:Chapter 06
00:23:03.248 : en:Chapter 07
00:24:56.862 : en:Chapter 08
00:27:22.340 : en:Chapter 09
00:28:43.421 : en:Chapter 10
00:30:41.539 : en:Chapter 11
00:33:45.223 : en:Chapter 12
00:37:20.938 : en:Chapter 13
00:39:48.352 : en:Chapter 14
00:42:18.402 : en:Chapter 15
00:45:10.407 : en:Chapter 16
00:46:54.511 : en:Chapter 17
00:52:18.101 : en:Chapter 18
00:54:25.962 : en:Chapter 19
00:56:38.094 : en:Chapter 20
01:00:22.652 : en:Chapter 21
01:02:52.335 : en:Chapter 22
01:06:58.381 : en:Chapter 23
01:13:43.352 : en:Chapter 24
01:17:19.301 : en:Chapter 25
01:21:26.581 : en:Chapter 26
01:24:00.735 : en:Chapter 27
01:27:26.441 : en:Chapter 28
01:29:45.847 : en:Chapter 29
01:32:00.214 : en:Chapter 30
01:33:29.971 : en:Chapter 31
01:37:17.698 : en:Chapter 32
01:39:29.530 : en:Chapter 33
01:42:47.594 : en:Chapter 34
01:45:44.538 : en:Chapter 35
01:48:08.849 : en:Chapter 36
01:56:43.696 : en:Chapter 37
01:59:24.724 : en:Chapter 38
02:02:23.202 : en:Chapter 39
02:04:57.690 : en:Chapter 40
02:06:59.311 : en:Chapter 41
02:10:41.033 : en:Chapter 42
02:14:03.935 : en:Chapter 43
02:20:34.659 : en:Chapter 44
02:22:54.198 : en:Chapter 45
02:24:23.054 : en:Chapter 46
02:25:34.959 : en:Chapter 47
02:27:21.766 : en:Chapter 48
02:32:09.353 : en:Chapter 49
02:34:36.500 : en:Chapter 50
02:40:37.527 : en:Chapter 51
02:44:20.750 : en:Chapter 52
02:50:00.089 : en:Chapter 53
02:55:17.240 : en:Chapter 54

All screenshots taken from BDRip

Gianluigi Gelmetti, Teatro Regio di Parma Chorus and Orchestra - Verdi: La forza del destino (2012) [Blu-Ray]