Subcategories

Vince Guaraldi Trio - Jazz Impressions of Black Orpheus (1962) [Analogue Productions, Remastered 2002, Audio CD Layer] Repost

Posted By: Designol
Vince Guaraldi Trio - Jazz Impressions of Black Orpheus (1962) [Analogue Productions, Remastered 2002, Audio CD Layer] Repost

Vince Guaraldi Trio - Jazz Impressions of Black Orpheus (1962) APO Remastered 2002
EAC | FLAC | Tracks (Cue&Log) ~ 228 Mb | Mp3 (CBR320) ~ 95 Mb | Scans included | 00:39:14
Mainstream Jazz, Cool, Latin Jazz | Label: Analogue Productions, Fantasy | # CAPJ 8089 SA, 8089

Here is Vince Guaraldi's breakthrough album – musically, commercially, in every which way. After numerous records as a leader or sideman, for the first time a recognizable Guaraldi piano style emerges, with whimsical phrasing all his own, a madly swinging right hand and occasional boogie-influenced left hand, and a distinctive, throat-catching, melodic improvisational gift. The first half of the program is taken up by cover versions of tunes from the Antonio Carlos Jobim/Luiz Bonfa score for the film Black Orpheus, recorded just as bossa nova was taking hold in America. These are genuinely jazz-oriented impressions in a mainstream boppish manner, with only a breath of samba from Monty Budwig (bass) and Colin Bailey (drums) in the opening minute of "Samba de Orpheus"; an edited version of this haunting song was issued as a 45 rpm single. But DJs soon began flipping the single over to play the B-side, a wistful, unforgettably catchy Guaraldi tune called "Cast Your Fate to the Wind" that opens the North American half of the album. The tune became a surprise hit; Fantasy redesigned the cover to call attention to it, and Vince was on his way to fame as one of Latin and mainstream jazz's most irresistible composers. The whole album evokes the ambience of San Francisco's jazz life in the 1960s as few others do – and such is this record's appeal that even non-jazz and non-Latin music people have been grooving to this music ever since it came out.

Review by Richard S. Ginell, Allmusic.com

Vince Guaraldi Trio - Jazz Impressions of Black Orpheus (1962) [Analogue Productions, Remastered 2002, Audio CD Layer] Repost



Vince Guaraldi - piano
Monte Budwig - bass
Colin Bailey - drums

Recorded February 1962 except "Since I Fell For You," which was recorded November 1961.

Tracklist:

01. Samba de Orpheus (5:43)
02. Manha de Carnaval (5:51)
03. O Nosso Amor (4:57)
04. Generique (4:48)
05. Cast Your Fate to the Wind (3:10)
06. Moon River (5:22)
07. Alma-Ville (5:01)
08. Since I Fell for You (4:23)


Exact Audio Copy V1.3 from 2. September 2016

EAC extraction logfile from 22. July 2017, 15:28

Vince Guaraldi Trio / Jazz Impressions of Black Orpheus (2002 AP)

Used drive : PLEXTOR CD-R PREMIUM Adapter: 1 ID: 1

Read mode : Secure
Utilize accurate stream : Yes
Defeat audio cache : Yes
Make use of C2 pointers : No

Read offset correction : 30
Overread into Lead-In and Lead-Out : No
Fill up missing offset samples with silence : Yes
Delete leading and trailing silent blocks : No
Null samples used in CRC calculations : Yes
Used interface : Native Win32 interface for Win NT & 2000
Gap handling : Appended to previous track

Used output format : User Defined Encoder
Selected bitrate : 768 kBit/s
Quality : High
Add ID3 tag : No
Command line compressor : C:\Program Files (x86)\Exact Audio Copy\FLAC\FLAC.EXE
Additional command line options : -6 -e -p -V -T "ARTIST=%artist%" -T "TITLE=%title%" -T "ALBUM=%albumtitle%" -T "DATE=%year%" -T "TRACKNUMBER=%tracknr%" -T "GENRE=%genre%" -T "PERFORMER=%albuminterpret%" -T "COMPOSER=%composer%" %haslyrics%–tag-from-file=LYRICS="%lyricsfile%"%haslyrics% -T "ALBUMARTIST=%albumartist%" -T "DISCNUMBER=%cdnumber%" -T "TOTALDISCS=%totalcds%" -T "TOTALTRACKS=%numtracks%" -T "COMMENT=%comment%" %source% -o %dest%


TOC of the extracted CD

Track | Start | Length | Start sector | End sector
––––––––––––––––––––––––––––-
1 | 0:00.00 | 5:42.62 | 0 | 25711
2 | 5:42.62 | 5:50.50 | 25712 | 52011
3 | 11:33.37 | 4:57.00 | 52012 | 74286
4 | 16:30.37 | 4:48.00 | 74287 | 95886
5 | 21:18.37 | 3:10.00 | 95887 | 110136
6 | 24:28.37 | 5:21.63 | 110137 | 134274
7 | 29:50.25 | 5:00.62 | 134275 | 156836
8 | 34:51.12 | 4:22.50 | 156837 | 176536


Track 1

Filename C:\tmp\00_RIPS\01 - Samba de Orpheus.wav

Pre-gap length 0:00:02.00

Peak level 100.0 %
Extraction speed 8.5 X
Track quality 100.0 %
Test CRC 753F2674
Copy CRC 753F2674
Accurately ripped (confidence 15) [C9C8DAE6] (AR v2)
Copy OK

Track 2

Filename C:\tmp\00_RIPS\02 - Manha de Carnaval.wav

Pre-gap length 0:00:03.00

Peak level 94.6 %
Extraction speed 9.8 X
Track quality 100.0 %
Test CRC 06864AFA
Copy CRC 06864AFA
Accurately ripped (confidence 15) [58AB9CFC] (AR v2)
Copy OK

Track 3

Filename C:\tmp\00_RIPS\03 - O Nosso Amor.wav

Pre-gap length 0:00:01.00

Peak level 90.6 %
Extraction speed 10.8 X
Track quality 100.0 %
Test CRC B4E50469
Copy CRC B4E50469
Accurately ripped (confidence 15) [D91B6201] (AR v2)
Copy OK

Track 4

Filename C:\tmp\00_RIPS\04 - Generique.wav

Pre-gap length 0:00:01.82

Peak level 91.8 %
Extraction speed 11.7 X
Track quality 100.0 %
Test CRC 0ADB7F78
Copy CRC 0ADB7F78
Accurately ripped (confidence 15) [D5E2AF7A] (AR v2)
Copy OK

Track 5

Filename C:\tmp\00_RIPS\05 - Cast Your Fate to the Wind.wav

Pre-gap length 0:00:02.00

Peak level 100.0 %
Extraction speed 11.9 X
Track quality 100.0 %
Test CRC 177C99ED
Copy CRC 177C99ED
Accurately ripped (confidence 15) [328E0AA3] (AR v2)
Copy OK

Track 6

Filename C:\tmp\00_RIPS\06 - Moon River.wav

Pre-gap length 0:00:02.48

Peak level 77.7 %
Extraction speed 13.0 X
Track quality 100.0 %
Test CRC 39E7E2E0
Copy CRC 39E7E2E0
Accurately ripped (confidence 15) [BE04FC97] (AR v2)
Copy OK

Track 7

Filename C:\tmp\00_RIPS\07 - Alma-Ville.wav

Pre-gap length 0:00:02.00

Peak level 100.0 %
Extraction speed 13.7 X
Track quality 100.0 %
Test CRC 63586C68
Copy CRC 63586C68
Accurately ripped (confidence 15) [5BC19C85] (AR v2)
Copy OK

Track 8

Filename C:\tmp\00_RIPS\08 - Since I Fell for You.wav

Pre-gap length 0:00:02.48

Peak level 100.0 %
Extraction speed 14.0 X
Track quality 100.0 %
Test CRC 7982C555
Copy CRC 7982C555
Accurately ripped (confidence 15) [C58FFCE2] (AR v2)
Copy OK


All tracks accurately ripped

No errors occurred

End of status report

–– CUETools DB Plugin V2.1.6

[CTDB TOCID: zYlA8SiSsYvPwYfvvhSaLrN.Ohc-] found
Submit result: zYlA8SiSsYvPwYfvvhSaLrN.Ohc- has been confirmed
Track | CTDB Status
1 | (4/4) Accurately ripped
2 | (4/4) Accurately ripped
3 | (4/4) Accurately ripped
4 | (4/4) Accurately ripped
5 | (4/4) Accurately ripped
6 | (4/4) Accurately ripped
7 | (4/4) Accurately ripped
8 | (4/4) Accurately ripped


==== Log checksum FA1540C81BE7CD1E1F52F7B19E5800E4AA0F115E0897E4DF6E687CA006E6C1B4 ====

foobar2000 1.2 / Dynamic Range Meter 1.1.1
log date: 2017-09-27 06:16:41

––––––––––––––––––––––––––––––––––––––––
Analyzed: Vince Guaraldi / Jazz Impressions of Black Orpheus
––––––––––––––––––––––––––––––––––––––––

DR Peak RMS Duration Track
––––––––––––––––––––––––––––––––––––––––
DR13 0.00 dB -15.80 dB 5:43 01-Samba de Orpheus
DR13 -0.48 dB -17.39 dB 5:51 02-Manha de Carnaval
DR11 -0.85 dB -15.80 dB 4:57 03-O Nosso Amor
DR11 -0.74 dB -14.59 dB 4:48 04-Generique
DR12 0.00 dB -14.78 dB 3:10 05-Cast Your Fate to the Wind
DR12 -2.18 dB -19.05 dB 5:22 06-Moon River
DR12 0.00 dB -14.56 dB 5:01 07-Alma-Ville
DR13 0.00 dB -18.46 dB 4:23 08-Since I Fell for You
––––––––––––––––––––––––––––––––––––––––

Number of tracks: 8
Official DR value: DR12

Samplerate: 44100 Hz
Channels: 2
Bits per sample: 16
Bitrate: 753 kbps
Codec: FLAC
================================================================================

Vince Guaraldi Trio - Jazz Impressions of Black Orpheus (1962) [Analogue Productions, Remastered 2002, Audio CD Layer] Repost

Vince Guaraldi Trio - Jazz Impressions of Black Orpheus (1962) [Analogue Productions, Remastered 2002, Audio CD Layer] Repost

All thanks to original releaser - mclarenspy

More interesting music in My Blog